Tags
Language
Tags
January 2023
Su Mo Tu We Th Fr Sa
1 2 3 4 5 6 7
8 9 10 11 12 13 14
15 16 17 18 19 20 21
22 23 24 25 26 27 28
29 30 31 1 2 3 4

VA - Cafe del Mar: SunScapes (2015)

Posted By: Designol
VA - Cafe del Mar: SunScapes (2015)

VA - Café del Mar: SunScapes (2015)
EAC | FLAC | Image (Cue&Log) ~ 352 Mb | Mp3 (CBR320) ~ 200 Mb | Scans included
Lounge, Chillout, Ambient | Label: Cafe del Mar Music | # 1-2015-113 | Time: 01:11:11

SunScapes features a new Ambient Music concept that has received strong feedbacks from the many followers of the legendary Café del Mar. SunScapes is a deeply atmospheric journey featuring some of the most iconic ambient artists such as Marconi Union, Biosphere and Max Cooper.

Tracklist:

01. Wes Willenbring - Sometimes (05:22)
02. Marcus Mehr - Only For A While (08:59)
03. Tobias Hellkvist - Turqoise (07:40)
04. M. Ostermeier - Sunlight On My Desk (02:49)
05. Brian McBride - Girl Nap (03:51)
06. Bvdub & Loscil - Moirai (16:31)
07. Max Cooper - End Of A Reason (08:22)
08. Marconi Union - Weightless (08:00)
09. Biosphere - Poa Alpina (04:11)
10. Yagya - Sleepy Girl 1 (05:23)


Exact Audio Copy V1.1 from 23. June 2015

Отчёт EAC об извлечении, выполненном 6. ноября 2015, 2:09

Various Artists / Cafe del Mar - Sun Scapes

Дисковод: _NEC DVD_RW ND-4570A Adapter: 1 ID: 0

Режим чтения : Достоверность
Использование точного потока : Да
Отключение кэша аудио : Да
Использование указателей C2 : Нет

Коррекция смещения при чтении : 48
Способность читать области Lead-in и Lead-out : Нет
Заполнение пропущенных сэмплов тишиной : Да
Удаление блоков с тишиной в начале и конце : Нет
При вычислениях CRC использовались нулевые сэмплы : Да
Интерфейс : Встроенный Win32-интерфейс для Win NT/2000

Выходной формат : Пользовательский кодировщик
Выбранный битрейт : 768 kBit/s
Качество : Высокий
Добавление ID3-тега : Нет
Утилита сжатия : C:\Program Files\Exact Audio Copy\FLAC\FLAC.EXE
Дополнительные параметры : -6 -V -T "ARTIST=%artist%" -T "TITLE=%title%" -T "ALBUM=%albumtitle%" -T "DATE=%year%" -T "TRACKNUMBER=%tracknr%" -T "GENRE=%genre%" -T "COMMENT=%comment%" -T "BAND=%albuminterpret%" -T "ALBUMARTIST=%albuminterpret%" -T "COMPOSER=%composer%" %haslyrics%–tag-from-file=LYRICS="%lyricsfile%"%haslyrics% -T "DISCNUMBER=%cdnumber%" -T "TOTALDISCS=%totalcds%" -T "TOTALTRACKS=%numtracks%" %hascover%–picture="%coverfile%"%hascover% %source% -o %dest%


TOC извлечённого CD

Трек | Старт | Длительность | Начальный сектор | Конечный сектор
––––––––––––––––––––––––––––––––––-
1 | 0:00.00 | 5:22.29 | 0 | 24178
2 | 5:22.29 | 8:59.13 | 24179 | 64616
3 | 14:21.42 | 7:40.02 | 64617 | 99118
4 | 22:01.44 | 2:49.31 | 99119 | 111824
5 | 24:51.00 | 3:51.16 | 111825 | 129165
6 | 28:42.16 | 16:31.74 | 129166 | 203564
7 | 45:14.15 | 8:22.74 | 203565 | 241288
8 | 53:37.14 | 8:00.16 | 241289 | 277304
9 | 61:37.30 | 4:11.06 | 277305 | 296135
10 | 65:48.36 | 5:23.22 | 296136 | 320382


Характеристики диапазона извлечения и сообщения об ошибках

Выбранный диапазон

Имя файла D:\UPLOADS-3\Cafe del Mar - Sun Scapes - 2015 - 71'13''\Various Artists - Cafe del Mar - Sun Scapes.wav

Пиковый уровень 96.9 %
Скорость извлечения 2.2 X
Качество диапазона 99.9 %
CRC теста 57A290E9
CRC копии 57A290E9
Копирование… OK

Ошибок не произошло

Конец отчёта

–– CUETools DB Plugin V2.1.6

[CTDB TOCID: YkRf4OAM2fpqJXWZNGmjetr0MS4-] found
Submit result: YkRf4OAM2fpqJXWZNGmjetr0MS4- has been confirmed
Track | CTDB Status
1 | (2/2) Accurately ripped
2 | (2/2) Accurately ripped
3 | (2/2) Accurately ripped
4 | (2/2) Accurately ripped
5 | (2/2) Accurately ripped
6 | (2/2) Accurately ripped
7 | (2/2) Accurately ripped
8 | (2/2) Accurately ripped
9 | (2/2) Accurately ripped
10 | (2/2) Accurately ripped


==== Контрольная сумма отчёта 00E7824396C1D227754FB5515FBAE9CA684145FD124F64B9778C4CD2035D3DAD ====

foobar2000 1.3.8 / Dynamic Range Meter 1.1.1
log date: 2015-11-21 21:52:40

––––––––––––––––––––––––––––––––––––––––
Analyzed: Brian McBride / Cafe del Mar - Sun Scapes (1)
Bvdub & Loscil / Cafe del Mar - Sun Scapes (2)
––––––––––––––––––––––––––––––––––––––––

DR Peak RMS Duration Track
––––––––––––––––––––––––––––––––––––––––
DR12 -0.30 dB -18.29 dB 3:51 05-Girl Nap
DR9 -0.27 dB -14.20 dB 16:32 06-Moirai
––––––––––––––––––––––––––––––––––––––––

Number of tracks: 2
Official DR value: DR11

Samplerate: 44100 Hz
Channels: 2
Bits per sample: 16
Bitrate: 618 kbps
Codec: FLAC
================================================================================

––––––––––––––––––––––––––––––––––––––––
Analyzed: M. Ostermeier / Cafe del Mar - Sun Scapes (1)
Marconi Union / Cafe del Mar - Sun Scapes (2)
––––––––––––––––––––––––––––––––––––––––

DR Peak RMS Duration Track
––––––––––––––––––––––––––––––––––––––––
DR10 -0.30 dB -12.34 dB 2:49 04-Sunlight On My Desk
DR9 -0.53 dB -11.70 dB 8:00 08-Weightless
––––––––––––––––––––––––––––––––––––––––

Number of tracks: 2
Official DR value: DR10

Samplerate: 44100 Hz
Channels: 2
Bits per sample: 16
Bitrate: 618 kbps
Codec: FLAC
================================================================================

––––––––––––––––––––––––––––––––––––––––
Analyzed: Marcus Mehr / Cafe del Mar - Sun Scapes (1)
Max Cooper / Cafe del Mar - Sun Scapes (2)
––––––––––––––––––––––––––––––––––––––––

DR Peak RMS Duration Track
––––––––––––––––––––––––––––––––––––––––
DR5 -0.95 dB -9.22 dB 8:59 02-Only For A While
DR7 -1.00 dB -10.84 dB 8:23 07-End Of A Reason
––––––––––––––––––––––––––––––––––––––––

Number of tracks: 2
Official DR value: DR6

Samplerate: 44100 Hz
Channels: 2
Bits per sample: 16
Bitrate: 618 kbps
Codec: FLAC
================================================================================

––––––––––––––––––––––––––––––––––––––––
Statistics for: 03-Turqoise
Number of samples: 20287176
Duration: 7:40
––––––––––––––––––––––––––––––––––––––––

Left Right

Peak Value: -1.34 dB –- -1.30 dB
Avg RMS: -12.53 dB –- -13.33 dB
DR channel: 7.64 dB –- 8.36 dB
––––––––––––––––––––––––––––––––––––––––

Official DR Value: DR8

Samplerate: 44100 Hz
Channels: 2
Bits per sample: 16
Bitrate: 618 kbps
Codec: FLAC
================================================================================
––––––––––––––––––––––––––––––––––––––––
Analyzed: Wes Willenbring / Cafe del Mar - Sun Scapes (1)
Yagya / Cafe del Mar - Sun Scapes (2)
––––––––––––––––––––––––––––––––––––––––

DR Peak RMS Duration Track
––––––––––––––––––––––––––––––––––––––––
DR7 -1.26 dB -11.25 dB 5:22 01-Sometimes
DR7 -0.53 dB -9.17 dB 5:23 10-Sleepy Girl 1
––––––––––––––––––––––––––––––––––––––––

Number of tracks: 2
Official DR value: DR7

Samplerate: 44100 Hz
Channels: 2
Bits per sample: 16
Bitrate: 618 kbps
Codec: FLAC
================================================================================

foobar2000 1.3.8 / Dynamic Range Meter 1.1.1
log date: 2015-11-21 21:52:25

––––––––––––––––––––––––––––––––––––––––
Statistics for: 09-Poa Alpina
Number of samples: 11072628
Duration: 4:11
––––––––––––––––––––––––––––––––––––––––

Left Right

Peak Value: -0.30 dB –- -0.30 dB
Avg RMS: -9.33 dB –- -9.50 dB
DR channel: 6.53 dB –- 6.86 dB
––––––––––––––––––––––––––––––––––––––––

Official DR Value: DR7

Samplerate: 44100 Hz
Channels: 2
Bits per sample: 16
Bitrate: 618 kbps
Codec: FLAC
================================================================================

VA - Cafe del Mar: SunScapes (2015)

VA - Cafe del Mar: SunScapes (2015)

All thanks to original releaser

More interesting music in My Blog