Tags
Language
Tags
July 2024
Su Mo Tu We Th Fr Sa
30 1 2 3 4 5 6
7 8 9 10 11 12 13
14 15 16 17 18 19 20
21 22 23 24 25 26 27
28 29 30 31 1 2 3

Nick Simper's Fandango - Slipstreaming / Future Times (1979/1980) {1999, Remastered}

Posted By: popsakov
Nick Simper's Fandango - Slipstreaming / Future Times (1979/1980) {1999, Remastered}

Nick Simper's Fandango - Slipstreaming / Future Times (1979/1980) {1999, Remastered}
2CD | EAC Rip | FLAC (Img) + Cue + Log ~ 768 Mb | MP3 CBR320 ~ 327 Mb
Full Scans | 00:53:34 + 00:46:20 | RAR 5% Recovery
Hard Rock | Angel Air Records #SJPCD041

This intriguing Angel Air release spotlights two albums produced in the wake of punk rock and seemingly destined to be overlooked in the history of heavy rock.

Fandango developed out of that other seminal seventies heavy rock outfit, Warhorse. Nick Simper, original bassist for Deep Purple, joined with ex-Warhorse guitarist Peter Parks along with drummer Ron Penny and vocalist James Proops.

Their first album, “Slipstreaming” was recorded and originally released on a small German label in 1979. The second album, “Future Times”, was recorded and released the following year with Mac Poole, former Warhorse drummer, replacing Penny.

Now available for the first time on CD, this release includes two singles and bonus tracks never before available on CD. As ever, this package is completed by comprehensive liner notes and band photographs. The album is a must for any fan of British Rock and a real gem for any collector of Deep Purple related items.

***************

Track List CD1 - Slipstreaming:

01. Candice Larene [06:36]
02. Rocky Road Blues [05:05]
03. Independent Man [06:33]
04. The Stallion [03:52]
05. Slipstreaming [04:25]
06. Schoolhouse Party [04:16]
07. Sister [04:53]
08. Mississippi Lady [04:18]
09. Time Will Tell [05:54]
10. Just Another Day - Bonus [03:59]
11. Wish I'd Never Woke Up - Bonus [03:48]

Exact Audio Copy V1.1 from 23. June 2015

EAC extraction logfile from 23. July 2016, 11:38

Fandango / Slipstreaming

Used drive : TSSTcorpCDDVDW TS-L633B Adapter: 1 ID: 0

Read mode : Secure
Utilize accurate stream : Yes
Defeat audio cache : Yes
Make use of C2 pointers : No

Read offset correction : 6
Overread into Lead-In and Lead-Out : No
Fill up missing offset samples with silence : Yes
Delete leading and trailing silent blocks : No
Null samples used in CRC calculations : Yes
Used interface : Native Win32 interface for Win NT & 2000

Used output format : Internal WAV Routines
Sample format : 44.100 Hz; 16 Bit; Stereo


TOC of the extracted CD

Track | Start | Length | Start sector | End sector
––––––––––––––––––––––––––––-
1 | 0:00.00 | 6:35.12 | 0 | 29636
2 | 6:35.12 | 5:04.23 | 29637 | 52459
3 | 11:39.35 | 6:32.73 | 52460 | 81932
4 | 18:12.33 | 3:51.16 | 81933 | 99273
5 | 22:03.49 | 4:24.65 | 99274 | 119138
6 | 26:28.39 | 4:15.18 | 119139 | 138281
7 | 30:43.57 | 4:52.58 | 138282 | 160239
8 | 35:36.40 | 4:17.67 | 160240 | 179581
9 | 39:54.32 | 5:53.69 | 179582 | 206125
10 | 45:48.26 | 3:58.47 | 206126 | 224022
11 | 49:46.73 | 3:47.02 | 224023 | 241049


Range status and errors

Selected range

Filename G:\Alexharvey\Fandango - Slipstreaming.wav

Peak level 100.0 %
Extraction speed 2.9 X
Range quality 100.0 %
Test CRC 385B3195
Copy CRC 385B3195
Copy OK

No errors occurred


AccurateRip summary

Track 1 cannot be verified as accurate (confidence 1) [922D37A6], AccurateRip returned [1B7AF97E] (AR v2)
Track 2 cannot be verified as accurate (confidence 1) [F4EF11A8], AccurateRip returned [275BB68F] (AR v2)
Track 3 cannot be verified as accurate (confidence 1) [DDDF57F2], AccurateRip returned [E11A03E4] (AR v2)
Track 4 cannot be verified as accurate (confidence 1) [DAC8FA54], AccurateRip returned [33E8B43F] (AR v2)
Track 5 cannot be verified as accurate (confidence 1) [C8A38E7B], AccurateRip returned [00CA8062] (AR v2)
Track 6 cannot be verified as accurate (confidence 1) [29BE05D1], AccurateRip returned [7B4C2A88] (AR v2)
Track 7 cannot be verified as accurate (confidence 1) [4A186DEA], AccurateRip returned [EB5FC794] (AR v2)
Track 8 cannot be verified as accurate (confidence 1) [AB00C170], AccurateRip returned [EAFE9F07] (AR v2)
Track 9 cannot be verified as accurate (confidence 1) [786C7454], AccurateRip returned [F9CBBC48] (AR v2)
Track 10 cannot be verified as accurate (confidence 1) [98013C82], AccurateRip returned [6C74326B] (AR v2)
Track 11 cannot be verified as accurate (confidence 1) [40EFA8A9], AccurateRip returned [FBD0F10D] (AR v2)

No tracks could be verified as accurate
You may have a different pressing from the one(s) in the database

End of status report

==== Log checksum DB9292A3F0892E4CFA2468B3A3023B6227170247797EF908EC46860EFCF3CE67 ====

foobar2000 1.3.10 / Dynamic Range Meter 1.1.1
log date: 2016-07-23 13:38:48

––––––––––––––––––––––––––––––––––––––––
Analyzed: Fandango / Slipstreaming
––––––––––––––––––––––––––––––––––––––––

DR Peak RMS Duration Track
––––––––––––––––––––––––––––––––––––––––
DR10 0.00 dB -11.15 dB 6:35 01-Candice Larene
DR9 0.00 dB -10.85 dB 5:04 02-Rocky Road Blues
DR10 0.00 dB -11.55 dB 6:33 03-Independent Man
DR10 0.00 dB -13.07 dB 3:51 04-The Stallion
DR8 0.00 dB -9.09 dB 4:25 05-Slipstreaming
DR10 0.00 dB -10.99 dB 4:15 06-Schoolhouse Party
DR8 0.00 dB -9.44 dB 4:53 07-Sister
DR9 0.00 dB -10.60 dB 4:18 08-Mississippi Lady
DR9 0.00 dB -12.55 dB 5:54 09-Time Will Tell
DR9 0.00 dB -10.23 dB 3:59 10-Just Another Day - Bonus
DR9 0.00 dB -10.70 dB 3:47 11-Wish I'd Never Woke Up - Bonus
––––––––––––––––––––––––––––––––––––––––

Number of tracks: 11
Official DR value: DR9

Samplerate: 44100 Hz
Channels: 2
Bits per sample: 16
Bitrate: 915 kbps
Codec: FLAC
================================================================================

[CUETools log; Date: 23.07.2016 13:37:37; Version: 2.1.6]
[CTDB TOCID: KhaykwGU1fL3uG64772aUAvyyoI-] found.
Track | CTDB Status
1 | (2/2) Accurately ripped
2 | (2/2) Accurately ripped
3 | (2/2) Accurately ripped
4 | (2/2) Accurately ripped
5 | (2/2) Accurately ripped
6 | (2/2) Accurately ripped
7 | (2/2) Accurately ripped
8 | (2/2) Accurately ripped
9 | (2/2) Accurately ripped
10 | (2/2) Accurately ripped
11 | (2/2) Accurately ripped
[AccurateRip ID: 00175f62-00c6f8dc-a20c8e0b] found.
Track [ CRC | V2 ] Status
01 [6ebb1516|922d37a6] (0+0/1) No match
02 [3e293a13|f4ef11a8] (0+0/1) No match
03 [692b9ad2|dddf57f2] (0+0/1) No match
04 [2170a8dd|dac8fa54] (0+0/1) No match
05 [59bbffae|c8a38e7b] (0+0/1) No match
06 [ef4e8df2|29be05d1] (0+0/1) No match
07 [a8973666|4a186dea] (0+0/1) No match
08 [3afc25ff|ab00c170] (0+0/1) No match
09 [403cf108|786c7454] (0+0/1) No match
10 [c3198b1d|98013c82] (0+0/1) No match
11 [09a8ca39|40efa8a9] (0+0/1) No match
Offsetted by -6:
01 [1b7af97e] (1/1) Accurately ripped
02 [275bb68f] (1/1) Accurately ripped
03 [e11a03e4] (1/1) Accurately ripped
04 [33e8b43f] (1/1) Accurately ripped
05 [00ca8062] (1/1) Accurately ripped
06 [7b4c2a88] (1/1) Accurately ripped
07 [eb5fc794] (1/1) Accurately ripped
08 [eafe9f07] (1/1) Accurately ripped
09 [f9cbbc48] (1/1) Accurately ripped
10 [6c74326b] (1/1) Accurately ripped
11 [fbd0f10d] (1/1) Accurately ripped

Track Peak [ CRC32 ] [W/O NULL] [ LOG ]
– 100,0 [385B3195] [D30479DE] CRC32
01 100,0 [38D4488F] [F8F8E43C]
02 100,0 [6B4081DE] [3CC0280B]
03 100,0 [4D35B1E7] [FCC2C917]
04 100,0 [C09B9E40] [DC7F569A]
05 100,0 [6EEDC991] [E0DA2A32]
06 100,0 [245C5883] [39F7AF22]
07 100,0 [018782F7] [3B76434A]
08 100,0 [7483A789] [6A8C7A13]
09 100,0 [FB5D2FB0] [1945B821]
10 100,0 [B9AB3322] [96F1F589]
11 100,0 [268106A4] [42E7248B]

Track List CD2 - Future Times:

01. Pull Out & Start Again [05:16]
02. I'll Never Get Over You [02:51]
03. Get Down, Lay Down [05:41]
04. She Was My Friend [04:51]
05. Future Times [04:52]
06. Undercover Man [05:48]
07. Something's Burning [04:52]
08. Hard Drink & Easy Woman [03:48]
09. Is My Love In Vain - Bonus [04:03]
10. The Point Of No Return - Bonus [04:24]

Exact Audio Copy V1.1 from 23. June 2015

EAC extraction logfile from 23. July 2016, 20:59

Fandango / Future Times

Used drive : TSSTcorpCDDVDW TS-L633B Adapter: 1 ID: 0

Read mode : Secure
Utilize accurate stream : Yes
Defeat audio cache : Yes
Make use of C2 pointers : No

Read offset correction : 6
Overread into Lead-In and Lead-Out : No
Fill up missing offset samples with silence : Yes
Delete leading and trailing silent blocks : No
Null samples used in CRC calculations : Yes
Used interface : Native Win32 interface for Win NT & 2000

Used output format : Internal WAV Routines
Sample format : 44.100 Hz; 16 Bit; Stereo


TOC of the extracted CD

Track | Start | Length | Start sector | End sector
––––––––––––––––––––––––––––-
1 | 0:00.00 | 5:15.39 | 0 | 23663
2 | 5:15.39 | 2:50.64 | 23664 | 36477
3 | 8:06.28 | 5:40.46 | 36478 | 62023
4 | 13:46.74 | 4:50.12 | 62024 | 83785
5 | 18:37.11 | 4:51.13 | 83786 | 105623
6 | 23:28.24 | 5:47.17 | 105624 | 131665
7 | 29:15.41 | 4:51.67 | 131666 | 153557
8 | 34:07.33 | 3:47.02 | 153558 | 170584
9 | 37:54.35 | 4:02.26 | 170585 | 188760
10 | 41:56.61 | 4:23.14 | 188761 | 208499


Range status and errors

Selected range

Filename G:\Alexharvey\Fandango - Future Times.wav

Peak level 100.0 %
Extraction speed 2.8 X
Range quality 100.0 %
Test CRC EDBF1979
Copy CRC EDBF1979
Copy OK

No errors occurred


AccurateRip summary

Track 1 cannot be verified as accurate (confidence 1) [FB0EF71F], AccurateRip returned [7E0F8E43] (AR v2)
Track 2 cannot be verified as accurate (confidence 1) [4FDBC815], AccurateRip returned [91A892EE] (AR v2)
Track 3 cannot be verified as accurate (confidence 1) [1F04430F], AccurateRip returned [7B201FFB] (AR v2)
Track 4 cannot be verified as accurate (confidence 1) [5F855F35], AccurateRip returned [280971ED] (AR v2)
Track 5 cannot be verified as accurate (confidence 1) [A42E5E7D], AccurateRip returned [CF930647] (AR v2)
Track 6 cannot be verified as accurate (confidence 1) [E8FD0FBA], AccurateRip returned [63E2AC6F] (AR v2)
Track 7 cannot be verified as accurate (confidence 1) [09208EF1], AccurateRip returned [6408809B] (AR v2)
Track 8 cannot be verified as accurate (confidence 1) [DFFDBBE2], AccurateRip returned [3048F391] (AR v2)
Track 9 cannot be verified as accurate (confidence 1) [B4802104], AccurateRip returned [6B69C419] (AR v2)
Track 10 cannot be verified as accurate (confidence 1) [230148AE], AccurateRip returned [4A0CE738] (AR v2)

No tracks could be verified as accurate
You may have a different pressing from the one(s) in the database

End of status report

==== Log checksum 7DF43A4D709C0BC7D9A40D77F20E354A598EE8A2241616CA59D14A504FF9D838 ====

foobar2000 1.3.10 / Dynamic Range Meter 1.1.1
log date: 2016-07-24 06:14:29

––––––––––––––––––––––––––––––––––––––––
Analyzed: Fandango / Future Times
––––––––––––––––––––––––––––––––––––––––

DR Peak RMS Duration Track
––––––––––––––––––––––––––––––––––––––––
DR9 0.00 dB -10.73 dB 5:16 01-Pull Out & Start Again
DR8 0.00 dB -12.61 dB 2:51 02-I'll Never Get Over You
DR8 0.00 dB -9.96 dB 5:41 03-Get Down, Lay Down
DR6 0.00 dB -9.20 dB 4:50 04-She Was My Friend
DR9 0.00 dB -11.06 dB 4:51 05-Future Times
DR9 0.00 dB -11.01 dB 5:47 06-Undercover Man
DR8 0.00 dB -11.37 dB 4:52 07-Something's Burning
DR8 0.00 dB -9.91 dB 3:47 08-Hard Drink & Easy Woman
DR8 0.00 dB -9.43 dB 4:02 09-Is My Love In Vain - Bonus
DR8 0.00 dB -9.86 dB 4:23 10-The Point Of No Return - Bonus
––––––––––––––––––––––––––––––––––––––––

Number of tracks: 10
Official DR value: DR8

Samplerate: 44100 Hz
Channels: 2
Bits per sample: 16
Bitrate: 895 kbps
Codec: FLAC
================================================================================

[CUETools log; Date: 24.07.2016 6:11:32; Version: 2.1.6]
[CTDB TOCID: 9RU7rseH6YrUXCc8lJhazXrLeYw-] disk not present in database.
[AccurateRip ID: 0011c566-008e4602-890adc0a] found.
Track [ CRC | V2 ] Status
01 [63268785|fb0ef71f] (0+0/1) No match
02 [de4d57c0|4fdbc815] (0+0/1) No match
03 [ea5afa49|1f04430f] (0+0/1) No match
04 [e7d6c4f1|5f855f35] (0+0/1) No match
05 [276947c5|a42e5e7d] (0+0/1) No match
06 [2c25e7fb|e8fd0fba] (0+0/1) No match
07 [ef830787|09208ef1] (0+0/1) No match
08 [91afe333|dffdbbe2] (0+0/1) No match
09 [1cb272af|b4802104] (0+0/1) No match
10 [7d6d753c|230148ae] (0+0/1) No match
Offsetted by -6:
01 [7e0f8e43] (1/1) Accurately ripped
02 [91a892ee] (1/1) Accurately ripped
03 [7b201ffb] (1/1) Accurately ripped
04 [280971ed] (1/1) Accurately ripped
05 [cf930647] (1/1) Accurately ripped
06 [63e2ac6f] (1/1) Accurately ripped
07 [6408809b] (1/1) Accurately ripped
08 [3048f391] (1/1) Accurately ripped
09 [6b69c419] (1/1) Accurately ripped
10 [4a0ce738] (1/1) Accurately ripped

Track Peak [ CRC32 ] [W/O NULL] [ LOG ]
– 100,0 [EDBF1979] [FA612CD3] CRC32
01 100,0 [76A60798] [3D961870]
02 100,0 [9B73AF2B] [4B47DD9A]
03 100,0 [CD6D24EC] [4AE69E61]
04 100,0 [F08C839F] [08960F31]
05 100,0 [17EB1E92] [92300239]
06 100,0 [4851EC07] [93AE06C4]
07 100,0 [F16E6EED] [8A16C54A]
08 100,0 [A228C983] [FB039A72]
09 100,0 [1A387EA5] [1EFA4881]
10 100,0 [4C33B0CB] [4DDCB3E7]

All thanks go to Alexharvey

>>> Nick Simper's in my Blog <<<

DOWNLOAD: