Tags
Language
Tags
July 2024
Su Mo Tu We Th Fr Sa
30 1 2 3 4 5 6
7 8 9 10 11 12 13
14 15 16 17 18 19 20
21 22 23 24 25 26 27
28 29 30 31 1 2 3

Mud - Rock On / As You Like It (2009)

Posted By: popsakov
Mud - Rock On / As You Like It (2009)

Mud - Rock On / As You Like It (2009)
EAC Rip | WavPack (Img) + Cue + Log ~ 647 Mb | MP3 CBR320 ~ 239 Mb
Full Scans | 01:18:11 | RAR 5% Recovery
Glam Rock, Pop Rock | 7T's Records #Glam CD 78

This 7T's two-fer combines two albums Mud released at the tail-end of their career – 1978's Rock On and 1979's As You Like It, adding a couple of bonus tracks for good measure. Mud's prime didn't last long, and these two records definitely arrived outside of it, just as the glitter fad was winding down, much to the blissful ignorance of Mud, who tried to carry on as if nothing had changed. This is the most painful on Rock On, where the oldies covers – "Walk Right Back," "Cut Across Shorty" – are silly and anemic, where they're paired with oddities like the mock-reggae of "Slow Talking Boy," a spangly overhaul of "Drift Away," and the turgid ballad "Too Much of Nothing." Mud is at their best when they get closest to the heavy stomp of before – "Careless Love," "Who You Gonna Love," "Burn on Marlon" – but those don't compare favorably to their earliest hits, leaving this as a mess. Mud bounced back somewhat on As You Like It, at least in terms of delivering silly guilty pleasure. For glitter purists, there may be too much disco here – particularly on the opening cover of Bobby Darin's "Dream Lover," which practically creates a holographic glitter ball, and the KC & the Sunshine Band knock-off title track – but this has a cheerfully stupid, goofy spirit, best heard on the delirious "1-2 Love" and rampaging "Right Between the Eyes," which surely trump the sub-Happy Days medley of "Why Do Fools Fall in Love" and "Book of Love."

~ Stephen Thomas Erlewine, All Music

***************

Track List:

Rock On (1978)
01. Burn On Marlon [2:59]
02. Let Me Get (Close To You) [2:56]
03. Walk Right Back [3:07]
04. Who You Gonna Love [3:48]
05. Slow Talking Boy [4:12]
06. Careless Love [3:38]
07. Drift Away [3:46]
08. Gotta Good Reason [3:20]
09. Too Much Of Nothing [3:54]
10. Cut Across Shorty [2:33]
Bonus Tracks
11. Just Try A Little Tenderness [3:48]
12. Let Me Get (Close To You) (Single Version) [2:49]

As You Like It (1979)
13. Dream Lover [3:28]
14. It's A Show [3:42]
15. 1-2 Love [2:37]
16. Heaven Was Meant For You [3:18]
17. As You Like It [3:08]
18. You'll Like It [3:01]
19. So Fine [3:36]
20. Right Between The Eyes [3:04]
21. Touchdown [3:21]
22. Why Do Fools Fall In Love / Book Of Love [3:00]
Bonus Tracks
23. Run Don't Walk [2:09]
24. Can't Stop [2:56]

Exact Audio Copy V1.3 from 2. September 2016

EAC extraction logfile from 2. December 2017, 19:53

Mud / Rock On & As You Like It

Used drive : PLEXTOR DVDR PX-L890SA Adapter: 1 ID: 1

Read mode : Secure
Utilize accurate stream : Yes
Defeat audio cache : Yes
Make use of C2 pointers : No

Read offset correction : 6
Overread into Lead-In and Lead-Out : No
Fill up missing offset samples with silence : Yes
Delete leading and trailing silent blocks : No
Null samples used in CRC calculations : Yes
Used interface : Native Win32 interface for Win NT & 2000

Used output format : User Defined Encoder
Selected bitrate : 1024 kBit/s
Quality : High
Add ID3 tag : No
Command line compressor : C:\Program Files (x86)\Exact Audio Copy\wavpack.exe
Additional command line options : -lm %source%


TOC of the extracted CD

Track | Start | Length | Start sector | End sector
––––––––––––––––––––––––––––-
1 | 0:00.00 | 2:59.32 | 0 | 13456
2 | 2:59.32 | 2:55.44 | 13457 | 26625
3 | 5:55.01 | 3:06.47 | 26626 | 40622
4 | 9:01.48 | 3:47.69 | 40623 | 57716
5 | 12:49.42 | 4:12.29 | 57717 | 76645
6 | 17:01.71 | 3:38.18 | 76646 | 93013
7 | 20:40.14 | 3:46.05 | 93014 | 109968
8 | 24:26.19 | 3:20.01 | 109969 | 124969
9 | 27:46.20 | 3:53.71 | 124970 | 142515
10 | 31:40.16 | 2:32.57 | 142516 | 153972
11 | 34:12.73 | 3:48.06 | 153973 | 171078
12 | 38:01.04 | 2:49.07 | 171079 | 183760
13 | 40:50.11 | 3:28.35 | 183761 | 199395
14 | 44:18.46 | 3:41.59 | 199396 | 216029
15 | 48:00.30 | 2:36.58 | 216030 | 227787
16 | 50:37.13 | 3:18.34 | 227788 | 242671
17 | 53:55.47 | 3:08.26 | 242672 | 256797
18 | 57:03.73 | 3:00.64 | 256798 | 270361
19 | 60:04.62 | 3:35.49 | 270362 | 286535
20 | 63:40.36 | 3:03.43 | 286536 | 300303
21 | 66:44.04 | 3:21.28 | 300304 | 315406
22 | 70:05.32 | 3:00.08 | 315407 | 328914
23 | 73:05.40 | 2:09.11 | 328915 | 338600
24 | 75:14.51 | 2:56.06 | 338601 | 351806


Range status and errors

Selected range

Filename D:\wwphil\Mud - Rock On & As You Like It (2009, Glam CD 78)\Mud - Rock On & As You Like It.wav

Peak level 97.7 %
Extraction speed 10.1 X
Range quality 100.0 %
Test CRC F2B7FD9C
Copy CRC F2B7FD9C
Copy OK

No errors occurred


AccurateRip summary

Track 1 accurately ripped (confidence 3) [EF84CA1F] (AR v2)
Track 2 accurately ripped (confidence 3) [7D1E3355] (AR v2)
Track 3 accurately ripped (confidence 3) [63881175] (AR v2)
Track 4 accurately ripped (confidence 3) [8226E389] (AR v2)
Track 5 accurately ripped (confidence 3) [AAF9BF04] (AR v2)
Track 6 accurately ripped (confidence 3) [843326D4] (AR v2)
Track 7 accurately ripped (confidence 3) [5BC4D2D5] (AR v2)
Track 8 accurately ripped (confidence 3) [E003A3E0] (AR v2)
Track 9 accurately ripped (confidence 3) [76FE5267] (AR v2)
Track 10 accurately ripped (confidence 3) [BFB87690] (AR v2)
Track 11 accurately ripped (confidence 3) [CF899CCF] (AR v2)
Track 12 accurately ripped (confidence 3) [EE7CFEA4] (AR v2)
Track 13 accurately ripped (confidence 3) [5F76795A] (AR v2)
Track 14 accurately ripped (confidence 3) [F812FB18] (AR v2)
Track 15 accurately ripped (confidence 3) [D8AEC151] (AR v2)
Track 16 accurately ripped (confidence 3) [01B96170] (AR v2)
Track 17 accurately ripped (confidence 3) [BFE5EBEE] (AR v2)
Track 18 accurately ripped (confidence 3) [3B6E3000] (AR v2)
Track 19 accurately ripped (confidence 3) [945F0D22] (AR v2)
Track 20 accurately ripped (confidence 3) [980E4669] (AR v2)
Track 21 accurately ripped (confidence 3) [64C103D1] (AR v2)
Track 22 accurately ripped (confidence 3) [19875BC2] (AR v2)
Track 23 accurately ripped (confidence 3) [F615B13D] (AR v2)
Track 24 accurately ripped (confidence 3) [20F4A0DC] (AR v2)

All tracks accurately ripped

End of status report

==== Log checksum A6ACE5999B0F29D6BADD51BF3C95275734377A2FB66E719D01BC03EA703B768B ====

[CUETools log; Date: 03.12.2017 12:54:15; Version: 2.1.5]
[CTDB TOCID: yj0mH1NT9dgiwyu6tTLz4Ucu2W0-] found.
Track | CTDB Status
1 | (2/2) Accurately ripped
2 | (2/2) Accurately ripped
3 | (2/2) Accurately ripped
4 | (2/2) Accurately ripped
5 | (2/2) Accurately ripped
6 | (2/2) Accurately ripped
7 | (2/2) Accurately ripped
8 | (2/2) Accurately ripped
9 | (2/2) Accurately ripped
10 | (2/2) Accurately ripped
11 | (2/2) Accurately ripped
12 | (2/2) Accurately ripped
13 | (2/2) Accurately ripped
14 | (2/2) Accurately ripped
15 | (2/2) Accurately ripped
16 | (2/2) Accurately ripped
17 | (2/2) Accurately ripped
18 | (2/2) Accurately ripped
19 | (2/2) Accurately ripped
20 | (2/2) Accurately ripped
21 | (2/2) Accurately ripped
22 | (2/2) Accurately ripped
23 | (2/2) Accurately ripped
24 | (2/2) Accurately ripped
[AccurateRip ID: 00451b47-04aa1f50-4a125218] found.
Track [ CRC | V2 ] Status
01 [d7262207|ef84ca1f] (0+3/8) Accurately ripped
02 [7d070860|7d1e3355] (0+3/8) Accurately ripped
03 [ff1d9662|63881175] (0+3/8) Accurately ripped
04 [cf758d88|8226e389] (0+3/8) Accurately ripped
05 [f9ffc13f|aaf9bf04] (0+3/8) Accurately ripped
06 [b74138b3|843326d4] (0+3/8) Accurately ripped
07 [618410f5|5bc4d2d5] (0+3/8) Accurately ripped
08 [c0c47242|e003a3e0] (0+3/8) Accurately ripped
09 [61db55c7|76fe5267] (0+3/8) Accurately ripped
10 [f5c43177|bfb87690] (0+3/8) Accurately ripped
11 [b44b41e1|cf899ccf] (0+3/8) Accurately ripped
12 [a394d099|ee7cfea4] (0+3/8) Accurately ripped
13 [13fc36df|5f76795a] (0+3/8) Accurately ripped
14 [c9220be1|f812fb18] (0+3/8) Accurately ripped
15 [fbd8cde5|d8aec151] (0+3/8) Accurately ripped
16 [1d45d60a|01b96170] (0+3/8) Accurately ripped
17 [3ccafe62|bfe5ebee] (0+3/8) Accurately ripped
18 [8af6cca5|3b6e3000] (0+3/8) Accurately ripped
19 [fcfa04c2|945f0d22] (0+3/8) Accurately ripped
20 [18c0b8d5|980e4669] (0+3/8) Accurately ripped
21 [fe22d59d|64c103d1] (0+3/8) Accurately ripped
22 [38165f9c|19875bc2] (0+3/8) Accurately ripped
23 [1f015746|f615b13d] (0+3/8) Accurately ripped
24 [e6121205|20f4a0dc] (0+3/8) Accurately ripped
Offsetted by -492:
01 [00a48096] (0/8) No match (V2 was not tested)
02 [1676bfd4] (0/8) No match (V2 was not tested)
03 [5eca6258] (0/8) No match (V2 was not tested)
04 [61de9228] (0/8) No match (V2 was not tested)
05 [94de0141] (0/8) No match (V2 was not tested)
06 [70ab2596] (0/8) No match (V2 was not tested)
07 [4d6fa54c] (0/8) No match (V2 was not tested)
08 [84059c60] (0/8) No match (V2 was not tested)
09 [79b77d75] (0/8) No match (V2 was not tested)
10 [cc5632d9] (0/8) No match (V2 was not tested)
11 [640e891a] (0/8) No match (V2 was not tested)
12 [931ec641] (0/8) No match (V2 was not tested)
13 [0a70dfcd] (0/8) No match (V2 was not tested)
14 [93060108] (0/8) No match (V2 was not tested)
15 [f5d320f2] (0/8) No match (V2 was not tested)
16 [b544dce7] (0/8) No match (V2 was not tested)
17 [7fc98642] (0/8) No match (V2 was not tested)
18 [50462dd8] (0/8) No match (V2 was not tested)
19 [dfef83ca] (0/8) No match (V2 was not tested)
20 [bde25763] (0/8) No match (V2 was not tested)
21 [f760fea6] (0/8) No match (V2 was not tested)
22 [fc4a73e7] (0/8) No match (V2 was not tested)
23 [32227077] (0/8) No match (V2 was not tested)
24 [b2aa0d96] (0/8) No match (V2 was not tested)
Offsetted by 42:
01 [08805a4c] (0/8) No match (V2 was not tested)
02 [a25c191e] (0/8) No match (V2 was not tested)
03 [5533445f] (0/8) No match (V2 was not tested)
04 [0bf78123] (0/8) No match (V2 was not tested)
05 [2c661c30] (0/8) No match (V2 was not tested)
06 [70ce5db2] (0/8) No match (V2 was not tested)
07 [fac4c2b5] (0/8) No match (V2 was not tested)
08 [1dadf0ce] (0/8) No match (V2 was not tested)
09 [348dde44] (0/8) No match (V2 was not tested)
10 [faf98ed9] (0/8) No match (V2 was not tested)
11 [84bad678] (0/8) No match (V2 was not tested)
12 [9c7e34f0] (0/8) No match (V2 was not tested)
13 [da482612] (0/8) No match (V2 was not tested)
14 [795cbc79] (0/8) No match (V2 was not tested)
15 [2549388b] (0/8) No match (V2 was not tested)
16 [48aca70a] (0/8) No match (V2 was not tested)
17 [1a85873b] (0/8) No match (V2 was not tested)
18 [142ab61a] (0/8) No match (V2 was not tested)
19 [adc7f7ec] (0/8) No match (V2 was not tested)
20 [d25ed3e1] (0/8) No match (V2 was not tested)
21 [e428e7c1] (0/8) No match (V2 was not tested)
22 [ddf745a7] (0/8) No match (V2 was not tested)
23 [60c1990f] (0/8) No match (V2 was not tested)
24 [53ebcf26] (0/8) No match (V2 was not tested)

Track Peak [ CRC32 ] [W/O NULL] [ LOG ]
– 97,7 [F2B7FD9C] [E51C3151] CRC32
01 97,7 [6719BEED] [74411F98]
02 97,7 [013A62FF] [F149E90F]
03 97,7 [9721621C] [3D9E07B8]
04 97,7 [488AB4FC] [558A9808]
05 97,7 [4E2F2427] [32F39F6C]
06 97,7 [55023A64] [CD7FF1F3]
07 97,7 [ADD0DFD5] [52CCDECD]
08 97,7 [A10A0FCB] [F9ADCF03]
09 97,7 [186BF537] [3866632E]
10 97,7 [69668977] [E98F0466]
11 97,7 [96C0A0E6] [A7EBAE55]
12 97,7 [823C3068] [FC9A7F17]
13 97,7 [9B881F9A] [5C4D3818]
14 97,7 [289A69F6] [5B16D84F]
15 97,7 [1C0B2605] [344F0B4B]
16 97,7 [CF6B41E7] [C531ACEE]
17 97,7 [777E9A99] [BE597BCF]
18 97,7 [3BB52362] [ED4514BD]
19 97,7 [B5AD94A3] [03C43C2E]
20 97,7 [DED2B252] [1D452A8D]
21 97,7 [2156F974] [6AE93AF3]
22 97,7 [A66A7918] [07C4A113]
23 97,7 [AE3E71C7] [2DEADB61]
24 97,7 [6FF09CB1] [BF4FCC25]

All thanks go to wwphil

>>> MUD in my Blog <<<

DOWNLOAD: