Tags
Language
Tags
July 2024
Su Mo Tu We Th Fr Sa
30 1 2 3 4 5 6
7 8 9 10 11 12 13
14 15 16 17 18 19 20
21 22 23 24 25 26 27
28 29 30 31 1 2 3

John Carter & Bobby Bradford - Self Determination Music (1970/2015)

Posted By: Rtax
John Carter & Bobby Bradford - Self Determination Music (1970/2015)

John Carter & Bobby Bradford - Self Determination Music (1970/2015)
XLD Rip | FLAC (tracks, cue, log) - 258 MB | MP3 CBR 320 kbps - 101 MB
44:02 | Contemporary Jazz, Free Jazz | Label: BGP

"Rare West Coast experimental jazz album from 1970, on CD for the first time." Self Determination Music is an album by American jazz saxophonist John Carter and trumpeter Bobby Bradford released by the Flying Dutchman label in 1970.

Tracklist
1 The Sunday Afternoon Jazz Blues Society 5:50
2 The Eye Of The Storm 15:20
3 Loneliness 9:08
4 Encounter 13:37
X Lossless Decoder version 20130602 (143.2)

XLD extraction logfile from 2017-01-14 10:12:42 -0500

John Carter & Bobby Bradford / Self Determination Music

Used drive : MATSHITA DVD-R UJ-898 (revision HC09)
Media type : Pressed CD

Ripper mode : XLD Secure Ripper
Disable audio cache : OK for the drive with a cache less than 1375KiB
Make use of C2 pointers : NO
Read offset correction : 102
Max retry count : 20
Gap status : Analyzed, Appended (except HTOA)

TOC of the extracted CD
Track | Start | Length | Start sector | End sector
––––––––––––––––––––––––––––-
1 | 00:00:00 | 05:52:29 | 0 | 26428
2 | 05:52:29 | 15:22:55 | 26429 | 95633
3 | 21:15:09 | 09:10:16 | 95634 | 136899
4 | 30:25:25 | 13:37:35 | 136900 | 198209

AccurateRip Summary (DiscID: 0006f9d5-001ca98b-310a5204)
Track 01 : OK (v2, confidence 2/2)
Track 02 : OK (v2, confidence 2/2)
Track 03 : OK (v2, confidence 2/2)
Track 04 : OK (v2, confidence 2/2)
->All tracks accurately ripped.

All Tracks
Album gain : -0.49 dB
Peak : 0.958862
Statistics
Read error : 0
Jitter error (maybe fixed) : 0
Retry sector count : 0
Damaged sector count : 0

Track 01
Filename : /Users/willgautier/Music/APOLLO/Raw Files/John Carter & Bobby Bradford - Self Determination Music (Unknown Year) [FLAC]/01 The Sunday Afternoon Jazz Blues Society.flac
Pre-gap length : 00:02:00

Track gain : -1.90 dB
Peak : 0.957123
CRC32 hash (test run) : 6BC194CF
CRC32 hash : 6BC194CF
CRC32 hash (skip zero) : 0DB60223
AccurateRip v1 signature : 8A1B367F
AccurateRip v2 signature : 9D198B18
->Accurately ripped (v2, confidence 2/2)
Statistics
Read error : 0
Jitter error (maybe fixed) : 0
Retry sector count : 0
Damaged sector count : 0

Track 02
Filename : /Users/willgautier/Music/APOLLO/Raw Files/John Carter & Bobby Bradford - Self Determination Music (Unknown Year) [FLAC]/02 The Eyes Of The Storm.flac
Pre-gap length : 00:02:02

Track gain : 0.22 dB
Peak : 0.958862
CRC32 hash (test run) : 13363F19
CRC32 hash : 13363F19
CRC32 hash (skip zero) : 9B494FF4
AccurateRip v1 signature : 9A8A953F
AccurateRip v2 signature : 036FB981
->Accurately ripped (v2, confidence 2/2)
Statistics
Read error : 0
Jitter error (maybe fixed) : 0
Retry sector count : 0
Damaged sector count : 0

Track 03
Filename : /Users/willgautier/Music/APOLLO/Raw Files/John Carter & Bobby Bradford - Self Determination Music (Unknown Year) [FLAC]/03 Loneliness.flac
Pre-gap length : 00:02:07

Track gain : 2.83 dB
Peak : 0.955292
CRC32 hash (test run) : 371CF2F4
CRC32 hash : 371CF2F4
CRC32 hash (skip zero) : DF18812D
AccurateRip v1 signature : 3CA61ADA
AccurateRip v2 signature : B3C9B511
->Accurately ripped (v2, confidence 2/2)
Statistics
Read error : 0
Jitter error (maybe fixed) : 0
Retry sector count : 0
Damaged sector count : 0

Track 04
Filename : /Users/willgautier/Music/APOLLO/Raw Files/John Carter & Bobby Bradford - Self Determination Music (Unknown Year) [FLAC]/04 Encounter.flac
Pre-gap length : 00:02:11

Track gain : -1.07 dB
Peak : 0.951508
CRC32 hash (test run) : 2BD86FEB
CRC32 hash : 2BD86FEB
CRC32 hash (skip zero) : FAC963EA
AccurateRip v1 signature : D1240E6D
AccurateRip v2 signature : C7000836
->Accurately ripped (v2, confidence 2/2)
Statistics
Read error : 0
Jitter error (maybe fixed) : 0
Retry sector count : 0
Damaged sector count : 0

No errors occurred

End of status report

––-BEGIN XLD SIGNATURE––-
CCUwGn6frw0nxh5uuJnpPLeVayIHfxHDO9tdxfQzqeYSCuSKbt.1HfaMqx5LfnvVdQSx8alw42oWMw85kgUtpECtrDo4rCnHYGBxLnO
––-END XLD SIGNATURE––-