Tags
Language
Tags
July 2024
Su Mo Tu We Th Fr Sa
30 1 2 3 4 5 6
7 8 9 10 11 12 13
14 15 16 17 18 19 20
21 22 23 24 25 26 27
28 29 30 31 1 2 3

VA - Jackie - Summer Special (2009)

Posted By: Rtax
VA - Jackie - Summer Special (2009)

VA - Jackie - Summer Special (2009)
EAC Rip | FLAC (tracks, cue, log) - 1.4 GB | MP3 CBR 320 kbps - 528 MB
3:48:57 | Full Scans - 168 MB | Pop Rock, Soul, Classic Rock | Label: EMI / Virgin / Universal

Jackie: Summer Special includes three discs filled to the brim with early to mid-'70s pop songs, many of them long forgotten and ranging in style from soul-pop (e.g., Diana Ross) to pop/rock (e.g., T. Rex). Perhaps best remembered for its innocence, Jackie was a magazine for teenage girls that was popular during the same era, and all albums in the series of albums so far have been packaged to resemble the magazine. Anyone who grew up reading Jackie is sure to enjoy this blast from the past. While there are plenty of obscurities on Jackie: Summer Special, there are also plenty of certifiable pop classics spread across each of the three discs. Some of the better known songs from disc one include the Jackson 5's "ABC," the Bay City Rollers' "Summerlove Sensation," and ABBA's "Summer Night City." Highlights of the second disc include Elton John and Kiki Dee's "Don't Go Breaking My Heart," Boz Scaggs' "Lido Shuffle," and David Bowie's "Drive In Saturday." Highlights of the third disc include Michael Jackson's "Rockin' Robin," KC and the Sunshine Band's "That's the Way (I Like It)," and the Isley Brothers' "Summer Breeze."


Tracklist
CD1
01 - Mungo Jerry - In the Summertime
02 - Bobby Bloom - Montego Bay
03 - David Cassidy - Some Kind of a Summer
04 - Brian Hyland - Sealed With a Kiss
05 - Pussycat - Mississippi
06 - The Sweet - Co-Co
07 - The Mixtures - The Pushbike Song
08 - The Jackson 5 - ABC
09 - The Osmonds - Goin’ Home
10 - Bay City Rollers - Summerlove Sensation
11 - ABBA - Summer Night City
12 - Sweet Dreams - Honey Honey
13 - First Class - Beach Baby
14 - Mike Batt - Summertime City
15 - The Drifters - Down on the Beach Tonight
16 - Mama Cass - It’s Getting Better
17 - The Beach Boys - Break Away
18 - McGuinness Flint - When I’m Dead and Gone
19 - Hotlegs - Neanderthal Man
20 - Bob & Marcia - Young, Gifted and Black
21 - Peter Sarstedt - Frozen Orange Juice
22 - The New Seekers - Circles
23 - The Cuff Links - When Julie Comes Around

CD2
01 - Elton John & Kiki Dee - Don’t Go Breaking My Heart
02 - The Bellamy Brothers - Let Your Love Flow
03 - Wings - Silly Love Songs
04 - 10cc - Dreadlock Holiday
05 - Electric Light Orchestra - Mr Blue Sky
06 - The Four Seasons - Silver Star
07 - Boz Scaggs - Lido Shuffle
08 - Suzi Quatro - If You Can’t Give Me Love
09 - Yvonne Elliman - If I Can’t Have You
10 - Clout - Substitute
11 - Sutherland Brothers & Quiver - Arms of Mary
12 - Gallagher & Lyle - Heart on My Sleeve
13 - Smokie - If You Think You Know How to Love Me
14 - David Bowie - Drive in Saturday
15 - Roxy Music - Virginia Plain
16 - Cat Stevens - Another Saturday Night
17 - Duncan Browne - Journey
18 - Stevie Wonder - Never Had a Dream Come True
19 - Rod Stewart - Reason to Believe
20 - Steve Harley & Cockney Rebel - Here Comes the Sun
21 - Slade - Everyday

CD3
01 - Michael Jackson - Rockin’ Robin
02 - Gilbert O’Sullivan - Ooh Wakka Doo Wakka Day
03 - Terry Dactyl and the Dinosaurs - Seaside Shuffle
04 - Wizzard - Angel Fingers
05 - Kenny - Julie Ann
06 - The Rubettes - I Can Do It
07 - Mud - The Cat Crept In
08 - T. Rex - New York City
09 - KC and the Sunshine Band - That’s the Way (I Like It)
10 - Jesse Green - Nice ’n’ Slow
11 - George McCrae - Rock Your Baby
12 - The Supremes - Up the Ladder to the Roof
13 - The Stylistics - Sing Baby Sing
14 - Typically Tropical - Barbados
15 - George Baker Selection - Paloma Blanca
16 - Harpo - Moviestar
17 - Cliff Richard - Devil Woman
18 - Diana Ross - Remember Me
19 - The Floaters - Float On
20 - The Isley Brothers - Summer Breeze
21 - Bobby Goldsboro - Summer (The First Time)
Exact Audio Copy V1.6 from 23. October 2020

EAC extraction logfile from 6. June 2021, 17:30

Various Artists / Jackie Summer Special

Used drive : HL-DT-STBD-RE BH16NS40 Adapter: 1 ID: 0

Read mode : Secure
Utilize accurate stream : Yes
Defeat audio cache : Yes
Make use of C2 pointers : No

Read offset correction : 6
Overread into Lead-In and Lead-Out : No
Fill up missing offset samples with silence : Yes
Delete leading and trailing silent blocks : No
Null samples used in CRC calculations : Yes
Used interface : Native Win32 interface for Win NT & 2000
Gap handling : Appended to previous track

Used output format : User Defined Encoder
Selected bitrate : 1024 kBit/s
Quality : High
Add ID3 tag : No
Command line compressor : C:\Program Files (x86)\Exact Audio Copy\Flac\flac.exe
Additional command line options : -8 -e -p -V -T "ARTIST=%artist%" -T "TITLE=%title%" -T "ALBUM=%albumtitle%" -T "DATE=%year%" -T "TRACKNUMBER=%tracknr%" -T "GENRE=%genre%" -T "PERFORMER=%albuminterpret%" -T "COMPOSER=%composer%" %haslyrics%–tag-from-file=LYRICS="%lyricsfile%"%haslyrics% -T "ALBUMARTIST=%albumartist%" -T "DISCNUMBER=%cdnumber%" -T "TOTALDISCS=%totalcds%" -T "TOTALTRACKS=%numtracks%" -T "COMMENT=%comment%" %source% -o %dest%


TOC of the extracted CD

Track | Start | Length | Start sector | End sector
––––––––––––––––––––––––––––-
1 | 0:00.00 | 3:30.20 | 0 | 15769
2 | 3:30.20 | 2:55.50 | 15770 | 28944
3 | 6:25.70 | 3:40.17 | 28945 | 45461
4 | 10:06.12 | 2:40.00 | 45462 | 57461
5 | 12:46.12 | 4:34.46 | 57462 | 78057
6 | 17:20.58 | 3:10.16 | 78058 | 92323
7 | 20:30.74 | 2:29.31 | 92324 | 103529
8 | 23:00.30 | 2:57.09 | 103530 | 116813
9 | 25:57.39 | 2:26.34 | 116814 | 127797
10 | 28:23.73 | 3:12.05 | 127798 | 142202
11 | 31:36.03 | 3:34.38 | 142203 | 158290
12 | 35:10.41 | 3:25.32 | 158291 | 173697
13 | 38:35.73 | 4:44.44 | 173698 | 195041
14 | 43:20.42 | 3:36.57 | 195042 | 211298
15 | 46:57.24 | 3:03.50 | 211299 | 225073
16 | 50:00.74 | 3:00.44 | 225074 | 238617
17 | 53:01.43 | 2:55.54 | 238618 | 251796
18 | 55:57.22 | 3:39.66 | 251797 | 268287
19 | 59:37.13 | 4:21.22 | 268288 | 287884
20 | 63:58.35 | 3:02.69 | 287885 | 301603
21 | 67:01.29 | 3:09.37 | 301604 | 315815
22 | 70:10.66 | 4:36.37 | 315816 | 336552
23 | 74:47.28 | 2:47.18 | 336553 | 349095


Track 1

Filename H:\Rips\VA - Jackie - Summer Special (2009) (3CD) [FLAC]\CD1\01 - Mungo Jerry - In the Summertime.wav

Pre-gap length 0:00:02.00

Peak level 74.6 %
Extraction speed 3.1 X
Track quality 100.0 %
Test CRC EE4101FF
Copy CRC EE4101FF
Accurately ripped (confidence 12) [7ACB53EA] (AR v2)
Copy OK

Track 2

Filename H:\Rips\VA - Jackie - Summer Special (2009) (3CD) [FLAC]\CD1\02 - Bobby Bloom - Montego Bay.wav

Pre-gap length 0:00:00.33

Peak level 81.9 %
Extraction speed 1.2 X
Track quality 100.0 %
Test CRC D457048D
Copy CRC D457048D
Accurately ripped (confidence 12) [182C3542] (AR v2)
Copy OK

Track 3

Filename H:\Rips\VA - Jackie - Summer Special (2009) (3CD) [FLAC]\CD1\03 - David Cassidy - Some Kind of a Summer.wav

Pre-gap length 0:00:00.33

Peak level 77.9 %
Extraction speed 1.3 X
Track quality 100.0 %
Test CRC 2E90FABB
Copy CRC 2E90FABB
Accurately ripped (confidence 12) [29B76230] (AR v2)
Copy OK

Track 4

Filename H:\Rips\VA - Jackie - Summer Special (2009) (3CD) [FLAC]\CD1\04 - Brian Hyland - Sealed With a Kiss.wav

Pre-gap length 0:00:00.33

Peak level 83.9 %
Extraction speed 1.2 X
Track quality 99.9 %
Test CRC DCE5DFA7
Copy CRC DCE5DFA7
Accurately ripped (confidence 12) [C57E7D37] (AR v2)
Copy OK

Track 5

Filename H:\Rips\VA - Jackie - Summer Special (2009) (3CD) [FLAC]\CD1\05 - Pussycat - Mississippi.wav

Pre-gap length 0:00:00.33

Peak level 75.4 %
Extraction speed 1.5 X
Track quality 100.0 %
Test CRC A8127F8F
Copy CRC A8127F8F
Accurately ripped (confidence 11) [2DFEC031] (AR v2)
Copy OK

Track 6

Filename H:\Rips\VA - Jackie - Summer Special (2009) (3CD) [FLAC]\CD1\06 - The Sweet - Co-Co.wav

Pre-gap length 0:00:00.33

Peak level 99.1 %
Extraction speed 1.3 X
Track quality 99.9 %
Test CRC 401E04C5
Copy CRC 401E04C5
Accurately ripped (confidence 11) [2BB94CC6] (AR v2)
Copy OK

Track 7

Filename H:\Rips\VA - Jackie - Summer Special (2009) (3CD) [FLAC]\CD1\07 - The Mixtures - The Pushbike Song.wav

Pre-gap length 0:00:00.33

Peak level 100.0 %
Extraction speed 1.2 X
Track quality 99.9 %
Test CRC 24BB9F71
Copy CRC 24BB9F71
Accurately ripped (confidence 11) [175D51CE] (AR v2)
Copy OK

Track 8

Filename H:\Rips\VA - Jackie - Summer Special (2009) (3CD) [FLAC]\CD1\08 - The Jackson 5 - ABC.wav

Pre-gap length 0:00:00.33

Peak level 64.5 %
Extraction speed 1.6 X
Track quality 100.0 %
Test CRC B511A2F5
Copy CRC B511A2F5
Accurately ripped (confidence 11) [867A5B57] (AR v2)
Copy OK

Track 9

Filename H:\Rips\VA - Jackie - Summer Special (2009) (3CD) [FLAC]\CD1\09 - The Osmonds - Goin’ Home.wav

Pre-gap length 0:00:00.33

Peak level 64.6 %
Extraction speed 1.6 X
Track quality 100.0 %
Test CRC 1E1A05E5
Copy CRC 1E1A05E5
Accurately ripped (confidence 11) [9F9A93F8] (AR v2)
Copy OK

Track 10

Filename H:\Rips\VA - Jackie - Summer Special (2009) (3CD) [FLAC]\CD1\10 - Bay City Rollers - Summerlove Sensation.wav

Pre-gap length 0:00:00.33

Peak level 78.1 %
Extraction speed 1.7 X
Track quality 100.0 %
Test CRC 709EDA71
Copy CRC 709EDA71
Accurately ripped (confidence 11) [A06BCE5C] (AR v2)
Copy OK

Track 11

Filename H:\Rips\VA - Jackie - Summer Special (2009) (3CD) [FLAC]\CD1\11 - ABBA - Summer Night City.wav

Pre-gap length 0:00:00.32

Peak level 54.9 %
Extraction speed 1.6 X
Track quality 99.9 %
Test CRC 2B1008C6
Copy CRC 2B1008C6
Accurately ripped (confidence 11) [0F9E4B83] (AR v2)
Copy OK

Track 12

Filename H:\Rips\VA - Jackie - Summer Special (2009) (3CD) [FLAC]\CD1\12 - Sweet Dreams - Honey Honey.wav

Pre-gap length 0:00:00.33

Peak level 96.6 %
Extraction speed 1.9 X
Track quality 100.0 %
Test CRC 9F8727C6
Copy CRC 9F8727C6
Accurately ripped (confidence 11) [F0259BD3] (AR v2)
Copy OK

Track 13

Filename H:\Rips\VA - Jackie - Summer Special (2009) (3CD) [FLAC]\CD1\13 - First Class - Beach Baby.wav

Pre-gap length 0:00:00.33

Peak level 87.6 %
Extraction speed 2.0 X
Track quality 100.0 %
Test CRC 31D3176B
Copy CRC 31D3176B
Accurately ripped (confidence 11) [94DFA7CA] (AR v2)
Copy OK

Track 14

Filename H:\Rips\VA - Jackie - Summer Special (2009) (3CD) [FLAC]\CD1\14 - Mike Batt - Summertime City.wav

Pre-gap length 0:00:00.33

Peak level 93.1 %
Extraction speed 1.7 X
Track quality 99.9 %
Test CRC 2FD0397E
Copy CRC 2FD0397E
Accurately ripped (confidence 11) [1D45BD88] (AR v2)
Copy OK

Track 15

Filename H:\Rips\VA - Jackie - Summer Special (2009) (3CD) [FLAC]\CD1\15 - The Drifters - Down on the Beach Tonight.wav

Pre-gap length 0:00:00.33

Peak level 76.7 %
Extraction speed 2.0 X
Track quality 100.0 %
Test CRC 93D8CB60
Copy CRC 93D8CB60
Accurately ripped (confidence 12) [B126D9A1] (AR v2)
Copy OK

Track 16

Filename H:\Rips\VA - Jackie - Summer Special (2009) (3CD) [FLAC]\CD1\16 - Mama Cass - It’s Getting Better.wav

Pre-gap length 0:00:00.33

Peak level 87.0 %
Extraction speed 1.7 X
Track quality 99.9 %
Test CRC F7302E74
Copy CRC F7302E74
Accurately ripped (confidence 12) [08818058] (AR v2)
Copy OK

Track 17

Filename H:\Rips\VA - Jackie - Summer Special (2009) (3CD) [FLAC]\CD1\17 - The Beach Boys - Break Away.wav

Pre-gap length 0:00:00.33

Peak level 96.6 %
Extraction speed 2.1 X
Track quality 100.0 %
Test CRC 69B82B35
Copy CRC 69B82B35
Accurately ripped (confidence 12) [34B9B0AD] (AR v2)
Copy OK

Track 18

Filename H:\Rips\VA - Jackie - Summer Special (2009) (3CD) [FLAC]\CD1\18 - McGuinness Flint - When I’m Dead and Gone.wav

Pre-gap length 0:00:00.33

Peak level 69.9 %
Extraction speed 2.2 X
Track quality 100.0 %
Test CRC 3D6519A1
Copy CRC 3D6519A1
Accurately ripped (confidence 12) [82693B3A] (AR v2)
Copy OK

Track 19

Filename H:\Rips\VA - Jackie - Summer Special (2009) (3CD) [FLAC]\CD1\19 - Hotlegs - Neanderthal Man.wav

Pre-gap length 0:00:00.33

Peak level 79.4 %
Extraction speed 2.0 X
Track quality 99.9 %
Test CRC B80CF6D3
Copy CRC B80CF6D3
Accurately ripped (confidence 12) [EAE3C4CE] (AR v2)
Copy OK

Track 20

Filename H:\Rips\VA - Jackie - Summer Special (2009) (3CD) [FLAC]\CD1\20 - Bob & Marcia - Young, Gifted and Black.wav

Pre-gap length 0:00:00.33

Peak level 78.0 %
Extraction speed 1.9 X
Track quality 99.9 %
Test CRC EEA51EB5
Copy CRC EEA51EB5
Accurately ripped (confidence 12) [62F0F565] (AR v2)
Copy OK

Track 21

Filename H:\Rips\VA - Jackie - Summer Special (2009) (3CD) [FLAC]\CD1\21 - Peter Sarstedt - Frozen Orange Juice.wav

Pre-gap length 0:00:00.33

Peak level 77.8 %
Extraction speed 2.3 X
Track quality 100.0 %
Test CRC C18778E7
Copy CRC C18778E7
Accurately ripped (confidence 12) [C675FBD1] (AR v2)
Copy OK

Track 22

Filename H:\Rips\VA - Jackie - Summer Special (2009) (3CD) [FLAC]\CD1\22 - The New Seekers - Circles.wav

Pre-gap length 0:00:00.33

Peak level 70.7 %
Extraction speed 2.5 X
Track quality 100.0 %
Test CRC A2613DC3
Copy CRC A2613DC3
Accurately ripped (confidence 12) [311F9C05] (AR v2)
Copy OK

Track 23

Filename H:\Rips\VA - Jackie - Summer Special (2009) (3CD) [FLAC]\CD1\23 - The Cuff Links - When Julie Comes Around.wav

Pre-gap length 0:00:00.33

Peak level 91.5 %
Extraction speed 2.3 X
Track quality 100.0 %
Test CRC 31D0A61F
Copy CRC 31D0A61F
Accurately ripped (confidence 12) [E59C08FA] (AR v2)
Copy OK


All tracks accurately ripped

No errors occurred

End of status report

–– CUETools DB Plugin V2.1.6

[CTDB TOCID: 2FzFgmxCQI5Wx9gOdVMeAgjhTDQ-] found
Submit result: 2FzFgmxCQI5Wx9gOdVMeAgjhTDQ- has been confirmed
Track | CTDB Status
1 | (15/15) Accurately ripped
2 | (15/15) Accurately ripped
3 | (15/15) Accurately ripped
4 | (15/15) Accurately ripped
5 | (15/15) Accurately ripped
6 | (15/15) Accurately ripped
7 | (15/15) Accurately ripped
8 | (15/15) Accurately ripped
9 | (15/15) Accurately ripped
10 | (15/15) Accurately ripped
11 | (15/15) Accurately ripped
12 | (15/15) Accurately ripped
13 | (15/15) Accurately ripped
14 | (15/15) Accurately ripped
15 | (15/15) Accurately ripped
16 | (15/15) Accurately ripped
17 | (15/15) Accurately ripped
18 | (15/15) Accurately ripped
19 | (15/15) Accurately ripped
20 | (15/15) Accurately ripped
21 | (15/15) Accurately ripped
22 | (15/15) Accurately ripped
23 | (15/15) Accurately ripped


==== Log checksum 163AE38BE6F4FF8FA0431FC7301AAE82079A01E07F18F500CF6C4E82A7A23C21 ====


Exact Audio Copy V1.6 from 23. October 2020

EAC extraction logfile from 6. June 2021, 22:29

Various Artists / Jackie - Summer Special

Used drive : HL-DT-STBD-RE BH16NS40 Adapter: 1 ID: 0

Read mode : Secure
Utilize accurate stream : Yes
Defeat audio cache : Yes
Make use of C2 pointers : No

Read offset correction : 6
Overread into Lead-In and Lead-Out : No
Fill up missing offset samples with silence : Yes
Delete leading and trailing silent blocks : No
Null samples used in CRC calculations : Yes
Used interface : Native Win32 interface for Win NT & 2000
Gap handling : Appended to previous track

Used output format : User Defined Encoder
Selected bitrate : 1024 kBit/s
Quality : High
Add ID3 tag : No
Command line compressor : C:\Program Files (x86)\Exact Audio Copy\Flac\flac.exe
Additional command line options : -8 -e -p -V -T "ARTIST=%artist%" -T "TITLE=%title%" -T "ALBUM=%albumtitle%" -T "DATE=%year%" -T "TRACKNUMBER=%tracknr%" -T "GENRE=%genre%" -T "PERFORMER=%albuminterpret%" -T "COMPOSER=%composer%" %haslyrics%–tag-from-file=LYRICS="%lyricsfile%"%haslyrics% -T "ALBUMARTIST=%albumartist%" -T "DISCNUMBER=%cdnumber%" -T "TOTALDISCS=%totalcds%" -T "TOTALTRACKS=%numtracks%" -T "COMMENT=%comment%" %source% -o %dest%


TOC of the extracted CD

Track | Start | Length | Start sector | End sector
––––––––––––––––––––––––––––-
1 | 0:00.00 | 4:19.64 | 0 | 19488
2 | 4:19.64 | 3:15.24 | 19489 | 34137
3 | 7:35.13 | 5:54.06 | 34138 | 60693
4 | 13:29.19 | 4:27.44 | 60694 | 80762
5 | 17:56.63 | 5:01.31 | 80763 | 103368
6 | 22:58.19 | 4:04.59 | 103369 | 121727
7 | 27:03.03 | 3:41.17 | 121728 | 138319
8 | 30:44.20 | 3:52.63 | 138320 | 155782
9 | 34:37.08 | 2:59.04 | 155783 | 169211
10 | 37:36.12 | 3:24.48 | 169212 | 184559
11 | 41:00.60 | 2:36.53 | 184560 | 196312
12 | 43:37.38 | 3:21.42 | 196313 | 211429
13 | 46:59.05 | 3:24.30 | 211430 | 226759
14 | 50:23.35 | 4:30.23 | 226760 | 247032
15 | 54:53.58 | 2:57.44 | 247033 | 260351
16 | 57:51.27 | 2:31.09 | 260352 | 271685
17 | 60:22.36 | 3:16.52 | 271686 | 286437
18 | 63:39.13 | 3:12.59 | 286438 | 300896
19 | 66:51.72 | 4:09.28 | 300897 | 319599
20 | 71:01.25 | 2:56.55 | 319600 | 332854
21 | 73:58.05 | 3:10.56 | 332855 | 347160


Track 1

Filename H:\Rips\VA - Jackie - Summer Special (2009) (3CD) [FLAC]\CD2\01 - Elton John & Kiki Dee - Don’t Go Breaking My Heart.wav

Pre-gap length 0:00:02.00

Peak level 100.0 %
Extraction speed 2.1 X
Track quality 100.0 %
Test CRC A7144508
Copy CRC A7144508
Accurately ripped (confidence 13) [02A96F6A] (AR v2)
Copy OK

Track 2

Filename H:\Rips\VA - Jackie - Summer Special (2009) (3CD) [FLAC]\CD2\02 - The Bellamy Brothers - Let Your Love Flow.wav

Pre-gap length 0:00:00.33

Peak level 79.3 %
Extraction speed 1.2 X
Track quality 100.0 %
Test CRC 617D2D54
Copy CRC 617D2D54
Accurately ripped (confidence 13) [779A4B20] (AR v2)
Copy OK

Track 3

Filename H:\Rips\VA - Jackie - Summer Special (2009) (3CD) [FLAC]\CD2\03 - Wings - Silly Love Songs.wav

Pre-gap length 0:00:00.33

Peak level 77.8 %
Extraction speed 1.4 X
Track quality 100.0 %
Test CRC F1AF52CB
Copy CRC F1AF52CB
Accurately ripped (confidence 12) [E9A226D7] (AR v2)
Copy OK

Track 4

Filename H:\Rips\VA - Jackie - Summer Special (2009) (3CD) [FLAC]\CD2\04 - 10cc - Dreadlock Holiday.wav

Pre-gap length 0:00:00.33

Peak level 69.8 %
Extraction speed 1.3 X
Track quality 99.9 %
Test CRC 4F5EB38D
Copy CRC 4F5EB38D
Accurately ripped (confidence 12) [0479AF7F] (AR v2)
Copy OK

Track 5

Filename H:\Rips\VA - Jackie - Summer Special (2009) (3CD) [FLAC]\CD2\05 - Electric Light Orchestra - Mr Blue Sky.wav

Pre-gap length 0:00:00.33

Peak level 78.4 %
Extraction speed 1.4 X
Track quality 99.9 %
Test CRC 231324A2
Copy CRC 231324A2
Accurately ripped (confidence 13) [39A98A3E] (AR v2)
Copy OK

Track 6

Filename H:\Rips\VA - Jackie - Summer Special (2009) (3CD) [FLAC]\CD2\06 - The Four Seasons - Silver Star.wav

Pre-gap length 0:00:00.33

Peak level 89.1 %
Extraction speed 1.7 X
Track quality 100.0 %
Test CRC 9D0278E7
Copy CRC 9D0278E7
Accurately ripped (confidence 11) [DFC75667] (AR v2)
Copy OK

Track 7

Filename H:\Rips\VA - Jackie - Summer Special (2009) (3CD) [FLAC]\CD2\07 - Boz Scaggs - Lido Shuffle.wav

Pre-gap length 0:00:01.33

Peak level 75.5 %
Extraction speed 1.7 X
Track quality 100.0 %
Test CRC 73C1931B
Copy CRC 73C1931B
Accurately ripped (confidence 11) [2114DAF4] (AR v2)
Copy OK

Track 8

Filename H:\Rips\VA - Jackie - Summer Special (2009) (3CD) [FLAC]\CD2\08 - Suzi Quatro - If You Can’t Give Me Love.wav

Pre-gap length 0:00:00.33

Peak level 88.6 %
Extraction speed 1.8 X
Track quality 100.0 %
Test CRC A282FE9C
Copy CRC A282FE9C
Accurately ripped (confidence 12) [4D012538] (AR v2)
Copy OK

Track 9

Filename H:\Rips\VA - Jackie - Summer Special (2009) (3CD) [FLAC]\CD2\09 - Yvonne Elliman - If I Can’t Have You.wav

Pre-gap length 0:00:00.33

Peak level 82.4 %
Extraction speed 1.8 X
Track quality 100.0 %
Test CRC DE1C94B8
Copy CRC DE1C94B8
Accurately ripped (confidence 11) [AE3760AC] (AR v2)
Copy OK

Track 10

Filename H:\Rips\VA - Jackie - Summer Special (2009) (3CD) [FLAC]\CD2\10 - Clout - Substitute.wav

Pre-gap length 0:00:01.33

Peak level 69.8 %
Extraction speed 1.9 X
Track quality 100.0 %
Test CRC D9A2A4A9
Copy CRC D9A2A4A9
Accurately ripped (confidence 11) [67A1B06C] (AR v2)
Copy OK

Track 11

Filename H:\Rips\VA - Jackie - Summer Special (2009) (3CD) [FLAC]\CD2\11 - Sutherland Brothers & Quiver - Arms of Mary.wav

Pre-gap length 0:00:00.33

Peak level 100.0 %
Extraction speed 1.5 X
Track quality 99.9 %
Test CRC 7A863565
Copy CRC 7A863565
Accurately ripped (confidence 11) [B6FBA756] (AR v2)
Copy OK

Track 12

Filename H:\Rips\VA - Jackie - Summer Special (2009) (3CD) [FLAC]\CD2\12 - Gallagher & Lyle - Heart on My Sleeve.wav

Pre-gap length 0:00:00.33

Peak level 96.4 %
Extraction speed 2.0 X
Track quality 100.0 %
Test CRC 329DED5C
Copy CRC 329DED5C
Accurately ripped (confidence 11) [B06A98BF] (AR v2)
Copy OK

Track 13

Filename H:\Rips\VA - Jackie - Summer Special (2009) (3CD) [FLAC]\CD2\13 - Smokie - If You Think You Know How to Love Me.wav

Pre-gap length 0:00:00.33

Peak level 76.8 %
Extraction speed 2.0 X
Track quality 100.0 %
Test CRC D1816272
Copy CRC D1816272
Accurately ripped (confidence 11) [9E4FE2C2] (AR v2)
Copy OK

Track 14

Filename H:\Rips\VA - Jackie - Summer Special (2009) (3CD) [FLAC]\CD2\14 - David Bowie - Drive in Saturday.wav

Pre-gap length 0:00:00.33

Peak level 58.4 %
Extraction speed 2.2 X
Track quality 100.0 %
Test CRC C6281AB9
Copy CRC C6281AB9
Accurately ripped (confidence 12) [3051B6F6] (AR v2)
Copy OK

Track 15

Filename H:\Rips\VA - Jackie - Summer Special (2009) (3CD) [FLAC]\CD2\15 - Roxy Music - Virginia Plain.wav

Pre-gap length 0:00:00.33

Peak level 78.2 %
Extraction speed 1.7 X
Track quality 99.9 %
Test CRC B956F19E
Copy CRC B956F19E
Accurately ripped (confidence 12) [154B8BBA] (AR v2)
Copy OK

Track 16

Filename H:\Rips\VA - Jackie - Summer Special (2009) (3CD) [FLAC]\CD2\16 - Cat Stevens - Another Saturday Night.wav

Pre-gap length 0:00:00.33

Peak level 79.3 %
Extraction speed 2.1 X
Track quality 100.0 %
Test CRC 4A6A308B
Copy CRC 4A6A308B
Accurately ripped (confidence 13) [C0955269] (AR v2)
Copy OK

Track 17

Filename H:\Rips\VA - Jackie - Summer Special (2009) (3CD) [FLAC]\CD2\17 - Duncan Browne - Journey.wav

Pre-gap length 0:00:00.33

Peak level 93.3 %
Extraction speed 2.2 X
Track quality 100.0 %
Test CRC 0488F095
Copy CRC 0488F095
Accurately ripped (confidence 12) [D1D16C32] (AR v2)
Copy OK

Track 18

Filename H:\Rips\VA - Jackie - Summer Special (2009) (3CD) [FLAC]\CD2\18 - Stevie Wonder - Never Had a Dream Come True.wav

Pre-gap length 0:00:00.33

Peak level 67.7 %
Extraction speed 2.3 X
Track quality 100.0 %
Test CRC D89EBEE6
Copy CRC D89EBEE6
Accurately ripped (confidence 13) [69CE6577] (AR v2)
Copy OK

Track 19

Filename H:\Rips\VA - Jackie - Summer Special (2009) (3CD) [FLAC]\CD2\19 - Rod Stewart - Reason to Believe.wav

Pre-gap length 0:00:00.33

Peak level 99.9 %
Extraction speed 2.4 X
Track quality 100.0 %
Test CRC 8657379A
Copy CRC 8657379A
Accurately ripped (confidence 12) [E5E05C27] (AR v2)
Copy OK

Track 20

Filename H:\Rips\VA - Jackie - Summer Special (2009) (3CD) [FLAC]\CD2\20 - Steve Harley & Cockney Rebel - Here Comes the Sun.wav

Pre-gap length 0:00:00.33

Peak level 97.9 %
Extraction speed 2.3 X
Track quality 100.0 %
Test CRC 71B9B4D7
Copy CRC 71B9B4D7
Accurately ripped (confidence 12) [D19504EE] (AR v2)
Copy OK

Track 21

Filename H:\Rips\VA - Jackie - Summer Special (2009) (3CD) [FLAC]\CD2\21 - Slade - Everyday.wav

Pre-gap length 0:00:00.32

Peak level 90.2 %
Extraction speed 2.4 X
Track quality 100.0 %
Test CRC 8CD55CC5
Copy CRC 8CD55CC5
Accurately ripped (confidence 12) [A2277748] (AR v2)
Copy OK


All tracks accurately ripped

No errors occurred

End of status report

–– CUETools DB Plugin V2.1.6

[CTDB TOCID: Za5gO.ICg2GfQN8YsWmf7xWEUOc-] found
Submit result: Za5gO.ICg2GfQN8YsWmf7xWEUOc- has been confirmed
Track | CTDB Status
1 | (16/16) Accurately ripped
2 | (16/16) Accurately ripped
3 | (16/16) Accurately ripped
4 | (16/16) Accurately ripped
5 | (16/16) Accurately ripped
6 | (16/16) Accurately ripped
7 | (16/16) Accurately ripped
8 | (16/16) Accurately ripped
9 | (16/16) Accurately ripped
10 | (16/16) Accurately ripped
11 | (16/16) Accurately ripped
12 | (16/16) Accurately ripped
13 | (16/16) Accurately ripped
14 | (16/16) Accurately ripped
15 | (16/16) Accurately ripped
16 | (16/16) Accurately ripped
17 | (16/16) Accurately ripped
18 | (16/16) Accurately ripped
19 | (16/16) Accurately ripped
20 | (16/16) Accurately ripped
21 | (16/16) Accurately ripped


==== Log checksum F2491048B5704BF47FAB023417AE9ABC0AFCE64C3C4FBFA18476001AA54F8845 ====


Exact Audio Copy V1.6 from 23. October 2020

EAC extraction logfile from 7. June 2021, 0:13

Various Artists / Jackie - Summer Special

Used drive : HL-DT-STBD-RE BH16NS40 Adapter: 1 ID: 0

Read mode : Secure
Utilize accurate stream : Yes
Defeat audio cache : Yes
Make use of C2 pointers : No

Read offset correction : 6
Overread into Lead-In and Lead-Out : No
Fill up missing offset samples with silence : Yes
Delete leading and trailing silent blocks : No
Null samples used in CRC calculations : Yes
Used interface : Native Win32 interface for Win NT & 2000
Gap handling : Appended to previous track

Used output format : User Defined Encoder
Selected bitrate : 1024 kBit/s
Quality : High
Add ID3 tag : No
Command line compressor : C:\Program Files (x86)\Exact Audio Copy\Flac\flac.exe
Additional command line options : -8 -e -p -V -T "ARTIST=%artist%" -T "TITLE=%title%" -T "ALBUM=%albumtitle%" -T "DATE=%year%" -T "TRACKNUMBER=%tracknr%" -T "GENRE=%genre%" -T "PERFORMER=%albuminterpret%" -T "COMPOSER=%composer%" %haslyrics%–tag-from-file=LYRICS="%lyricsfile%"%haslyrics% -T "ALBUMARTIST=%albumartist%" -T "DISCNUMBER=%cdnumber%" -T "TOTALDISCS=%totalcds%" -T "TOTALTRACKS=%numtracks%" -T "COMMENT=%comment%" %source% -o %dest%


TOC of the extracted CD

Track | Start | Length | Start sector | End sector
––––––––––––––––––––––––––––-
1 | 0:00.00 | 2:33.23 | 0 | 11497
2 | 2:33.23 | 2:46.36 | 11498 | 23983
3 | 5:19.59 | 2:40.31 | 23984 | 36014
4 | 8:00.15 | 4:31.24 | 36015 | 56363
5 | 12:31.39 | 3:00.74 | 56364 | 69937
6 | 15:32.38 | 3:18.33 | 69938 | 84820
7 | 18:50.71 | 4:01.12 | 84821 | 102907
8 | 22:52.08 | 3:56.35 | 102908 | 120642
9 | 26:48.43 | 3:01.28 | 120643 | 134245
10 | 29:49.71 | 3:05.20 | 134246 | 148140
11 | 32:55.16 | 3:17.57 | 148141 | 162972
12 | 36:12.73 | 3:13.14 | 162973 | 177461
13 | 39:26.12 | 2:51.67 | 177462 | 190353
14 | 42:18.04 | 3:33.27 | 190354 | 206355
15 | 45:51.31 | 2:46.61 | 206356 | 218866
16 | 48:38.17 | 3:22.08 | 218867 | 234024
17 | 52:00.25 | 3:33.37 | 234025 | 250036
18 | 55:33.62 | 3:40.00 | 250037 | 266536
19 | 59:13.62 | 4:10.57 | 266537 | 285343
20 | 63:24.44 | 6:11.58 | 285344 | 313226
21 | 69:36.27 | 4:39.53 | 313227 | 334204


Track 1

Filename H:\Rips\VA - Jackie - Summer Special (2009) (3CD) [FLAC]\CD3\01 - Michael Jackson - Rockin’ Robin.wav

Pre-gap length 0:00:02.00

Peak level 100.0 %
Extraction speed 1.8 X
Track quality 100.0 %
Test CRC B23A5913
Copy CRC B23A5913
Accurately ripped (confidence 12) [9D395A8D] (AR v2)
Copy OK

Track 2

Filename H:\Rips\VA - Jackie - Summer Special (2009) (3CD) [FLAC]\CD3\02 - Gilbert O’Sullivan - Ooh Wakka Doo Wakka Day.wav

Pre-gap length 0:00:00.33

Peak level 81.5 %
Extraction speed 1.1 X
Track quality 100.0 %
Test CRC 4C58DC82
Copy CRC 4C58DC82
Accurately ripped (confidence 12) [EBAF4C5D] (AR v2)
Copy OK

Track 3

Filename H:\Rips\VA - Jackie - Summer Special (2009) (3CD) [FLAC]\CD3\03 - Terry Dactyl and the Dinosaurs - Seaside Shuffle.wav

Pre-gap length 0:00:00.33

Peak level 87.3 %
Extraction speed 1.1 X
Track quality 100.0 %
Test CRC 70460D16
Copy CRC 70460D16
Accurately ripped (confidence 12) [39A2B62D] (AR v2)
Copy OK

Track 4

Filename H:\Rips\VA - Jackie - Summer Special (2009) (3CD) [FLAC]\CD3\04 - Wizzard - Angel Fingers.wav

Pre-gap length 0:00:00.33

Peak level 72.6 %
Extraction speed 1.3 X
Track quality 100.0 %
Test CRC FEE43560
Copy CRC FEE43560
Accurately ripped (confidence 12) [244B120B] (AR v2)
Copy OK

Track 5

Filename H:\Rips\VA - Jackie - Summer Special (2009) (3CD) [FLAC]\CD3\05 - Kenny - Julie Ann.wav

Pre-gap length 0:00:00.33

Peak level 98.7 %
Extraction speed 1.3 X
Track quality 100.0 %
Test CRC 52CDD2EF
Copy CRC 52CDD2EF
Accurately ripped (confidence 12) [2720F1C6] (AR v2)
Copy OK

Track 6

Filename H:\Rips\VA - Jackie - Summer Special (2009) (3CD) [FLAC]\CD3\06 - The Rubettes - I Can Do It.wav

Pre-gap length 0:00:00.33

Peak level 89.1 %
Extraction speed 1.4 X
Track quality 100.0 %
Test CRC CD26D916
Copy CRC CD26D916
Accurately ripped (confidence 12) [336F1A2A] (AR v2)
Copy OK

Track 7

Filename H:\Rips\VA - Jackie - Summer Special (2009) (3CD) [FLAC]\CD3\07 - Mud - The Cat Crept In.wav

Pre-gap length 0:00:00.33

Peak level 79.4 %
Extraction speed 1.5 X
Track quality 100.0 %
Test CRC 007F38E5
Copy CRC 007F38E5
Accurately ripped (confidence 12) [019545EB] (AR v2)
Copy OK

Track 8

Filename H:\Rips\VA - Jackie - Summer Special (2009) (3CD) [FLAC]\CD3\08 - T. Rex - New York City.wav

Pre-gap length 0:00:00.33

Peak level 63.2 %
Extraction speed 1.6 X
Track quality 100.0 %
Test CRC C3B8D8AE
Copy CRC C3B8D8AE
Accurately ripped (confidence 12) [8A9F7F7E] (AR v2)
Copy OK

Track 9

Filename H:\Rips\VA - Jackie - Summer Special (2009) (3CD) [FLAC]\CD3\09 - KC and the Sunshine Band - That’s the Way (I Like It).wav

Pre-gap length 0:00:00.33

Peak level 74.5 %
Extraction speed 1.6 X
Track quality 100.0 %
Test CRC B0443F0A
Copy CRC B0443F0A
Accurately ripped (confidence 12) [2E59E9AC] (AR v2)
Copy OK

Track 10

Filename H:\Rips\VA - Jackie - Summer Special (2009) (3CD) [FLAC]\CD3\10 - Jesse Green - Nice ’n’ Slow.wav

Pre-gap length 0:00:00.33

Peak level 87.4 %
Extraction speed 1.4 X
Track quality 99.9 %
Test CRC 39C62D82
Copy CRC 39C62D82
Accurately ripped (confidence 12) [CA72B8E0] (AR v2)
Copy OK

Track 11

Filename H:\Rips\VA - Jackie - Summer Special (2009) (3CD) [FLAC]\CD3\11 - George McCrae - Rock Your Baby.wav

Pre-gap length 0:00:00.33

Peak level 85.4 %
Extraction speed 1.8 X
Track quality 100.0 %
Test CRC 9155695A
Copy CRC 9155695A
Accurately ripped (confidence 12) [C1132F2A] (AR v2)
Copy OK

Track 12

Filename H:\Rips\VA - Jackie - Summer Special (2009) (3CD) [FLAC]\CD3\12 - The Supremes - Up the Ladder to the Roof.wav

Pre-gap length 0:00:00.33

Peak level 100.0 %
Extraction speed 1.5 X
Track quality 99.9 %
Test CRC AFABE217
Copy CRC AFABE217
Accurately ripped (confidence 12) [754F0CA5] (AR v2)
Copy OK

Track 13

Filename H:\Rips\VA - Jackie - Summer Special (2009) (3CD) [FLAC]\CD3\13 - The Stylistics - Sing Baby Sing.wav

Pre-gap length 0:00:00.33

Peak level 87.6 %
Extraction speed 1.8 X
Track quality 100.0 %
Test CRC 3E7E7962
Copy CRC 3E7E7962
Accurately ripped (confidence 12) [E943C0B5] (AR v2)
Copy OK

Track 14

Filename H:\Rips\VA - Jackie - Summer Special (2009) (3CD) [FLAC]\CD3\14 - Typically Tropical - Barbados.wav

Pre-gap length 0:00:00.33

Peak level 98.0 %
Extraction speed 1.9 X
Track quality 100.0 %
Test CRC 45BC69AD
Copy CRC 45BC69AD
Accurately ripped (confidence 12) [E80DB5ED] (AR v2)
Copy OK

Track 15

Filename H:\Rips\VA - Jackie - Summer Special (2009) (3CD) [FLAC]\CD3\15 - George Baker Selection - Paloma Blanca.wav

Pre-gap length 0:00:00.33

Peak level 69.3 %
Extraction speed 1.9 X
Track quality 100.0 %
Test CRC 1250A74E
Copy CRC 1250A74E
Accurately ripped (confidence 12) [23E01C1C] (AR v2)
Copy OK

Track 16

Filename H:\Rips\VA - Jackie - Summer Special (2009) (3CD) [FLAC]\CD3\16 - Harpo - Moviestar.wav

Pre-gap length 0:00:00.33

Peak level 76.3 %
Extraction speed 2.0 X
Track quality 100.0 %
Test CRC 491F3E1B
Copy CRC 491F3E1B
Accurately ripped (confidence 12) [8EEA53FE] (AR v2)
Copy OK

Track 17

Filename H:\Rips\VA - Jackie - Summer Special (2009) (3CD) [FLAC]\CD3\17 - Cliff Richard - Devil Woman.wav

Pre-gap length 0:00:00.33

Peak level 69.8 %
Extraction speed 2.1 X
Track quality 100.0 %
Test CRC 10743A18
Copy CRC 10743A18
Accurately ripped (confidence 12) [ADBAE6A4] (AR v2)
Copy OK

Track 18

Filename H:\Rips\VA - Jackie - Summer Special (2009) (3CD) [FLAC]\CD3\18 - Diana Ross - Remember Me.wav

Pre-gap length 0:00:00.33

Peak level 70.7 %
Extraction speed 2.1 X
Track quality 100.0 %
Test CRC E92FF4CC
Copy CRC E92FF4CC
Accurately ripped (confidence 12) [6C4D7D52] (AR v2)
Copy OK

Track 19

Filename H:\Rips\VA - Jackie - Summer Special (2009) (3CD) [FLAC]\CD3\19 - The Floaters - Float On.wav

Pre-gap length 0:00:00.33

Peak level 99.2 %
Extraction speed 2.2 X
Track quality 100.0 %
Test CRC A146672A
Copy CRC A146672A
Accurately ripped (confidence 12) [1C636B32] (AR v2)
Copy OK

Track 20

Filename H:\Rips\VA - Jackie - Summer Special (2009) (3CD) [FLAC]\CD3\20 - The Isley Brothers - Summer Breeze.wav

Pre-gap length 0:00:00.33

Peak level 69.7 %
Extraction speed 2.4 X
Track quality 100.0 %
Test CRC 2F299F73
Copy CRC 2F299F73
Accurately ripped (confidence 12) [DD1BF999] (AR v2)
Copy OK

Track 21

Filename H:\Rips\VA - Jackie - Summer Special (2009) (3CD) [FLAC]\CD3\21 - Bobby Goldsboro - Summer (The First Time).wav

Pre-gap length 0:00:00.33

Peak level 86.2 %
Extraction speed 2.4 X
Track quality 100.0 %
Test CRC 83BC5A15
Copy CRC 83BC5A15
Accurately ripped (confidence 12) [778265AB] (AR v2)
Copy OK


All tracks accurately ripped

No errors occurred

End of status report

–– CUETools DB Plugin V2.1.6

[CTDB TOCID: 5LUMWcgOLPcOSTxoc8mXuht46jA-] found
Submit result: 5LUMWcgOLPcOSTxoc8mXuht46jA- has been confirmed
Track | CTDB Status
1 | (15/16) Accurately ripped
2 | (16/16) Accurately ripped
3 | (16/16) Accurately ripped
4 | (16/16) Accurately ripped
5 | (16/16) Accurately ripped
6 | (16/16) Accurately ripped
7 | (16/16) Accurately ripped
8 | (16/16) Accurately ripped
9 | (16/16) Accurately ripped
10 | (16/16) Accurately ripped
11 | (16/16) Accurately ripped
12 | (16/16) Accurately ripped
13 | (16/16) Accurately ripped
14 | (16/16) Accurately ripped
15 | (16/16) Accurately ripped
16 | (16/16) Accurately ripped
17 | (16/16) Accurately ripped
18 | (16/16) Accurately ripped
19 | (16/16) Accurately ripped
20 | (16/16) Accurately ripped
21 | (16/16) Accurately ripped


==== Log checksum FC1DD8B84CB7684ED3DF476BE06971E9051D1D947478E90C992AFEA48792C0E3 ====