Tags
Language
Tags
July 2024
Su Mo Tu We Th Fr Sa
30 1 2 3 4 5 6
7 8 9 10 11 12 13
14 15 16 17 18 19 20
21 22 23 24 25 26 27
28 29 30 31 1 2 3

VA - Hollywood Rocks! (2005)

Posted By: Rtax
VA - Hollywood Rocks! (2005)

VA - Hollywood Rocks! (2005)
EAC Rip | FLAC (tracks, cue, log) - 2.03 GB | MP3 CBR 320 kbps - 689 MB
5:01:02 | Hard Rock, Heavy Metal | Label: Deadline Music

Here in a once-in-a-lifetime box set are all the memories, all the music, the fashion and culture from Hollywood’s most-remembered decade, wrapped up in one glorious stargazing vehicle we’re calling Hollywood Rocks - The Audio Companion! Designed as a companion to the book HOLLYWOOD ROCKS!, this two-year project involved collecting demo cassettes, 12” vinyl, CDs, VHS and video tapes submitted by hundreds of current and former rock stars. Listen in awe to the demo-quality of an early DOKKEN. Close your eyes and pretend that you’re in the studio while WARRANT refines their songwriting craftsmanship. There’s no “re-recorded” stuff, either, since we passed on the countless submissions dated post ’93! So, here they are – digitally remastered and represented exactly how they were, straight from the original recordings!

The monster 4CD audio companion to the enormously popular book, packaged in an ultra sleek, leather-like box with foil stamping and extensive band bios!
Culled from the vaults of Hollywood’s premier metal superstars and influential pioneers, this retrospective features tracks by Guns ‘N’ Roses forerunner Hollywood Rose, Dokken, W.A.S.P., Black N Blue, Stryper, Poison, Quiet Riot and many, many more
All tracks are vintage, performed by the original aritsts - no cover versions, no re-records, in fact, no recordings post 1993 at all!

Tracklist
Disc 1 Early '80s (1980-1985)
1. Hollywood Rose – Killing Time
2. Hellion – Run For Your Life
3. Mickey Rat – Dr. Rock
4. Plain Jane – Time Warp
5. Candy – Whatever Happened To Fun
6. Steeler – Cold Day In Hell
7. Dokken – It's Not Love
8. W.A.S.P. – F**k Like A Beast
9. Black 'N Blue – Hold On To 18
10. Joneses – Looks So Good
11. The Zeros – Kokomo Joe
12. Quiet Riot – Let's Get Crazy
13. Armoured Saint – No Reason To Live
14. Rat – In Your Direction
15. Bitch – Be My Slave
16. Kery Doll – Too Good For Heaven
17. Warrant – Last Action Hero
18. Sin – Break Down The Walls (That Stop The Rock)
19. Xciter – Sleepless Nites

Disc 2 Mid-Late '80s (1985-1988)
1. Poison – Look What The Cat Dragged In
2. Lizzy Borden – American Metal
3. L.A. Guns (w/Paul Black) – Roll The Dice
4. Stryper – To Hell With The Devil
5. Great White – Down On Your Knees
6. Demolition Galore – Bulimia Babe
7. Harlow – Rock The Box
8. Slut – Dr. Monster
9. L.A. Guns (w/Phil Lewis) – Electric Gypsy
10. Decry – Dead End Zone
11. Nitro – Bitch On My Back
12. Faster Pussycat – Babylon
13. Rough Cutt – Hold On
14. TUFF – Sinner Street
15. Odin – 12 O'Clock High
16. Salty Dog – Strong Medication
17. Sound Barrier – Gladiator
18. WWIII – Love You To Death
19. Rock City Angels – Hush Child
20. The Sea Hags – Doghouse

Disc 3 Late '80s (1988-1989)
1. Keel – The Right To Rock (Live)
2. Jailhouse – The Innocent
3. London – Rainbow Bar & Girls
4. Cherry Street – Hellraiser
5. Junkyard – Hollywood
6. China – Love In Cold Blood
7. Bang Tango – Someone Like You
8. Black Cherry – Fading Away
9. King Kobra – Mean Street Machine
10. Motorcycle Boy – Cats Paw
11. Tommi Gunn – Rip, Rattle And Roll
12. Stars From Mars – We Got Tonight
13. Cats In Boots – Her Monkey
14. Lions & Ghosts – Meteor Boy
15. Angora – Give Me A Line
16. Virgin – I'm No Angel
17. The Hangmen – Desperation Town (Live)
18. XYZ – Inside Out
19. Kill For Thrills – Commercial Suicide
20. D'Molls – Action

Disc 4 Early '90s (1990-1992) Audio Companion
1. Electric Angels – Def Generation
2. Burning Tree – Planned Disaster
3. Jetboy – Feel The Shake
4. Big Bang Babies – 8 Arms
5. Lypswitch – Sexx On The Sun
6. Syanide Kick – Hollywood Angel
7. Darling Cruel – Changed
8. Saigon Saloon – Days Gone By
9. Rebel Rebel – Tonight's Your Night To R&R
10. Spiders & Snakes – California Slide
11. Hardly Dangerous – Take Me To The Mountain
12. Skull – I Like My Music Loud
13. Yesterday's Tear – Cold
14. Pretty Boy Floyd – Shut Up!
15. Blackboard Jungle – Chicago
16. Love/Hate – Wish It Was Summer
17. Mondo Cane – High On A Dream
18. Fizzy Bangers – Hai Karate
19. Alleycat Scratch – Take A Bite Outta Me
Exact Audio Copy V1.3 from 2. September 2016

EAC extraction logfile from 12. March 2019, 9:39

Various Artists / Hollywood Rocks: Disc 1 Early 80s (1980-1985)

Used drive : hp DVDRW DU8A6SH Adapter: 1 ID: 0

Read mode : Secure
Utilize accurate stream : Yes
Defeat audio cache : Yes
Make use of C2 pointers : No

Read offset correction : 6
Overread into Lead-In and Lead-Out : No
Fill up missing offset samples with silence : Yes
Delete leading and trailing silent blocks : No
Null samples used in CRC calculations : Yes
Used interface : Native Win32 interface for Win NT & 2000
Gap handling : Appended to previous track

Used output format : User Defined Encoder
Selected bitrate : 1024 kBit/s
Quality : High
Add ID3 tag : No
Command line compressor : C:\Program Files (x86)\Exact Audio Copy\FLAC\FLAC.EXE
Additional command line options : -8 -e -p -V -T "ARTIST=%artist%" -T "TITLE=%title%" -T "ALBUM=%albumtitle%" -T "DATE=%year%" -T "TRACKNUMBER=%tracknr%" -T "GENRE=%genre%" -T "PERFORMER=%albuminterpret%" -T "COMPOSER=%composer%" %haslyrics%–tag-from-file=LYRICS="%lyricsfile%"%haslyrics% -T "ALBUMARTIST=%albumartist%" -T "DISCNUMBER=%cdnumber%" -T "TOTALDISCS=%totalcds%" -T "TOTALTRACKS=%numtracks%" -T "COMMENT=%comment%" %source% -o %dest%


TOC of the extracted CD

Track | Start | Length | Start sector | End sector
––––––––––––––––––––––––––––-
1 | 0:00.00 | 3:36.52 | 0 | 16251
2 | 3:36.52 | 4:33.13 | 16252 | 36739
3 | 8:09.65 | 2:42.10 | 36740 | 48899
4 | 10:52.00 | 3:38.40 | 48900 | 65289
5 | 14:30.40 | 3:50.60 | 65290 | 82599
6 | 18:21.25 | 4:11.40 | 82600 | 101464
7 | 22:32.65 | 5:19.68 | 101465 | 125457
8 | 27:52.58 | 3:09.23 | 125458 | 139655
9 | 31:02.06 | 4:30.10 | 139656 | 159915
10 | 35:32.16 | 2:56.32 | 159916 | 173147
11 | 38:28.48 | 3:00.48 | 173148 | 186695
12 | 41:29.21 | 3:59.12 | 186696 | 204632
13 | 45:28.33 | 4:03.60 | 204633 | 222917
14 | 49:32.18 | 3:46.25 | 222918 | 239892
15 | 53:18.43 | 4:40.39 | 239893 | 260931
16 | 57:59.07 | 2:37.32 | 260932 | 272738
17 | 60:36.39 | 3:47.61 | 272739 | 289824
18 | 64:24.25 | 3:57.14 | 289825 | 307613
19 | 68:21.39 | 4:15.57 | 307614 | 326795


Track 1

Filename F:\Apollo Files\The Marvelous 3 - Ready Sex Go (2000) [320]\01 - Hollywood Rose - Killing Time.wav

Pre-gap length 0:00:02.00

Peak level 100.0 %
Extraction speed 1.2 X
Track quality 100.0 %
Test CRC 82971130
Copy CRC 82971130
Accurately ripped (confidence 2) [F1CCAEBA] (AR v2)
Copy OK

Track 2

Filename F:\Apollo Files\The Marvelous 3 - Ready Sex Go (2000) [320]\02 - Hellion - Run for Your Life.wav

Pre-gap length 0:00:02.30

Peak level 100.0 %
Extraction speed 1.3 X
Track quality 100.0 %
Test CRC 8B220605
Copy CRC 8B220605
Accurately ripped (confidence 2) [974E5E35] (AR v2)
Copy OK

Track 3

Filename F:\Apollo Files\The Marvelous 3 - Ready Sex Go (2000) [320]\03 - Mickey Rat - Dr. Rock.wav

Pre-gap length 0:00:02.30

Peak level 100.0 %
Extraction speed 1.3 X
Track quality 100.0 %
Test CRC AA3E22BD
Copy CRC AA3E22BD
Accurately ripped (confidence 2) [3C12ADCC] (AR v2)
Copy OK

Track 4

Filename F:\Apollo Files\The Marvelous 3 - Ready Sex Go (2000) [320]\04 - Plain Jane - Time Warp.wav

Pre-gap length 0:00:02.33

Peak level 100.0 %
Extraction speed 1.5 X
Track quality 100.0 %
Test CRC 807423D7
Copy CRC 807423D7
Accurately ripped (confidence 2) [68364086] (AR v2)
Copy OK

Track 5

Filename F:\Apollo Files\The Marvelous 3 - Ready Sex Go (2000) [320]\05 - Candy - Whatever Happened to Fun.wav

Pre-gap length 0:00:02.33

Peak level 100.0 %
Extraction speed 1.6 X
Track quality 100.0 %
Test CRC A7944444
Copy CRC A7944444
Accurately ripped (confidence 2) [B04D9782] (AR v2)
Copy OK

Track 6

Filename F:\Apollo Files\The Marvelous 3 - Ready Sex Go (2000) [320]\06 - Steeler - Cold Day in Hell.wav

Pre-gap length 0:00:02.32

Peak level 100.0 %
Extraction speed 1.7 X
Track quality 100.0 %
Test CRC 86757FD7
Copy CRC 86757FD7
Accurately ripped (confidence 2) [C4CF97E4] (AR v2)
Copy OK

Track 7

Filename F:\Apollo Files\The Marvelous 3 - Ready Sex Go (2000) [320]\07 - Dokken - It's Not Love.wav

Pre-gap length 0:00:02.33

Peak level 100.0 %
Extraction speed 1.8 X
Track quality 100.0 %
Test CRC 3C8A25BD
Copy CRC 3C8A25BD
Accurately ripped (confidence 2) [EB680956] (AR v2)
Copy OK

Track 8

Filename F:\Apollo Files\The Marvelous 3 - Ready Sex Go (2000) [320]\08 - W.A.S.P - F–k Like a Beast.wav

Pre-gap length 0:00:02.30

Peak level 100.0 %
Extraction speed 1.8 X
Track quality 100.0 %
Test CRC 0B250ED3
Copy CRC 0B250ED3
Accurately ripped (confidence 2) [0DEEB798] (AR v2)
Copy OK

Track 9

Filename F:\Apollo Files\The Marvelous 3 - Ready Sex Go (2000) [320]\09 - Black 'N Blue - Hold on to 18.wav

Pre-gap length 0:00:02.32

Peak level 100.0 %
Extraction speed 2.0 X
Track quality 100.0 %
Test CRC 69634426
Copy CRC 69634426
Accurately ripped (confidence 2) [84B87474] (AR v2)
Copy OK

Track 10

Filename F:\Apollo Files\The Marvelous 3 - Ready Sex Go (2000) [320]\10 - The Joneses - Looks So Good.wav

Pre-gap length 0:00:02.33

Peak level 96.6 %
Extraction speed 1.9 X
Track quality 100.0 %
Test CRC 0A38D138
Copy CRC 0A38D138
Accurately ripped (confidence 2) [6508B393] (AR v2)
Copy OK

Track 11

Filename F:\Apollo Files\The Marvelous 3 - Ready Sex Go (2000) [320]\11 - The Zeros - Kokomo Joe.wav

Pre-gap length 0:00:02.32

Peak level 100.0 %
Extraction speed 2.0 X
Track quality 100.0 %
Test CRC 68FB4D23
Copy CRC 68FB4D23
Accurately ripped (confidence 2) [0719DDE8] (AR v2)
Copy OK

Track 12

Filename F:\Apollo Files\The Marvelous 3 - Ready Sex Go (2000) [320]\12 - Quiet Riot - Let's Get Crazy.wav

Pre-gap length 0:00:02.30

Peak level 100.0 %
Extraction speed 2.2 X
Track quality 100.0 %
Test CRC F71930CA
Copy CRC F71930CA
Accurately ripped (confidence 2) [66AAF148] (AR v2)
Copy OK

Track 13

Filename F:\Apollo Files\The Marvelous 3 - Ready Sex Go (2000) [320]\13 - Armored Saint - No Reason to Live.wav

Pre-gap length 0:00:02.32

Peak level 100.0 %
Extraction speed 2.2 X
Track quality 100.0 %
Test CRC 84C9DED4
Copy CRC 84C9DED4
Accurately ripped (confidence 2) [81157458] (AR v2)
Copy OK

Track 14

Filename F:\Apollo Files\The Marvelous 3 - Ready Sex Go (2000) [320]\14 - Ratx - In Your Direction.wav

Pre-gap length 0:00:02.32

Peak level 100.0 %
Extraction speed 2.3 X
Track quality 100.0 %
Test CRC 44079FE2
Copy CRC 44079FE2
Accurately ripped (confidence 2) [998D4718] (AR v2)
Copy OK

Track 15

Filename F:\Apollo Files\The Marvelous 3 - Ready Sex Go (2000) [320]\15 - Bitch - Be My Slave.wav

Pre-gap length 0:00:02.30

Peak level 100.0 %
Extraction speed 2.1 X
Track quality 99.9 %
Test CRC FBE2324D
Copy CRC FBE2324D
Accurately ripped (confidence 2) [75A38EBD] (AR v2)
Copy OK

Track 16

Filename F:\Apollo Files\The Marvelous 3 - Ready Sex Go (2000) [320]\16 - Kery Doll - Too Good for Heaven.wav

Pre-gap length 0:00:01.33

Peak level 100.0 %
Extraction speed 2.2 X
Track quality 100.0 %
Test CRC 6C3F95D7
Copy CRC 6C3F95D7
Accurately ripped (confidence 2) [830A2F60] (AR v2)
Copy OK

Track 17

Filename F:\Apollo Files\The Marvelous 3 - Ready Sex Go (2000) [320]\17 - Warrant - Last Action Hero.wav

Pre-gap length 0:00:02.32

Peak level 100.0 %
Extraction speed 2.4 X
Track quality 100.0 %
Test CRC F1DB5795
Copy CRC F1DB5795
Accurately ripped (confidence 2) [90EC0B75] (AR v2)
Copy OK

Track 18

Filename F:\Apollo Files\The Marvelous 3 - Ready Sex Go (2000) [320]\18 - Sin - Break Down the Walls (That Stop the Rock).wav

Pre-gap length 0:00:02.32

Peak level 100.0 %
Extraction speed 2.5 X
Track quality 100.0 %
Test CRC C80CFE10
Copy CRC C80CFE10
Accurately ripped (confidence 2) [BD9AA457] (AR v2)
Copy OK

Track 19

Filename F:\Apollo Files\The Marvelous 3 - Ready Sex Go (2000) [320]\19 - Xciter - Sleepless Night.wav

Pre-gap length 0:00:02.32

Peak level 100.0 %
Extraction speed 2.6 X
Track quality 100.0 %
Test CRC 94182A52
Copy CRC 94182A52
Accurately ripped (confidence 2) [D19188E0] (AR v2)
Copy OK


All tracks accurately ripped

No errors occurred

End of status report

–– CUETools DB Plugin V2.1.6

[CTDB TOCID: pIPEgiAb0ZdHGp7bcQZ0fALTcts-] found
Submit result: already submitted
Track | CTDB Status
1 | (3/3) Accurately ripped
2 | (3/3) Accurately ripped
3 | (3/3) Accurately ripped
4 | (3/3) Accurately ripped
5 | (3/3) Accurately ripped
6 | (3/3) Accurately ripped
7 | (3/3) Accurately ripped
8 | (3/3) Accurately ripped
9 | (3/3) Accurately ripped
10 | (3/3) Accurately ripped
11 | (3/3) Accurately ripped
12 | (3/3) Accurately ripped
13 | (3/3) Accurately ripped
14 | (3/3) Accurately ripped
15 | (3/3) Accurately ripped
16 | (3/3) Accurately ripped
17 | (3/3) Accurately ripped
18 | (3/3) Accurately ripped
19 | (3/3) Accurately ripped


==== Log checksum 2871C325BC55B83160B609FA4B72A2973C915DBC1E6B4DC20B3F7CEA7A77A58F ====


Exact Audio Copy V1.3 from 2. September 2016

EAC extraction logfile from 17. March 2019, 10:41

Various Artists / Hollywood Rocks: Disc 2 Mid-Late 80s (1985-1988)

Used drive : hp DVDRW DU8A6SH Adapter: 1 ID: 0

Read mode : Secure
Utilize accurate stream : Yes
Defeat audio cache : Yes
Make use of C2 pointers : No

Read offset correction : 6
Overread into Lead-In and Lead-Out : No
Fill up missing offset samples with silence : Yes
Delete leading and trailing silent blocks : No
Null samples used in CRC calculations : Yes
Used interface : Native Win32 interface for Win NT & 2000
Gap handling : Appended to previous track

Used output format : User Defined Encoder
Selected bitrate : 1024 kBit/s
Quality : High
Add ID3 tag : No
Command line compressor : C:\Program Files (x86)\Exact Audio Copy\FLAC\FLAC.EXE
Additional command line options : -8 -e -p -V -T "ARTIST=%artist%" -T "TITLE=%title%" -T "ALBUM=%albumtitle%" -T "DATE=%year%" -T "TRACKNUMBER=%tracknr%" -T "GENRE=%genre%" -T "PERFORMER=%albuminterpret%" -T "COMPOSER=%composer%" %haslyrics%–tag-from-file=LYRICS="%lyricsfile%"%haslyrics% -T "ALBUMARTIST=%albumartist%" -T "DISCNUMBER=%cdnumber%" -T "TOTALDISCS=%totalcds%" -T "TOTALTRACKS=%numtracks%" -T "COMMENT=%comment%" %source% -o %dest%


TOC of the extracted CD

Track | Start | Length | Start sector | End sector
––––––––––––––––––––––––––––-
1 | 0:00.00 | 3:11.12 | 0 | 14336
2 | 3:11.12 | 5:54.28 | 14337 | 40914
3 | 9:05.40 | 3:52.05 | 40915 | 58319
4 | 12:57.45 | 4:08.36 | 58320 | 76955
5 | 17:06.06 | 3:52.26 | 76956 | 94381
6 | 20:58.32 | 2:56.71 | 94382 | 107652
7 | 23:55.28 | 3:07.00 | 107653 | 121677
8 | 27:02.28 | 2:24.48 | 121678 | 132525
9 | 29:27.01 | 3:25.46 | 132526 | 147946
10 | 32:52.47 | 2:26.21 | 147947 | 158917
11 | 35:18.68 | 2:56.17 | 158918 | 172134
12 | 38:15.10 | 3:19.05 | 172135 | 187064
13 | 41:34.15 | 4:02.43 | 187065 | 205257
14 | 45:36.58 | 3:21.55 | 205258 | 220387
15 | 48:58.38 | 3:03.20 | 220388 | 234132
16 | 52:01.58 | 4:33.32 | 234133 | 254639
17 | 56:35.15 | 3:50.65 | 254640 | 271954
18 | 60:26.05 | 4:52.63 | 271955 | 293917
19 | 65:18.68 | 3:16.53 | 293918 | 308670
20 | 68:35.46 | 5:39.32 | 308671 | 334127


Track 1

Filename F:\Apollo Files\The Marvelous 3 - Ready Sex Go (2000) [320]\01 - Poison - Look What the Cat Dragged In.wav

Pre-gap length 0:00:02.00

Peak level 100.0 %
Extraction speed 1.2 X
Track quality 100.0 %
Test CRC BF43E6F1
Copy CRC BF43E6F1
Accurately ripped (confidence 2) [840D8C4E] (AR v2)
Copy OK

Track 2

Filename F:\Apollo Files\The Marvelous 3 - Ready Sex Go (2000) [320]\02 - Lizzy Borden - American Metal.wav

Pre-gap length 0:00:02.32

Peak level 100.0 %
Extraction speed 1.4 X
Track quality 100.0 %
Test CRC 556A0C13
Copy CRC 556A0C13
Accurately ripped (confidence 2) [CBA1746C] (AR v2)
Copy OK

Track 3

Filename F:\Apollo Files\The Marvelous 3 - Ready Sex Go (2000) [320]\03 - LA Guns w,Paul Black - Roll the Dice Faster Pussycat-Babylon.wav

Pre-gap length 0:00:02.30

Peak level 80.3 %
Extraction speed 1.3 X
Track quality 99.9 %
Test CRC 6548D6F6
Copy CRC 6548D6F6
Accurately ripped (confidence 2) [C9199A60] (AR v2)
Copy OK

Track 4

Filename F:\Apollo Files\The Marvelous 3 - Ready Sex Go (2000) [320]\04 - Stryper - To Hell with the Devil.wav

Pre-gap length 0:00:02.32

Peak level 99.9 %
Extraction speed 1.6 X
Track quality 100.0 %
Test CRC 2B20E2AF
Copy CRC 2B20E2AF
Accurately ripped (confidence 2) [8D23A41E] (AR v2)
Copy OK

Track 5

Filename F:\Apollo Files\The Marvelous 3 - Ready Sex Go (2000) [320]\05 - Great White - Down on Your Knees.wav

Pre-gap length 0:00:02.33

Peak level 92.2 %
Extraction speed 1.7 X
Track quality 100.0 %
Test CRC BC3BAE37
Copy CRC BC3BAE37
Accurately ripped (confidence 2) [B5D16BF0] (AR v2)
Copy OK

Track 6

Filename F:\Apollo Files\The Marvelous 3 - Ready Sex Go (2000) [320]\06 - Demolition Galore - Bulimia Babe.wav

Pre-gap length 0:00:02.32

Peak level 100.0 %
Extraction speed 1.4 X
Track quality 99.9 %
Test CRC F5A64F43
Copy CRC F5A64F43
Accurately ripped (confidence 2) [80B51987] (AR v2)
Copy OK

Track 7

Filename F:\Apollo Files\The Marvelous 3 - Ready Sex Go (2000) [320]\07 - Harlow - Rock the Box.wav

Pre-gap length 0:00:02.32

Peak level 100.0 %
Extraction speed 1.7 X
Track quality 100.0 %
Test CRC D04AAB07
Copy CRC D04AAB07
Accurately ripped (confidence 2) [65C6A11B] (AR v2)
Copy OK

Track 8

Filename F:\Apollo Files\The Marvelous 3 - Ready Sex Go (2000) [320]\08 - Slut - Dr. Monster.wav

Pre-gap length 0:00:02.32

Peak level 100.0 %
Extraction speed 1.7 X
Track quality 100.0 %
Test CRC DC13D811
Copy CRC DC13D811
Accurately ripped (confidence 2) [59029A56] (AR v2)
Copy OK

Track 9

Filename F:\Apollo Files\The Marvelous 3 - Ready Sex Go (2000) [320]\09 - L.A. Guns w,Phil Lewis - Electric Gypsy.wav

Pre-gap length 0:00:02.32

Peak level 100.0 %
Extraction speed 1.9 X
Track quality 100.0 %
Test CRC 15DE2301
Copy CRC 15DE2301
Accurately ripped (confidence 2) [EEA2E2F9] (AR v2)
Copy OK

Track 10

Filename F:\Apollo Files\The Marvelous 3 - Ready Sex Go (2000) [320]\10 - Decry - Dead End Zone.wav

Pre-gap length 0:00:02.32

Peak level 100.0 %
Extraction speed 1.8 X
Track quality 100.0 %
Test CRC E6F12FE5
Copy CRC E6F12FE5
Accurately ripped (confidence 2) [5DCF1F9A] (AR v2)
Copy OK

Track 11

Filename F:\Apollo Files\The Marvelous 3 - Ready Sex Go (2000) [320]\11 - Nitro - Bitch on My Back.wav

Pre-gap length 0:00:02.30

Peak level 99.9 %
Extraction speed 1.9 X
Track quality 100.0 %
Test CRC 94A1BD72
Copy CRC 94A1BD72
Accurately ripped (confidence 2) [253B7423] (AR v2)
Copy OK

Track 12

Filename F:\Apollo Files\The Marvelous 3 - Ready Sex Go (2000) [320]\12 - Faster Pussycat - Babylon.wav

Pre-gap length 0:00:02.32

Peak level 100.0 %
Extraction speed 2.0 X
Track quality 100.0 %
Test CRC 18A1F019
Copy CRC 18A1F019
Accurately ripped (confidence 2) [7C4E48FB] (AR v2)
Copy OK

Track 13

Filename F:\Apollo Files\The Marvelous 3 - Ready Sex Go (2000) [320]\13 - Rough Cutt - Hold On.wav

Pre-gap length 0:00:02.32

Peak level 99.9 %
Extraction speed 2.2 X
Track quality 100.0 %
Test CRC 5F28A1C8
Copy CRC 5F28A1C8
Accurately ripped (confidence 2) [EE399303] (AR v2)
Copy OK

Track 14

Filename F:\Apollo Files\The Marvelous 3 - Ready Sex Go (2000) [320]\14 - Tuff - Sinner Street.wav

Pre-gap length 0:00:02.33

Peak level 100.0 %
Extraction speed 2.1 X
Track quality 100.0 %
Test CRC 2F5C9F2C
Copy CRC 2F5C9F2C
Accurately ripped (confidence 2) [ABC6EA6D] (AR v2)
Copy OK

Track 15

Filename F:\Apollo Files\The Marvelous 3 - Ready Sex Go (2000) [320]\15 - Odin - 12 O'Clock High.wav

Pre-gap length 0:00:02.33

Peak level 100.0 %
Extraction speed 1.9 X
Track quality 99.9 %
Test CRC 491C7C8C
Copy CRC 491C7C8C
Accurately ripped (confidence 2) [691ABD52] (AR v2)
Copy OK

Track 16

Filename F:\Apollo Files\The Marvelous 3 - Ready Sex Go (2000) [320]\16 - Salty Dog - Strong Medication.wav

Pre-gap length 0:00:02.30

Peak level 100.0 %
Extraction speed 2.4 X
Track quality 100.0 %
Test CRC 7EB97175
Copy CRC 7EB97175
Accurately ripped (confidence 2) [B72848CC] (AR v2)
Copy OK

Track 17

Filename F:\Apollo Files\The Marvelous 3 - Ready Sex Go (2000) [320]\17 - Sound Barriers - Gladiator.wav

Pre-gap length 0:00:02.32

Peak level 99.9 %
Extraction speed 2.4 X
Track quality 100.0 %
Test CRC 12742C98
Copy CRC 12742C98
Accurately ripped (confidence 2) [AA2A02AA] (AR v2)
Copy OK

Track 18

Filename F:\Apollo Files\The Marvelous 3 - Ready Sex Go (2000) [320]\18 - WWIII - Love You to Death.wav

Pre-gap length 0:00:02.32

Peak level 100.0 %
Extraction speed 2.5 X
Track quality 100.0 %
Test CRC DE0F9354
Copy CRC DE0F9354
Accurately ripped (confidence 2) [880B4983] (AR v2)
Copy OK

Track 19

Filename F:\Apollo Files\The Marvelous 3 - Ready Sex Go (2000) [320]\19 - Rock City Angels - Hush Child.wav

Pre-gap length 0:00:02.32

Peak level 100.0 %
Extraction speed 2.5 X
Track quality 100.0 %
Test CRC 291D05BE
Copy CRC 291D05BE
Accurately ripped (confidence 2) [F33807F9] (AR v2)
Copy OK

Track 20

Filename F:\Apollo Files\The Marvelous 3 - Ready Sex Go (2000) [320]\20 - Sea Hags - Doghouse.wav

Pre-gap length 0:00:02.32

Peak level 100.0 %
Extraction speed 2.7 X
Track quality 100.0 %
Test CRC 516E1CBD
Copy CRC 516E1CBD
Accurately ripped (confidence 2) [4A255453] (AR v2)
Copy OK


All tracks accurately ripped

No errors occurred

End of status report

–– CUETools DB Plugin V2.1.6

[CTDB TOCID: SOv65tUjx0ge1Y8QIdOUE9c0WwU-] found
Submit result: SOv65tUjx0ge1Y8QIdOUE9c0WwU- has been confirmed
Track | CTDB Status
1 | (2/2) Accurately ripped
2 | (2/2) Accurately ripped
3 | (2/2) Accurately ripped
4 | (2/2) Accurately ripped
5 | (2/2) Accurately ripped
6 | (2/2) Accurately ripped
7 | (2/2) Accurately ripped
8 | (2/2) Accurately ripped
9 | (2/2) Accurately ripped
10 | (2/2) Accurately ripped
11 | (2/2) Accurately ripped
12 | (2/2) Accurately ripped
13 | (2/2) Accurately ripped
14 | (2/2) Accurately ripped
15 | (2/2) Accurately ripped
16 | (2/2) Accurately ripped
17 | (2/2) Accurately ripped
18 | (2/2) Accurately ripped
19 | (2/2) Accurately ripped
20 | (2/2) Accurately ripped


==== Log checksum F37196B3D4BDCEC8FBDBF279690F6495BABAFCEED1C30A909EDF8A2C54F00A1E ====


Exact Audio Copy V1.3 from 2. September 2016

EAC extraction logfile from 15. March 2019, 19:03

Various Artists / Hollywood Rocks: Disc 3 Late 80s (1988-1989)

Used drive : hp DVDRW DU8A6SH Adapter: 1 ID: 0

Read mode : Secure
Utilize accurate stream : Yes
Defeat audio cache : Yes
Make use of C2 pointers : No

Read offset correction : 6
Overread into Lead-In and Lead-Out : No
Fill up missing offset samples with silence : Yes
Delete leading and trailing silent blocks : No
Null samples used in CRC calculations : Yes
Used interface : Native Win32 interface for Win NT & 2000
Gap handling : Appended to previous track

Used output format : User Defined Encoder
Selected bitrate : 1024 kBit/s
Quality : High
Add ID3 tag : No
Command line compressor : C:\Program Files (x86)\Exact Audio Copy\FLAC\FLAC.EXE
Additional command line options : -8 -e -p -V -T "ARTIST=%artist%" -T "TITLE=%title%" -T "ALBUM=%albumtitle%" -T "DATE=%year%" -T "TRACKNUMBER=%tracknr%" -T "GENRE=%genre%" -T "PERFORMER=%albuminterpret%" -T "COMPOSER=%composer%" %haslyrics%–tag-from-file=LYRICS="%lyricsfile%"%haslyrics% -T "ALBUMARTIST=%albumartist%" -T "DISCNUMBER=%cdnumber%" -T "TOTALDISCS=%totalcds%" -T "TOTALTRACKS=%numtracks%" -T "COMMENT=%comment%" %source% -o %dest%


TOC of the extracted CD

Track | Start | Length | Start sector | End sector
––––––––––––––––––––––––––––-
1 | 0:00.00 | 5:35.55 | 0 | 25179
2 | 5:35.55 | 4:45.15 | 25180 | 46569
3 | 10:20.70 | 3:53.17 | 46570 | 64061
4 | 14:14.12 | 3:18.03 | 64062 | 78914
5 | 17:32.15 | 3:01.72 | 78915 | 92561
6 | 20:34.12 | 3:17.05 | 92562 | 107341
7 | 23:51.17 | 4:26.18 | 107342 | 127309
8 | 28:17.35 | 4:34.26 | 127310 | 147885
9 | 32:51.61 | 4:27.71 | 147886 | 167981
10 | 37:19.57 | 2:02.30 | 167982 | 177161
11 | 39:22.12 | 3:37.33 | 177162 | 193469
12 | 42:59.45 | 4:13.15 | 193470 | 212459
13 | 47:12.60 | 4:02.37 | 212460 | 230646
14 | 51:15.22 | 4:07.00 | 230647 | 249171
15 | 55:22.22 | 3:46.07 | 249172 | 266128
16 | 59:08.29 | 3:32.12 | 266129 | 282040
17 | 62:40.41 | 3:09.01 | 282041 | 296216
18 | 65:49.42 | 3:46.39 | 296217 | 313205
19 | 69:36.06 | 5:15.47 | 313206 | 336877
20 | 74:51.53 | 3:09.69 | 336878 | 351121


Track 1

Filename F:\Apollo Files\The Marvelous 3 - Ready Sex Go (2000) [320]\01 - Keel - The Right to Rock.wav

Pre-gap length 0:00:02.00

Peak level 100.0 %
Extraction speed 1.3 X
Track quality 100.0 %
Test CRC 1508C87A
Copy CRC 1508C87A
Accurately ripped (confidence 2) [173C2818] (AR v2)
Copy OK

Track 2

Filename F:\Apollo Files\The Marvelous 3 - Ready Sex Go (2000) [320]\02 - Jailhouse - The Innocent.wav

Pre-gap length 0:00:03.30

Peak level 100.0 %
Extraction speed 1.3 X
Track quality 99.9 %
Test CRC 172D0E71
Copy CRC 172D0E71
Accurately ripped (confidence 2) [B9BC7DC6] (AR v2)
Copy OK

Track 3

Filename F:\Apollo Files\The Marvelous 3 - Ready Sex Go (2000) [320]\03 - London - Rainbow Bar & Girls.wav

Pre-gap length 0:00:02.32

Peak level 100.0 %
Extraction speed 1.5 X
Track quality 100.0 %
Test CRC CF06F495
Copy CRC CF06F495
Accurately ripped (confidence 2) [9DC08B2E] (AR v2)
Copy OK

Track 4

Filename F:\Apollo Files\The Marvelous 3 - Ready Sex Go (2000) [320]\04 - Cherry St. - Hellraiser.wav

Pre-gap length 0:00:02.33

Peak level 100.0 %
Extraction speed 1.6 X
Track quality 100.0 %
Test CRC 01188C91
Copy CRC 01188C91
Accurately ripped (confidence 2) [E953A24E] (AR v2)
Copy OK

Track 5

Filename F:\Apollo Files\The Marvelous 3 - Ready Sex Go (2000) [320]\05 - Junkyard - Hollywood.wav

Pre-gap length 0:00:02.32

Peak level 100.0 %
Extraction speed 1.6 X
Track quality 100.0 %
Test CRC 9D89F59A
Copy CRC 9D89F59A
Accurately ripped (confidence 2) [AF95DEF9] (AR v2)
Copy OK

Track 6

Filename F:\Apollo Files\The Marvelous 3 - Ready Sex Go (2000) [320]\06 - China - Love in Cold Blood.wav

Pre-gap length 0:00:02.33

Peak level 64.5 %
Extraction speed 1.7 X
Track quality 100.0 %
Test CRC 9B295CBF
Copy CRC 9B295CBF
Accurately ripped (confidence 2) [C8E779DF] (AR v2)
Copy OK

Track 7

Filename F:\Apollo Files\The Marvelous 3 - Ready Sex Go (2000) [320]\07 - Bang Tango - Someone Like You.wav

Pre-gap length 0:00:02.32

Peak level 100.0 %
Extraction speed 1.6 X
Track quality 99.9 %
Test CRC 3C5A9814
Copy CRC 3C5A9814
Accurately ripped (confidence 2) [C1F124C1] (AR v2)
Copy OK

Track 8

Filename F:\Apollo Files\The Marvelous 3 - Ready Sex Go (2000) [320]\08 - Black Cherry - Fading Away.wav

Pre-gap length 0:00:02.33

Peak level 100.0 %
Extraction speed 1.9 X
Track quality 100.0 %
Test CRC 1F00BB9B
Copy CRC 1F00BB9B
Accurately ripped (confidence 2) [FB79ECE9] (AR v2)
Copy OK

Track 9

Filename F:\Apollo Files\The Marvelous 3 - Ready Sex Go (2000) [320]\09 - King Kobra - Mean Street Machine.wav

Pre-gap length 0:00:02.32

Peak level 100.0 %
Extraction speed 2.0 X
Track quality 100.0 %
Test CRC 7BAA2497
Copy CRC 7BAA2497
Accurately ripped (confidence 2) [22A073B4] (AR v2)
Copy OK

Track 10

Filename F:\Apollo Files\The Marvelous 3 - Ready Sex Go (2000) [320]\10 - Motorcycle Boy - Cat's Paw.wav

Pre-gap length 0:00:02.32

Peak level 100.0 %
Extraction speed 1.8 X
Track quality 100.0 %
Test CRC B4045E65
Copy CRC B4045E65
Accurately ripped (confidence 2) [133601BB] (AR v2)
Copy OK

Track 11

Filename F:\Apollo Files\The Marvelous 3 - Ready Sex Go (2000) [320]\11 - Tommi Gunn - Rip, Rattle and Roll.wav

Pre-gap length 0:00:02.32

Peak level 100.0 %
Extraction speed 1.8 X
Track quality 99.9 %
Test CRC 5D6023D6
Copy CRC 5D6023D6
Accurately ripped (confidence 2) [16BC1523] (AR v2)
Copy OK

Track 12

Filename F:\Apollo Files\The Marvelous 3 - Ready Sex Go (2000) [320]\12 - Stars From Mars - We Got Tonight.wav

Pre-gap length 0:00:02.32

Peak level 100.0 %
Extraction speed 2.2 X
Track quality 100.0 %
Test CRC CA04AD9C
Copy CRC CA04AD9C
Accurately ripped (confidence 2) [86E94BA8] (AR v2)
Copy OK

Track 13

Filename F:\Apollo Files\The Marvelous 3 - Ready Sex Go (2000) [320]\13 - Cats in Boots - Her Monkey.wav

Pre-gap length 0:00:02.33

Peak level 100.0 %
Extraction speed 2.3 X
Track quality 100.0 %
Test CRC 9A486768
Copy CRC 9A486768
Accurately ripped (confidence 2) [611FD0B9] (AR v2)
Copy OK

Track 14

Filename F:\Apollo Files\The Marvelous 3 - Ready Sex Go (2000) [320]\14 - Lions & Ghosts - Meteor Boy.wav

Pre-gap length 0:00:02.30

Peak level 100.0 %
Extraction speed 2.1 X
Track quality 99.9 %
Test CRC E05BFD56
Copy CRC E05BFD56
Accurately ripped (confidence 2) [F8E2F1ED] (AR v2)
Copy OK

Track 15

Filename F:\Apollo Files\The Marvelous 3 - Ready Sex Go (2000) [320]\15 - Angora - Give Me a Line.wav

Pre-gap length 0:00:02.32

Peak level 100.0 %
Extraction speed 2.1 X
Track quality 99.9 %
Test CRC D35EB88C
Copy CRC D35EB88C
Accurately ripped (confidence 2) [FD3138CD] (AR v2)
Copy OK

Track 16

Filename F:\Apollo Files\The Marvelous 3 - Ready Sex Go (2000) [320]\16 - Virgin - I'm No Angel.wav

Pre-gap length 0:00:02.33

Peak level 99.9 %
Extraction speed 2.1 X
Track quality 99.9 %
Test CRC 1D2CA231
Copy CRC 1D2CA231
Accurately ripped (confidence 2) [0B4C71D2] (AR v2)
Copy OK

Track 17

Filename F:\Apollo Files\The Marvelous 3 - Ready Sex Go (2000) [320]\17 - The Hangmen - Desperation Town.wav

Pre-gap length 0:00:02.32

Peak level 100.0 %
Extraction speed 2.4 X
Track quality 100.0 %
Test CRC 11BD52DB
Copy CRC 11BD52DB
Accurately ripped (confidence 2) [6F6F9EBF] (AR v2)
Copy OK

Track 18

Filename F:\Apollo Files\The Marvelous 3 - Ready Sex Go (2000) [320]\18 - XYZ - Inside Out.wav

Pre-gap length 0:00:02.30

Peak level 100.0 %
Extraction speed 2.5 X
Track quality 100.0 %
Test CRC 2D662EB3
Copy CRC 2D662EB3
Accurately ripped (confidence 2) [F31BF4E4] (AR v2)
Copy OK

Track 19

Filename F:\Apollo Files\The Marvelous 3 - Ready Sex Go (2000) [320]\19 - Kill for Thrills - Commercial Suicide.wav

Pre-gap length 0:00:02.33

Peak level 100.0 %
Extraction speed 2.7 X
Track quality 100.0 %
Test CRC 57068A60
Copy CRC 57068A60
Accurately ripped (confidence 2) [872C92CE] (AR v2)
Copy OK

Track 20

Filename F:\Apollo Files\The Marvelous 3 - Ready Sex Go (2000) [320]\20 - D'Molls - Action.wav

Pre-gap length 0:00:02.32

Peak level 100.0 %
Extraction speed 2.2 X
Track quality 99.9 %
Test CRC D3E952EA
Copy CRC D3E952EA
Accurately ripped (confidence 2) [DA178227] (AR v2)
Copy OK


All tracks accurately ripped

No errors occurred

End of status report

–– CUETools DB Plugin V2.1.6

[CTDB TOCID: 7LaiT_yoYAc0UPOqzZianS.1na0-] found
Submit result: already submitted
Track | CTDB Status
1 | (3/3) Accurately ripped
2 | (3/3) Accurately ripped
3 | (3/3) Accurately ripped
4 | (3/3) Accurately ripped
5 | (3/3) Accurately ripped
6 | (3/3) Accurately ripped
7 | (3/3) Accurately ripped
8 | (3/3) Accurately ripped
9 | (3/3) Accurately ripped
10 | (3/3) Accurately ripped
11 | (3/3) Accurately ripped
12 | (3/3) Accurately ripped
13 | (3/3) Accurately ripped
14 | (3/3) Accurately ripped
15 | (3/3) Accurately ripped
16 | (3/3) Accurately ripped
17 | (3/3) Accurately ripped
18 | (3/3) Accurately ripped
19 | (3/3) Accurately ripped
20 | (3/3) Accurately ripped


==== Log checksum 9ECA86DE815947CA94A066170ED762853AE32DC9BC1D76FA17BA43D4D6025C54 ====


Exact Audio Copy V1.3 from 2. September 2016

EAC extraction logfile from 19. March 2019, 15:48

Various Artists / Hollywood Rocks! Audio Companion (Disc 4)

Used drive : PIONEER BD-RW BDR-XD05 Adapter: 1 ID: 1

Read mode : Secure
Utilize accurate stream : Yes
Defeat audio cache : Yes
Make use of C2 pointers : No

Read offset correction : 667
Overread into Lead-In and Lead-Out : No
Fill up missing offset samples with silence : Yes
Delete leading and trailing silent blocks : No
Null samples used in CRC calculations : Yes
Used interface : Native Win32 interface for Win NT & 2000
Gap handling : Appended to previous track

Used output format : User Defined Encoder
Selected bitrate : 1024 kBit/s
Quality : High
Add ID3 tag : No
Command line compressor : C:\Program Files (x86)\Exact Audio Copy\FLAC\FLAC.EXE
Additional command line options : -8 -e -p -V -T "ARTIST=%artist%" -T "TITLE=%title%" -T "ALBUM=%albumtitle%" -T "DATE=%year%" -T "TRACKNUMBER=%tracknr%" -T "GENRE=%genre%" -T "PERFORMER=%albuminterpret%" -T "COMPOSER=%composer%" %haslyrics%–tag-from-file=LYRICS="%lyricsfile%"%haslyrics% -T "ALBUMARTIST=%albumartist%" -T "DISCNUMBER=%cdnumber%" -T "TOTALDISCS=%totalcds%" -T "TOTALTRACKS=%numtracks%" -T "COMMENT=%comment%" %source% -o %dest%


TOC of the extracted CD

Track | Start | Length | Start sector | End sector
––––––––––––––––––––––––––––-
1 | 0:00.00 | 4:21.65 | 0 | 19639
2 | 4:21.65 | 4:12.45 | 19640 | 38584
3 | 8:34.35 | 4:21.02 | 38585 | 58161
4 | 12:55.37 | 3:24.05 | 58162 | 73466
5 | 16:19.42 | 4:10.58 | 73467 | 92274
6 | 20:30.25 | 3:59.03 | 92275 | 110202
7 | 24:29.28 | 3:30.66 | 110203 | 126018
8 | 28:00.19 | 3:07.06 | 126019 | 140049
9 | 31:07.25 | 3:48.10 | 140050 | 157159
10 | 34:55.35 | 4:31.00 | 157160 | 177484
11 | 39:26.35 | 4:56.73 | 177485 | 199757
12 | 44:23.33 | 3:25.47 | 199758 | 215179
13 | 47:49.05 | 3:42.40 | 215180 | 231869
14 | 51:31.45 | 3:56.48 | 231870 | 249617
15 | 55:28.18 | 4:29.25 | 249618 | 269817
16 | 59:57.43 | 4:37.42 | 269818 | 290634
17 | 64:35.10 | 5:41.15 | 290635 | 316224
18 | 70:16.25 | 2:26.27 | 316225 | 327201
19 | 72:42.52 | 3:25.54 | 327202 | 342630


Track 1

Filename F:\Apollo Files\The Marvelous 3 - Ready Sex Go (2000) [320]\01 - Electric Angels - Def Generation.wav

Pre-gap length 0:00:02.00

Peak level 100.0 %
Extraction speed 1.2 X
Track quality 100.0 %
Test CRC 75E111E8
Copy CRC 75E111E8
Accurately ripped (confidence 2) [D992A71F] (AR v2)
Copy OK

Track 2

Filename F:\Apollo Files\The Marvelous 3 - Ready Sex Go (2000) [320]\02 - Burning Tree - Planned Disaster.wav

Pre-gap length 0:00:02.30

Peak level 100.0 %
Extraction speed 1.3 X
Track quality 100.0 %
Test CRC 804AEE13
Copy CRC 804AEE13
Accurately ripped (confidence 2) [ED98ACCB] (AR v2)
Copy OK

Track 3

Filename F:\Apollo Files\The Marvelous 3 - Ready Sex Go (2000) [320]\03 - Jetboy - Feel the Shake.wav

Pre-gap length 0:00:02.32

Peak level 100.0 %
Extraction speed 1.4 X
Track quality 100.0 %
Test CRC 5860630A
Copy CRC 5860630A
Accurately ripped (confidence 2) [6EC6C445] (AR v2)
Copy OK

Track 4

Filename F:\Apollo Files\The Marvelous 3 - Ready Sex Go (2000) [320]\04 - Big Bang Babies - 8 Arms.wav

Pre-gap length 0:00:02.30

Peak level 100.0 %
Extraction speed 1.5 X
Track quality 100.0 %
Test CRC 0A4DD5CA
Copy CRC 0A4DD5CA
Accurately ripped (confidence 2) [1C1B3143] (AR v2)
Copy OK

Track 5

Filename F:\Apollo Files\The Marvelous 3 - Ready Sex Go (2000) [320]\05 - Lypswitch - Sexx on the Sun.wav

Pre-gap length 0:00:02.30

Peak level 100.0 %
Extraction speed 1.6 X
Track quality 100.0 %
Test CRC 6DA2D6D6
Copy CRC 6DA2D6D6
Accurately ripped (confidence 2) [83E97CFA] (AR v2)
Copy OK

Track 6

Filename F:\Apollo Files\The Marvelous 3 - Ready Sex Go (2000) [320]\06 - Syanide Kick - Hollywood Angel.wav

Pre-gap length 0:00:02.30

Peak level 100.0 %
Extraction speed 1.5 X
Track quality 99.9 %
Test CRC E3B189E2
Copy CRC E3B189E2
Accurately ripped (confidence 2) [3B59A50B] (AR v2)
Copy OK

Track 7

Filename F:\Apollo Files\The Marvelous 3 - Ready Sex Go (2000) [320]\07 - Darling Cruel - Changed.wav

Pre-gap length 0:00:02.30

Peak level 100.0 %
Extraction speed 1.8 X
Track quality 100.0 %
Test CRC 7FC2DD2A
Copy CRC 7FC2DD2A
Accurately ripped (confidence 2) [E2E41329] (AR v2)
Copy OK

Track 8

Filename F:\Apollo Files\The Marvelous 3 - Ready Sex Go (2000) [320]\08 - Saigon Saloon - Days Gone By.wav

Pre-gap length 0:00:02.32

Peak level 100.0 %
Extraction speed 1.8 X
Track quality 100.0 %
Test CRC 5E093075
Copy CRC 5E093075
Accurately ripped (confidence 2) [CBD8280F] (AR v2)
Copy OK

Track 9

Filename F:\Apollo Files\The Marvelous 3 - Ready Sex Go (2000) [320]\09 - Rebel Rebel - Tonight's Your Night to Rock & Roll.wav

Pre-gap length 0:00:02.32

Peak level 100.0 %
Extraction speed 1.9 X
Track quality 100.0 %
Test CRC 479F0414
Copy CRC 479F0414
Accurately ripped (confidence 2) [B5D035ED] (AR v2)
Copy OK

Track 10

Filename F:\Apollo Files\The Marvelous 3 - Ready Sex Go (2000) [320]\10 - Spiders & Snakes - California Slide.wav

Pre-gap length 0:00:02.33

Peak level 100.0 %
Extraction speed 2.0 X
Track quality 100.0 %
Test CRC 50FEB56A
Copy CRC 50FEB56A
Accurately ripped (confidence 2) [1F3A7793] (AR v2)
Copy OK

Track 11

Filename F:\Apollo Files\The Marvelous 3 - Ready Sex Go (2000) [320]\11 - Hardly Dangerous - Take Me to the Mountain.wav

Pre-gap length 0:00:02.30

Peak level 100.0 %
Extraction speed 2.1 X
Track quality 100.0 %
Test CRC 431FC165
Copy CRC 431FC165
Accurately ripped (confidence 2) [FA30AF9B] (AR v2)
Copy OK

Track 12

Filename F:\Apollo Files\The Marvelous 3 - Ready Sex Go (2000) [320]\12 - Skull - I Like My Music Loud.wav

Pre-gap length 0:00:02.30

Peak level 100.0 %
Extraction speed 2.1 X
Track quality 100.0 %
Test CRC 89E63EC7
Copy CRC 89E63EC7
Accurately ripped (confidence 2) [6D8E6E96] (AR v2)
Copy OK

Track 13

Filename F:\Apollo Files\The Marvelous 3 - Ready Sex Go (2000) [320]\13 - Yesterday's Tear - Cold.wav

Pre-gap length 0:00:02.32

Peak level 100.0 %
Extraction speed 2.2 X
Track quality 100.0 %
Test CRC 02BA3250
Copy CRC 02BA3250
Accurately ripped (confidence 2) [E94CD72A] (AR v2)
Copy OK

Track 14

Filename F:\Apollo Files\The Marvelous 3 - Ready Sex Go (2000) [320]\14 - Pretty Boy Floyd - Shut Up!.wav

Pre-gap length 0:00:02.32

Peak level 100.0 %
Extraction speed 2.3 X
Track quality 100.0 %
Test CRC 11F3C104
Copy CRC 11F3C104
Accurately ripped (confidence 2) [BEF613B9] (AR v2)
Copy OK

Track 15

Filename F:\Apollo Files\The Marvelous 3 - Ready Sex Go (2000) [320]\15 - Blackboard Jungle - Chicago.wav

Pre-gap length 0:00:02.33

Peak level 100.0 %
Extraction speed 2.4 X
Track quality 100.0 %
Test CRC ECB017F2
Copy CRC ECB017F2
Accurately ripped (confidence 2) [9580344A] (AR v2)
Copy OK

Track 16

Filename F:\Apollo Files\The Marvelous 3 - Ready Sex Go (2000) [320]\16 - Love Hate - Wish It Was Summer.wav

Pre-gap length 0:00:02.30

Peak level 100.0 %
Extraction speed 2.2 X
Track quality 99.9 %
Test CRC 6E9FF994
Copy CRC 6E9FF994
Accurately ripped (confidence 2) [58DD6BE0] (AR v2)
Copy OK

Track 17

Filename F:\Apollo Files\The Marvelous 3 - Ready Sex Go (2000) [320]\17 - Mondo Cane - High on a Dream.wav

Pre-gap length 0:00:02.32

Peak level 100.0 %
Extraction speed 2.6 X
Track quality 100.0 %
Test CRC A3F85907
Copy CRC A3F85907
Accurately ripped (confidence 2) [32CA484C] (AR v2)
Copy OK

Track 18

Filename F:\Apollo Files\The Marvelous 3 - Ready Sex Go (2000) [320]\18 - Fizzy Bangers - Hai Karate.wav

Pre-gap length 0:00:02.30

Peak level 100.0 %
Extraction speed 2.3 X
Track quality 100.0 %
Test CRC 4CB7ED2F
Copy CRC 4CB7ED2F
Accurately ripped (confidence 2) [C98AFD72] (AR v2)
Copy OK

Track 19

Filename F:\Apollo Files\The Marvelous 3 - Ready Sex Go (2000) [320]\19 - Alleycat Scratch - Take a Bite Outta Me.wav

Pre-gap length 0:00:02.30

Peak level 100.0 %
Extraction speed 2.5 X
Track quality 100.0 %
Test CRC 36051F64
Copy CRC 36051F64
Accurately ripped (confidence 2) [2594601B] (AR v2)
Copy OK


All tracks accurately ripped

No errors occurred

End of status report

–– CUETools DB Plugin V2.1.6

[CTDB TOCID: zGi_jt2_.VxIi39PAHBVMsGFJ4g-] found
Submit result: already submitted
Track | CTDB Status
1 | (4/4) Accurately ripped
2 | (4/4) Accurately ripped
3 | (4/4) Accurately ripped
4 | (4/4) Accurately ripped
5 | (4/4) Accurately ripped
6 | (4/4) Accurately ripped
7 | (4/4) Accurately ripped
8 | (4/4) Accurately ripped
9 | (4/4) Accurately ripped
10 | (4/4) Accurately ripped
11 | (4/4) Accurately ripped
12 | (4/4) Accurately ripped
13 | (4/4) Accurately ripped
14 | (4/4) Accurately ripped
15 | (4/4) Accurately ripped
16 | (4/4) Accurately ripped
17 | (4/4) Accurately ripped
18 | (4/4) Accurately ripped
19 | (4/4) Accurately ripped


==== Log checksum 83981809D77F67522FB1F1F57DAC0FAFACEC793B616A16474D094F27D980684F ====