Tags
Language
Tags
April 2024
Su Mo Tu We Th Fr Sa
31 1 2 3 4 5 6
7 8 9 10 11 12 13
14 15 16 17 18 19 20
21 22 23 24 25 26 27
28 29 30 1 2 3 4

VA - 101 Soul Anthems (2011)

Posted By: Rtax
VA - 101 Soul Anthems (2011)

VA - 101 Soul Anthems (2011)
EAC Rip | FLAC (tracks, cue, log) - 2.4 GB | MP3 CBR 320 kbps - 889 MB
6:03:43 | Full Scans Included | Soul, R&B, Funk | Label: EMI / Rhino

From the '50s to the '80s there was one sound that was undeniably romantic, undeniably danceable and undeniably American. SOUL! It's roots grow deep in the church, but it's fruit bares none of the guilt. Joyful, exuberant, sometimes slow and passionate this 5-CD gives you 101 tunes from great artists such as Ben E. King, Aretha Franklin, the Drifters, Luther Vandross, Gladys Knight, Al Green, Smokey Robinson, Marvin Gaye and many, many more!

This 101-track, five-CD set collects an awful lot of soul sides and it’s difficult, really, to imagine any genuine soul classic that doesn’t appear here – this box has it covered, from Marvin Gaye (“I Heard It Through the Grapevine,” “Sexual Healing”) to Percy Sledge (“When a Man Loves a Woman”), Aretha Franklin (“Respect”), Sam & Dave (“Soul Man”), Booker T. & the MG’s (“Green Onions”), Ray Charles (“What’d I Say”), the Temptations (“Papa Was a Rolling Stone”), James Carr (“The Dark End of the Street”), and many, many others. There are a couple of curious choices, perhaps, like including the Doobie Brothers' “What a Fool Believes” or Dionne Warwick's “Walk on By,” but they still work as part of the playlist flow even if they aren’t exactly what one usually labels soul. Soul is as much an approach as it is a style, and there’s a treasure trove of soul here – by any definition.

Review by Steve Leggett

Tracklist
CD1
01. Marvin Gaye - Sexual Healing (3:59)
02. George Benson - Lady Love Me (One More Time) (4:00)
03. Luther Vandross - Never Too Much (3:50)
04. James Brown - Living In America (4:43)
05. Earth, Wind & Fire - September (3:34)
06. The Four Tops - Loco In Acapulco (4:32)
07. The Gap Band - Big Fun (4:02)
08. Ashford & Simpson - Solid (3:21)
09. The Jacksons - Show You The Way To Go (3:29)
10. Anita Baker - Sweet Love (4:27)
11. Grover Washington, Jr. Feat. Bill Withers - Just the Two Of Us (3:58)
12. Tina Turner - Private Dancer (4:04)
13. Percy Sledge - When A Man Loves A Woman (2:52)
14. Rose Royce - Love Don't Live Here Anymore (3:53)
15. Ben E. King - Stand By Me (2:58)
16. Freddie Jackson - Rock Me Tonight (For Old Time's Sake) (4:03)
17. Teddy Pendergrass - Love T.K.O (4:59)
18. D'Angelo - Brown Sugar (4:23)
19. Alicia Keys - Fallin' (3:17)
20. Seal - Kiss from A Rose (4:49)

CD2
01. Donny Hathaway - A Song For You (5:28)
02. Al Green - Let's Stay Together (4:42)
03. Rufus & Chaka Khan - Ain't Nobody (4:42)
04. Isaac Hayes - Theme From 'Shaft' (4:36)
05. Edwin Starr - War (3:18)
06. LaBelle - Lady Marmalade (3:55)
07. Jean Knight - Mr. Big Stuff (2:46)
08. The Detroit Spinners - Ghetto Child (3:45)
09. Clarence Carter - Patched (3:10)
10. Jimmy Ruffin - What Become Of The Brokenhearted (3:00)
11. Bobby Womack - California Dreamin' (3:20)
12. The Staple Singers - If You're Ready (Come Go with Me) (4:28)
13. The Fatback Band - I Found Lovin' (4:10)
14. Maze Feat. Frankie Beverly - Joy And Pain (4:33)
15. Betty Wright - Clean Up Woman (2:47)
16. Charles Wright & the Watts 103rd Street Rhythm Band - Express Yourself (3:51)
17. Timmy Thomas - Why Can't We Live Together (4:51)

CD3
01. Stevie Wonder - I Was Made To Love Her (2:33)
02. Aretha Franklin - Respect (2:24)
03. Sam & Dave - Soul Man (2:37)
04. Otis Redding - Hard To Handle (2:19)
05. Wilson Pickett - Mustang Sally (3:05)
06. Bob & Earl - Harlem Shuffle (2:51)
07. Doris Troy - What'Cha Gonna Do About It (1:44)
08. Irma Thomas - Time Is On My Side (2:51)
09. Joe Tex - Show Me (2:56)
10. Solomon Burke - Everybody Needs Somebody To Love (2:44)
11. Ike & Tina Turner - Proud Mary (4:58)
12. Jackie Wilson - (Your Love Keeps Lifting Me) Higher & Higher (2:58)
13. Archie Bell & The Drells - Here I Go Again (2:09)
14. The Beginning Of The End - Funky Nassau (3:12)
15. Booker T & The MG's - Green Onions (2:54)
16. Eddie Floyd - Knock On Wood (3:03)
17. Arthur Conley - Sweet Soul Music (2:22)
18. Garnet Mimms & The Enchanters - As Long As I Have You (2:43)
19. Smokey Robinson & The Miracles - Shop Arround (2:50)
20. Barrett Strong - Money (That's What I Want) (2:39)
21. Willie Tee - Walkin' Up A One Way Street (2:43)
22. Ray Charles - What'd I Say (6:27)
23. Timi Yuro - It'll Never Be Over for Me (2:56)
24. Ray Pollard - The Drifter (3:00)

CD4
01. Curtis Mayfield - Move on Up (3:42)
02. The Temptations - Papa Was A Rollin' Stone (6:53)
03. The O'Jays - Backstabbers (3:07)
04. The Delfonics - Ready Or Not Here I Come (Can't Hide From Love) (1:59)
05. Hot Chocolate - You Sexy Thing (4:01)
06. Chairmen Of The Board - (You Got Me) Danglin' On A String (2:57)
07. Billy Ocean - Red Light Spells Danger (3:30)
08. Tammi Lynn - I'm Gonna Run Away From You (2:47)
09. Gloria Jones - Tainted Love (2:38)
10. Al Wilson - The Snake (3:30)
11. The Isley Brothers - Harvest For The World (3:54)
12. The Doobie Brothers - What A Fool Believes (3:40)
13. Sly & The Family Stone - Family Affair (3:06)
14. Lou Rawls - Bring It On Home (3:22)
15. Tower of Power - So Very Hard To Go (3:40)
16. Harold Melvin & The Blue Notes - If You Don't Know Me By Now (3:22)
17. Gladys Knight & The Pips - Midnight Train To Georgia (4:41)
18. The Chi-Lites - It's Time For Love (5:06)
19. Major Harris - Love Won't Let Me Wait (5:31)
20. Barry White - I'm Gonna Love You Just A Little More Baby (7:10)

CD5
01. Otis Redding - (Sittin' On) The Dock Of The Bay (2:42)
02. Marvin Gaye - I Heard It Through The Grapevine (3:12)
03. Lorraine Ellison - Stay With Me Baby (3:29)
04. Aretha Franklin - (You Make Me Feel Like) A Natural Woman (2:44)
05. Dionne Warwick - Walk On By (2:52)
06. Randy Crawford - One Day I'll Fly Away (4:56)
07. Dusty Springfield - Son of A Preacher Man (2:25)
08. James Carr - The Dark End Of The Street (2:31)
09. Nina Simone - I Loves You, Porgy (4:03)
10. Minnie Riperton - Inside My Love (4:41)
11. Bill Withers - Ain't No Sunshine (2:03)
12. Hall & Oates - Sara Smile (3:08)
13. Heatwave - Always And Forever (4:49)
14. James Ingram - Baby Come To Me (3:36)
15. Baby Washington - That's How Heartaches Are Made (2:42)
16. Roberta Flack - Tonight I Celebrate My Love (3:29)
17. Larry Graham - One In A Million You (4:11)
18. Atlantic Starr - Always (4:48)
19. Joe Cocker - You Are So Beautiful (2:44)
20. The Drifters - Save The Last Dance For Me (2:29)
Exact Audio Copy V1.6 from 23. October 2020

EAC extraction logfile from 27. February 2024, 20:52

Various Artists / 101 Soul Anthems

Used drive : PLEXTOR PX-891SAF PLUS Adapter: 1 ID: 0

Read mode : Secure
Utilize accurate stream : Yes
Defeat audio cache : Yes
Make use of C2 pointers : No

Read offset correction : 6
Overread into Lead-In and Lead-Out : No
Fill up missing offset samples with silence : Yes
Delete leading and trailing silent blocks : No
Null samples used in CRC calculations : Yes
Used interface : Native Win32 interface for Win NT & 2000
Gap handling : Appended to previous track

Used output format : User Defined Encoder
Selected bitrate : 1024 kBit/s
Quality : High
Add ID3 tag : No
Command line compressor : C:\Program Files (x86)\Exact Audio Copy\Flac\flac.exe
Additional command line options : -0 -V -T "ARTIST=%artist%" -T "TITLE=%title%" -T "ALBUM=%albumtitle%" -T "DATE=%year%" -T "TRACKNUMBER=%tracknr%" -T "TOTALTRACKS=%numtracks%" -T "GENRE=%genre%" -T "COMMENT=%comment%" %source%


TOC of the extracted CD

Track | Start | Length | Start sector | End sector
––––––––––––––––––––––––––––-
1 | 0:00.00 | 3:59.28 | 0 | 17952
2 | 3:59.28 | 3:59.39 | 17953 | 35916
3 | 7:58.67 | 3:50.10 | 35917 | 53176
4 | 11:49.02 | 4:42.47 | 53177 | 74373
5 | 16:31.49 | 3:33.62 | 74374 | 90410
6 | 20:05.36 | 4:31.60 | 90411 | 110795
7 | 24:37.21 | 4:01.66 | 110796 | 128936
8 | 28:39.12 | 3:20.42 | 128937 | 143978
9 | 31:59.54 | 3:28.48 | 143979 | 159626
10 | 35:28.27 | 4:27.13 | 159627 | 179664
11 | 39:55.40 | 3:58.08 | 179665 | 197522
12 | 43:53.48 | 4:03.67 | 197523 | 215814
13 | 47:57.40 | 2:51.43 | 215815 | 228682
14 | 50:49.08 | 3:52.51 | 228683 | 246133
15 | 54:41.59 | 2:57.68 | 246134 | 259476
16 | 57:39.52 | 4:03.19 | 259477 | 277720
17 | 61:42.71 | 4:58.68 | 277721 | 300138
18 | 66:41.64 | 4:23.25 | 300139 | 319888
19 | 71:05.14 | 3:17.07 | 319889 | 334670
20 | 74:22.21 | 4:48.59 | 334671 | 356329


Track 1

Filename E:\Releases\VA - 101 Soul Anthems (5 CD 2011)[FLAC]\CD 1\01 - Marvin Gaye - Sexual Healing.wav

Pre-gap length 0:00:02.00

Peak level 88.1 %
Extraction speed 1.6 X
Track quality 99.9 %
Test CRC DC6F7E30
Copy CRC DC6F7E30
Accurately ripped (confidence 10) [C9248761] (AR v2)
Copy OK

Track 2

Filename E:\Releases\VA - 101 Soul Anthems (5 CD 2011)[FLAC]\CD 1\02 - George Benson - Lady Love Me (One More Time).wav

Pre-gap length 0:00:00.24

Peak level 99.4 %
Extraction speed 2.3 X
Track quality 100.0 %
Test CRC 38B3B122
Copy CRC 38B3B122
Accurately ripped (confidence 10) [129A80A3] (AR v2)
Copy OK

Track 3

Filename E:\Releases\VA - 101 Soul Anthems (5 CD 2011)[FLAC]\CD 1\03 - Luther Vandross - Never Too Much.wav

Pre-gap length 0:00:00.25

Peak level 98.7 %
Extraction speed 2.5 X
Track quality 100.0 %
Test CRC 34B10725
Copy CRC 34B10725
Accurately ripped (confidence 10) [D3A91E33] (AR v2)
Copy OK

Track 4

Filename E:\Releases\VA - 101 Soul Anthems (5 CD 2011)[FLAC]\CD 1\04 - James Brown - Living In America.wav

Pre-gap length 0:00:00.25

Peak level 90.5 %
Extraction speed 2.7 X
Track quality 100.0 %
Test CRC 88B5B918
Copy CRC 88B5B918
Accurately ripped (confidence 10) [FD4BBE23] (AR v2)
Copy OK

Track 5

Filename E:\Releases\VA - 101 Soul Anthems (5 CD 2011)[FLAC]\CD 1\05 - Earth, Wind & Fire - September.wav

Pre-gap length 0:00:00.25

Peak level 100.0 %
Extraction speed 2.8 X
Track quality 100.0 %
Test CRC E8A8B162
Copy CRC E8A8B162
Accurately ripped (confidence 11) [4BFC5304] (AR v2)
Copy OK

Track 6

Filename E:\Releases\VA - 101 Soul Anthems (5 CD 2011)[FLAC]\CD 1\06 - The Four Tops - Loco In Acapulco.wav

Pre-gap length 0:00:00.25

Peak level 88.3 %
Extraction speed 3.1 X
Track quality 100.0 %
Test CRC FC594B17
Copy CRC FC594B17
Accurately ripped (confidence 10) [BE29AEB6] (AR v2)
Copy OK

Track 7

Filename E:\Releases\VA - 101 Soul Anthems (5 CD 2011)[FLAC]\CD 1\07 - The Gap Band - Big Fun.wav

Pre-gap length 0:00:00.25

Peak level 86.3 %
Extraction speed 3.1 X
Track quality 100.0 %
Test CRC 3A76E144
Copy CRC 3A76E144
Accurately ripped (confidence 10) [E7FB2AD3] (AR v2)
Copy OK

Track 8

Filename E:\Releases\VA - 101 Soul Anthems (5 CD 2011)[FLAC]\CD 1\08 - Ashford & Simpson - Solid.wav

Pre-gap length 0:00:00.25

Peak level 78.8 %
Extraction speed 3.2 X
Track quality 100.0 %
Test CRC EB12D637
Copy CRC EB12D637
Accurately ripped (confidence 10) [BE8E99B1] (AR v2)
Copy OK

Track 9

Filename E:\Releases\VA - 101 Soul Anthems (5 CD 2011)[FLAC]\CD 1\09 - The Jacksons - Show You The Way To Go.wav

Pre-gap length 0:00:00.25

Peak level 92.8 %
Extraction speed 3.3 X
Track quality 100.0 %
Test CRC 2798B772
Copy CRC 2798B772
Accurately ripped (confidence 10) [BBF39ED9] (AR v2)
Copy OK

Track 10

Filename E:\Releases\VA - 101 Soul Anthems (5 CD 2011)[FLAC]\CD 1\10 - Anita Baker - Sweet Love.wav

Pre-gap length 0:00:00.25

Peak level 93.5 %
Extraction speed 3.6 X
Track quality 100.0 %
Test CRC D494DC49
Copy CRC D494DC49
Accurately ripped (confidence 10) [E4F924F3] (AR v2)
Copy OK

Track 11

Filename E:\Releases\VA - 101 Soul Anthems (5 CD 2011)[FLAC]\CD 1\11 - Grover Washington, Jr. Feat. Bill Withers - Just the Two Of Us.wav

Pre-gap length 0:00:00.25

Peak level 94.4 %
Extraction speed 3.7 X
Track quality 100.0 %
Test CRC E6A0BA1B
Copy CRC E6A0BA1B
Accurately ripped (confidence 10) [B0BF5DFC] (AR v2)
Copy OK

Track 12

Filename E:\Releases\VA - 101 Soul Anthems (5 CD 2011)[FLAC]\CD 1\12 - Tina Turner - Private Dancer.wav

Pre-gap length 0:00:00.25

Peak level 99.7 %
Extraction speed 3.8 X
Track quality 100.0 %
Test CRC 8E5BC01C
Copy CRC 8E5BC01C
Accurately ripped (confidence 10) [0E3CF5D6] (AR v2)
Copy OK

Track 13

Filename E:\Releases\VA - 101 Soul Anthems (5 CD 2011)[FLAC]\CD 1\13 - Percy Sledge - When A Man Loves A Woman.wav

Pre-gap length 0:00:00.25

Peak level 85.1 %
Extraction speed 3.7 X
Track quality 100.0 %
Test CRC 40C3E417
Copy CRC 40C3E417
Accurately ripped (confidence 10) [057D10EE] (AR v2)
Copy OK

Track 14

Filename E:\Releases\VA - 101 Soul Anthems (5 CD 2011)[FLAC]\CD 1\14 - Rose Royce - Love Don't Live Here Anymore.wav

Pre-gap length 0:00:00.25

Peak level 93.3 %
Extraction speed 3.9 X
Track quality 100.0 %
Test CRC AAEBD509
Copy CRC AAEBD509
Accurately ripped (confidence 10) [3F29D881] (AR v2)
Copy OK

Track 15

Filename E:\Releases\VA - 101 Soul Anthems (5 CD 2011)[FLAC]\CD 1\15 - Ben E. King - Stand By Me.wav

Pre-gap length 0:00:00.25

Peak level 83.6 %
Extraction speed 3.8 X
Track quality 100.0 %
Test CRC FC89A77A
Copy CRC FC89A77A
Accurately ripped (confidence 10) [211003AF] (AR v2)
Copy OK

Track 16

Filename E:\Releases\VA - 101 Soul Anthems (5 CD 2011)[FLAC]\CD 1\16 - Freddie Jackson - Rock Me Tonight (For Old Time's Sake).wav

Pre-gap length 0:00:00.25

Peak level 99.3 %
Extraction speed 4.1 X
Track quality 100.0 %
Test CRC 06887A5B
Copy CRC 06887A5B
Accurately ripped (confidence 10) [9DFE86BF] (AR v2)
Copy OK

Track 17

Filename E:\Releases\VA - 101 Soul Anthems (5 CD 2011)[FLAC]\CD 1\17 - Teddy Pendergrass - Love T.K.O.wav

Pre-gap length 0:00:00.25

Peak level 96.2 %
Extraction speed 4.4 X
Track quality 100.0 %
Test CRC 1F2937E8
Copy CRC 1F2937E8
Accurately ripped (confidence 10) [CBF64F1E] (AR v2)
Copy OK

Track 18

Filename E:\Releases\VA - 101 Soul Anthems (5 CD 2011)[FLAC]\CD 1\18 - D'Angelo - Brown Sugar.wav

Pre-gap length 0:00:00.25

Peak level 74.7 %
Extraction speed 4.3 X
Track quality 100.0 %
Test CRC 33A9326B
Copy CRC 33A9326B
Accurately ripped (confidence 10) [9FBBCC55] (AR v2)
Copy OK

Track 19

Filename E:\Releases\VA - 101 Soul Anthems (5 CD 2011)[FLAC]\CD 1\19 - Alicia Keys - Fallin'.wav

Pre-gap length 0:00:00.25

Peak level 98.0 %
Extraction speed 4.3 X
Track quality 100.0 %
Test CRC 715FF1DE
Copy CRC 715FF1DE
Accurately ripped (confidence 10) [5AC65059] (AR v2)
Copy OK

Track 20

Filename E:\Releases\VA - 101 Soul Anthems (5 CD 2011)[FLAC]\CD 1\20 - Seal - Kiss from A Rose.wav

Pre-gap length 0:00:00.25

Peak level 79.4 %
Extraction speed 4.6 X
Track quality 100.0 %
Test CRC 1D721DC5
Copy CRC 1D721DC5
Accurately ripped (confidence 10) [9F7C483A] (AR v2)
Copy OK


All tracks accurately ripped

No errors occurred

End of status report

==== Log checksum F785FEC5C255EAE392EEA9C5C77EA30ED4333B660C8F0C7AC707D9FCC5CE62E4 ====


Exact Audio Copy V1.6 from 23. October 2020

EAC extraction logfile from 27. February 2024, 21:52

Various Artists / 101 Soul Anthems

Used drive : PLEXTOR PX-891SAF PLUS Adapter: 1 ID: 0

Read mode : Secure
Utilize accurate stream : Yes
Defeat audio cache : Yes
Make use of C2 pointers : No

Read offset correction : 6
Overread into Lead-In and Lead-Out : No
Fill up missing offset samples with silence : Yes
Delete leading and trailing silent blocks : No
Null samples used in CRC calculations : Yes
Used interface : Native Win32 interface for Win NT & 2000
Gap handling : Appended to previous track

Used output format : User Defined Encoder
Selected bitrate : 1024 kBit/s
Quality : High
Add ID3 tag : No
Command line compressor : C:\Program Files (x86)\Exact Audio Copy\Flac\flac.exe
Additional command line options : -0 -V -T "ARTIST=%artist%" -T "TITLE=%title%" -T "ALBUM=%albumtitle%" -T "DATE=%year%" -T "TRACKNUMBER=%tracknr%" -T "TOTALTRACKS=%numtracks%" -T "GENRE=%genre%" -T "COMMENT=%comment%" %source%


TOC of the extracted CD

Track | Start | Length | Start sector | End sector
––––––––––––––––––––––––––––-
1 | 0:00.00 | 5:28.26 | 0 | 24625
2 | 5:28.26 | 4:42.07 | 24626 | 45782
3 | 10:10.33 | 4:41.56 | 45783 | 66913
4 | 14:52.14 | 4:35.38 | 66914 | 87576
5 | 19:27.52 | 3:17.57 | 87577 | 102408
6 | 22:45.34 | 3:55.08 | 102409 | 120041
7 | 26:40.42 | 2:45.53 | 120042 | 132469
8 | 29:26.20 | 3:45.25 | 132470 | 149369
9 | 33:11.45 | 3:09.74 | 149370 | 163618
10 | 36:21.44 | 2:59.62 | 163619 | 177105
11 | 39:21.31 | 3:19.38 | 177106 | 192068
12 | 42:40.69 | 4:28.03 | 192069 | 212171
13 | 47:08.72 | 4:09.41 | 212172 | 230887
14 | 51:18.38 | 4:32.40 | 230888 | 251327
15 | 55:51.03 | 2:46.61 | 251328 | 263838
16 | 58:37.64 | 3:50.47 | 263839 | 281135
17 | 62:28.36 | 4:50.58 | 281136 | 302943


Track 1

Filename E:\Releases\VA - 101 Soul Anthems (5 CD 2011)[FLAC]\CD 2\01 - Donny Hathaway - A Song For You.wav

Pre-gap length 0:00:02.00

Peak level 96.3 %
Extraction speed 1.7 X
Track quality 99.9 %
Test CRC AE5C0535
Copy CRC AE5C0535
Accurately ripped (confidence 10) [4B7D937E] (AR v2)
Copy OK

Track 2

Filename E:\Releases\VA - 101 Soul Anthems (5 CD 2011)[FLAC]\CD 2\02 - Al Green - Let's Stay Together.wav

Pre-gap length 0:00:02.25

Peak level 99.8 %
Extraction speed 2.3 X
Track quality 100.0 %
Test CRC 913DC053
Copy CRC 913DC053
Accurately ripped (confidence 10) [161F3099] (AR v2)
Copy OK

Track 3

Filename E:\Releases\VA - 101 Soul Anthems (5 CD 2011)[FLAC]\CD 2\03 - Rufus & Chaka Khan - Ain't Nobody.wav

Pre-gap length 0:00:00.25

Peak level 99.8 %
Extraction speed 2.5 X
Track quality 100.0 %
Test CRC FEB3BF2F
Copy CRC FEB3BF2F
Accurately ripped (confidence 10) [1C416D87] (AR v2)
Copy OK

Track 4

Filename E:\Releases\VA - 101 Soul Anthems (5 CD 2011)[FLAC]\CD 2\04 - Isaac Hayes - Theme From ''Shaft''.wav

Pre-gap length 0:00:00.25

Peak level 98.9 %
Extraction speed 2.8 X
Track quality 100.0 %
Test CRC 7B83058A
Copy CRC 7B83058A
Accurately ripped (confidence 10) [19EC64B9] (AR v2)
Copy OK

Track 5

Filename E:\Releases\VA - 101 Soul Anthems (5 CD 2011)[FLAC]\CD 2\05 - Edwin Starr - War.wav

Pre-gap length 0:00:00.25

Peak level 96.2 %
Extraction speed 2.8 X
Track quality 100.0 %
Test CRC 7741CBAE
Copy CRC 7741CBAE
Accurately ripped (confidence 10) [A58CE14E] (AR v2)
Copy OK

Track 6

Filename E:\Releases\VA - 101 Soul Anthems (5 CD 2011)[FLAC]\CD 2\06 - LaBelle - Lady Marmalade.wav

Pre-gap length 0:00:00.25

Peak level 96.8 %
Extraction speed 3.0 X
Track quality 100.0 %
Test CRC D6D24036
Copy CRC D6D24036
Accurately ripped (confidence 11) [502A71C4] (AR v2)
Copy OK

Track 7

Filename E:\Releases\VA - 101 Soul Anthems (5 CD 2011)[FLAC]\CD 2\07 - Jean Knight - Mr. Big Stuff.wav

Pre-gap length 0:00:00.25

Peak level 89.1 %
Extraction speed 2.9 X
Track quality 100.0 %
Test CRC F72CD5F9
Copy CRC F72CD5F9
Accurately ripped (confidence 10) [06ECF2FC] (AR v2)
Copy OK

Track 8

Filename E:\Releases\VA - 101 Soul Anthems (5 CD 2011)[FLAC]\CD 2\08 - The Detroit Spinners - Ghetto Child.wav

Pre-gap length 0:00:00.25

Peak level 97.4 %
Extraction speed 3.2 X
Track quality 100.0 %
Test CRC 5DC37E8E
Copy CRC 5DC37E8E
Accurately ripped (confidence 10) [B539F3F1] (AR v2)
Copy OK

Track 9

Filename E:\Releases\VA - 101 Soul Anthems (5 CD 2011)[FLAC]\CD 2\09 - Clarence Carter - Patched.wav

Pre-gap length 0:00:00.25

Peak level 99.8 %
Extraction speed 3.2 X
Track quality 100.0 %
Test CRC F35134E5
Copy CRC F35134E5
Accurately ripped (confidence 10) [22DDFA08] (AR v2)
Copy OK

Track 10

Filename E:\Releases\VA - 101 Soul Anthems (5 CD 2011)[FLAC]\CD 2\10 - Jimmy Ruffin - What Become Of The Brokenhearted.wav

Pre-gap length 0:00:00.25

Peak level 89.9 %
Extraction speed 3.3 X
Track quality 100.0 %
Test CRC 65274778
Copy CRC 65274778
Accurately ripped (confidence 11) [5CBEC940] (AR v2)
Copy OK

Track 11

Filename E:\Releases\VA - 101 Soul Anthems (5 CD 2011)[FLAC]\CD 2\11 - Bobby Womack - California Dreamin'.wav

Pre-gap length 0:00:00.25

Peak level 87.2 %
Extraction speed 2.4 X
Track quality 99.9 %
Test CRC 23098AA7
Copy CRC 23098AA7
Accurately ripped (confidence 10) [F15A4114] (AR v2)
Copy OK

Track 12

Filename E:\Releases\VA - 101 Soul Anthems (5 CD 2011)[FLAC]\CD 2\12 - The Staple Singers - If You're Ready (Come Go with Me).wav

Pre-gap length 0:00:00.25

Peak level 94.2 %
Extraction speed 3.7 X
Track quality 100.0 %
Test CRC 0F695A28
Copy CRC 0F695A28
Accurately ripped (confidence 10) [48F22632] (AR v2)
Copy OK

Track 13

Filename E:\Releases\VA - 101 Soul Anthems (5 CD 2011)[FLAC]\CD 2\13 - The Fatback Band - I Found Lovin'.wav

Peak level 79.1 %
Extraction speed 3.8 X
Track quality 100.0 %
Test CRC 7BB69263
Copy CRC 7BB69263
Accurately ripped (confidence 10) [44BA7D8D] (AR v2)
Copy OK

Track 14

Filename E:\Releases\VA - 101 Soul Anthems (5 CD 2011)[FLAC]\CD 2\14 - Maze Feat. Frankie Beverly - Joy And Pain.wav

Pre-gap length 0:00:00.24

Peak level 81.4 %
Extraction speed 4.0 X
Track quality 100.0 %
Test CRC 6FAED3A5
Copy CRC 6FAED3A5
Accurately ripped (confidence 10) [F7FA3E67] (AR v2)
Copy OK

Track 15

Filename E:\Releases\VA - 101 Soul Anthems (5 CD 2011)[FLAC]\CD 2\15 - Betty Wright - Clean Up Woman.wav

Pre-gap length 0:00:00.25

Peak level 98.6 %
Extraction speed 3.7 X
Track quality 100.0 %
Test CRC 4AB29067
Copy CRC 4AB29067
Accurately ripped (confidence 9) [047271B8] (AR v2)
Copy OK

Track 16

Filename E:\Releases\VA - 101 Soul Anthems (5 CD 2011)[FLAC]\CD 2\16 - Charles Wright & the Watts 103rd Street Rhythm Band - Express Yourself.wav

Pre-gap length 0:00:00.25

Peak level 94.4 %
Extraction speed 4.1 X
Track quality 100.0 %
Test CRC F1BCA326
Copy CRC F1BCA326
Accurately ripped (confidence 10) [76E8D01D] (AR v2)
Copy OK

Track 17

Filename E:\Releases\VA - 101 Soul Anthems (5 CD 2011)[FLAC]\CD 2\17 - Timmy Thomas - Why Can't We Live Together.wav

Pre-gap length 0:00:00.25

Peak level 67.3 %
Extraction speed 4.3 X
Track quality 100.0 %
Test CRC 6DB4EF01
Copy CRC 6DB4EF01
Accurately ripped (confidence 9) [7AE3FF22] (AR v2)
Copy OK


All tracks accurately ripped

No errors occurred

End of status report

==== Log checksum 9B594915F405AF41ABFCDC241A6AEFAE8762F7E369CA77D3FC94BBE71F4A63D6 ====


Exact Audio Copy V1.6 from 23. October 2020

EAC extraction logfile from 27. February 2024, 23:57

Various Artists / 101 Soul Anthems

Used drive : PLEXTOR PX-891SAF PLUS Adapter: 1 ID: 0

Read mode : Secure
Utilize accurate stream : Yes
Defeat audio cache : Yes
Make use of C2 pointers : No

Read offset correction : 6
Overread into Lead-In and Lead-Out : No
Fill up missing offset samples with silence : Yes
Delete leading and trailing silent blocks : No
Null samples used in CRC calculations : Yes
Used interface : Native Win32 interface for Win NT & 2000
Gap handling : Appended to previous track

Used output format : User Defined Encoder
Selected bitrate : 1024 kBit/s
Quality : High
Add ID3 tag : No
Command line compressor : C:\Program Files (x86)\Exact Audio Copy\Flac\flac.exe
Additional command line options : -0 -V -T "ARTIST=%artist%" -T "TITLE=%title%" -T "ALBUM=%albumtitle%" -T "DATE=%year%" -T "TRACKNUMBER=%tracknr%" -T "TOTALTRACKS=%numtracks%" -T "GENRE=%genre%" -T "COMMENT=%comment%" %source%


TOC of the extracted CD

Track | Start | Length | Start sector | End sector
––––––––––––––––––––––––––––-
1 | 0:00.00 | 2:32.55 | 0 | 11454
2 | 2:32.55 | 2:24.15 | 11455 | 22269
3 | 4:56.70 | 2:36.49 | 22270 | 34018
4 | 7:33.44 | 2:18.40 | 34019 | 44408
5 | 9:52.09 | 3:05.18 | 44409 | 58301
6 | 12:57.27 | 2:50.45 | 58302 | 71096
7 | 15:47.72 | 1:44.09 | 71097 | 78905
8 | 17:32.06 | 2:50.41 | 78906 | 91696
9 | 20:22.47 | 2:55.58 | 91697 | 104879
10 | 23:18.30 | 2:44.10 | 104880 | 117189
11 | 26:02.40 | 4:58.30 | 117190 | 139569
12 | 31:00.70 | 2:57.49 | 139570 | 152893
13 | 33:58.44 | 2:09.06 | 152894 | 162574
14 | 36:07.50 | 3:12.15 | 162575 | 176989
15 | 39:19.65 | 2:53.39 | 176990 | 190003
16 | 42:13.29 | 3:03.23 | 190004 | 203751
17 | 45:16.52 | 2:21.51 | 203752 | 214377
18 | 47:38.28 | 2:42.67 | 214378 | 226594
19 | 50:21.20 | 2:49.58 | 226595 | 239327
20 | 53:11.03 | 2:38.67 | 239328 | 251244
21 | 55:49.70 | 2:42.48 | 251245 | 263442
22 | 58:32.43 | 6:26.39 | 263443 | 292431
23 | 64:59.07 | 2:56.13 | 292432 | 305644
24 | 67:55.20 | 2:59.58 | 305645 | 319127


Track 1

Filename E:\Releases\VA - 101 Soul Anthems (5 CD 2011)[FLAC]\CD 3\01 - Stevie Wonder - I Was Made To Love Her.wav

Pre-gap length 0:00:02.00

Peak level 87.6 %
Extraction speed 1.2 X
Track quality 99.9 %
Test CRC C7CBF9E7
Copy CRC C7CBF9E7
Accurately ripped (confidence 10) [4C1296C0] (AR v2)
Copy OK

Track 2

Filename E:\Releases\VA - 101 Soul Anthems (5 CD 2011)[FLAC]\CD 3\02 - Aretha Franklin - Respect.wav

Pre-gap length 0:00:00.25

Peak level 94.6 %
Extraction speed 1.9 X
Track quality 100.0 %
Test CRC 306D6B34
Copy CRC 306D6B34
Accurately ripped (confidence 11) [79565679] (AR v2)
Copy OK

Track 3

Filename E:\Releases\VA - 101 Soul Anthems (5 CD 2011)[FLAC]\CD 3\03 - Sam & Dave - Soul Man.wav

Pre-gap length 0:00:00.25

Peak level 100.0 %
Extraction speed 2.0 X
Track quality 100.0 %
Test CRC D03474FD
Copy CRC D03474FD
Accurately ripped (confidence 10) [4F87CFF5] (AR v2)
Copy OK

Track 4

Filename E:\Releases\VA - 101 Soul Anthems (5 CD 2011)[FLAC]\CD 3\04 - Otis Redding - Hard To Handle.wav

Pre-gap length 0:00:00.25

Peak level 81.6 %
Extraction speed 2.1 X
Track quality 100.0 %
Test CRC B893B8E6
Copy CRC B893B8E6
Accurately ripped (confidence 10) [76D2DACB] (AR v2)
Copy OK

Track 5

Filename E:\Releases\VA - 101 Soul Anthems (5 CD 2011)[FLAC]\CD 3\05 - Wilson Pickett - Mustang Sally.wav

Pre-gap length 0:00:00.25

Peak level 95.9 %
Extraction speed 1.6 X
Track quality 99.9 %
Test CRC 3A8641DC
Copy CRC 3A8641DC
Accurately ripped (confidence 10) [F75D4F4B] (AR v2)
Copy OK

Track 6

Filename E:\Releases\VA - 101 Soul Anthems (5 CD 2011)[FLAC]\CD 3\06 - Bob & Earl - Harlem Shuffle.wav

Pre-gap length 0:00:00.25

Peak level 100.0 %
Extraction speed 2.4 X
Track quality 100.0 %
Test CRC DE0E7FE1
Copy CRC DE0E7FE1
Accurately ripped (confidence 10) [0C00734F] (AR v2)
Copy OK

Track 7

Filename E:\Releases\VA - 101 Soul Anthems (5 CD 2011)[FLAC]\CD 3\07 - Doris Troy - What'Cha Gonna Do About It.wav

Pre-gap length 0:00:00.25

Peak level 81.6 %
Extraction speed 2.3 X
Track quality 100.0 %
Test CRC 5261B859
Copy CRC 5261B859
Accurately ripped (confidence 10) [9B153E0C] (AR v2)
Copy OK

Track 8

Filename E:\Releases\VA - 101 Soul Anthems (5 CD 2011)[FLAC]\CD 3\08 - Irma Thomas - Time Is On My Side.wav

Pre-gap length 0:00:00.25

Peak level 97.1 %
Extraction speed 2.6 X
Track quality 100.0 %
Test CRC 8691444A
Copy CRC 8691444A
Accurately ripped (confidence 10) [C52F591D] (AR v2)
Copy OK

Track 9

Filename E:\Releases\VA - 101 Soul Anthems (5 CD 2011)[FLAC]\CD 3\09 - Joe Tex - Show Me.wav

Pre-gap length 0:00:00.25

Peak level 98.8 %
Extraction speed 2.7 X
Track quality 100.0 %
Test CRC 955477C3
Copy CRC 955477C3
Accurately ripped (confidence 10) [3CC9C6DF] (AR v2)
Copy OK

Track 10

Filename E:\Releases\VA - 101 Soul Anthems (5 CD 2011)[FLAC]\CD 3\10 - Solomon Burke - Everybody Needs Somebody To Love.wav

Pre-gap length 0:00:00.25

Peak level 87.8 %
Extraction speed 2.8 X
Track quality 100.0 %
Test CRC 5E5AD940
Copy CRC 5E5AD940
Accurately ripped (confidence 10) [220814AB] (AR v2)
Copy OK

Track 11

Filename E:\Releases\VA - 101 Soul Anthems (5 CD 2011)[FLAC]\CD 3\11 - Ike & Tina Turner - Proud Mary.wav

Pre-gap length 0:00:00.25

Peak level 99.8 %
Extraction speed 3.2 X
Track quality 100.0 %
Test CRC 27564CB7
Copy CRC 27564CB7
Accurately ripped (confidence 10) [27C9534B] (AR v2)
Copy OK

Track 12

Filename E:\Releases\VA - 101 Soul Anthems (5 CD 2011)[FLAC]\CD 3\12 - Jackie Wilson - (Your Love Keeps Lifting Me) Higher & Higher.wav

Pre-gap length 0:00:00.25

Peak level 98.5 %
Extraction speed 3.1 X
Track quality 100.0 %
Test CRC 07293D8A
Copy CRC 07293D8A
Accurately ripped (confidence 10) [972D06C2] (AR v2)
Copy OK

Track 13

Filename E:\Releases\VA - 101 Soul Anthems (5 CD 2011)[FLAC]\CD 3\13 - Archie Bell & The Drells - Here I Go Again.wav

Pre-gap length 0:00:00.25

Peak level 96.8 %
Extraction speed 3.0 X
Track quality 100.0 %
Test CRC 7D9877AB
Copy CRC 7D9877AB
Accurately ripped (confidence 10) [45DE0EE2] (AR v2)
Copy OK

Track 14

Filename E:\Releases\VA - 101 Soul Anthems (5 CD 2011)[FLAC]\CD 3\14 - The Beginning Of The End - Funky Nassau.wav

Pre-gap length 0:00:00.24

Peak level 97.2 %
Extraction speed 2.3 X
Track quality 99.9 %
Test CRC 153DF8EE
Copy CRC 153DF8EE
Accurately ripped (confidence 10) [7427A432] (AR v2)
Copy OK

Track 15

Filename E:\Releases\VA - 101 Soul Anthems (5 CD 2011)[FLAC]\CD 3\15 - Booker T & The MG's - Green Onions.wav

Pre-gap length 0:00:00.25

Peak level 100.0 %
Extraction speed 3.3 X
Track quality 100.0 %
Test CRC A8CAE85B
Copy CRC A8CAE85B
Accurately ripped (confidence 10) [1A538D4A] (AR v2)
Copy OK

Track 16

Filename E:\Releases\VA - 101 Soul Anthems (5 CD 2011)[FLAC]\CD 3\16 - Eddie Floyd - Knock On Wood.wav

Pre-gap length 0:00:00.25

Peak level 97.0 %
Extraction speed 3.5 X
Track quality 100.0 %
Test CRC 12126D21
Copy CRC 12126D21
Accurately ripped (confidence 10) [EECECF1F] (AR v2)
Copy OK

Track 17

Filename E:\Releases\VA - 101 Soul Anthems (5 CD 2011)[FLAC]\CD 3\17 - Arthur Conley - Sweet Soul Music.wav

Pre-gap length 0:00:00.25

Peak level 96.0 %
Extraction speed 3.4 X
Track quality 100.0 %
Test CRC 91A47B4F
Copy CRC 91A47B4F
Accurately ripped (confidence 10) [290A2937] (AR v2)
Copy OK

Track 18

Filename E:\Releases\VA - 101 Soul Anthems (5 CD 2011)[FLAC]\CD 3\18 - Garnet Mimms & The Enchanters - As Long As I Have You.wav

Pre-gap length 0:00:01.25

Peak level 100.0 %
Extraction speed 3.5 X
Track quality 100.0 %
Test CRC 67824E4F
Copy CRC 67824E4F
Accurately ripped (confidence 10) [132366AC] (AR v2)
Copy OK

Track 19

Filename E:\Releases\VA - 101 Soul Anthems (5 CD 2011)[FLAC]\CD 3\19 - Smokey Robinson & The Miracles - Shop Arround.wav

Pre-gap length 0:00:00.25

Peak level 94.4 %
Extraction speed 3.6 X
Track quality 100.0 %
Test CRC 66426DD1
Copy CRC 66426DD1
Accurately ripped (confidence 10) [5D62DF60] (AR v2)
Copy OK

Track 20

Filename E:\Releases\VA - 101 Soul Anthems (5 CD 2011)[FLAC]\CD 3\20 - Barrett Strong - Money (That's What I Want).wav

Pre-gap length 0:00:00.25

Peak level 90.1 %
Extraction speed 3.6 X
Track quality 100.0 %
Test CRC A37BE474
Copy CRC A37BE474
Accurately ripped (confidence 10) [44BEB7FC] (AR v2)
Copy OK

Track 21

Filename E:\Releases\VA - 101 Soul Anthems (5 CD 2011)[FLAC]\CD 3\21 - Willie Tee - Walkin' Up A One Way Street.wav

Pre-gap length 0:00:01.25

Peak level 87.4 %
Extraction speed 2.5 X
Track quality 99.9 %
Test CRC 476F2C12
Copy CRC 476F2C12
Accurately ripped (confidence 10) [65E7C540] (AR v2)
Copy OK

Track 22

Filename E:\Releases\VA - 101 Soul Anthems (5 CD 2011)[FLAC]\CD 3\22 - Ray Charles - What'd I Say.wav

Pre-gap length 0:00:01.25

Peak level 98.8 %
Extraction speed 4.2 X
Track quality 100.0 %
Test CRC ECA83720
Copy CRC ECA83720
Accurately ripped (confidence 9) [EC27A4BA] (AR v2)
Copy OK

Track 23

Filename E:\Releases\VA - 101 Soul Anthems (5 CD 2011)[FLAC]\CD 3\23 - Timi Yuro - It'll Never Be Over for Me.wav

Pre-gap length 0:00:00.25

Peak level 91.6 %
Extraction speed 4.0 X
Track quality 100.0 %
Test CRC 24A20FE5
Copy CRC 24A20FE5
Accurately ripped (confidence 9) [EBE21084] (AR v2)
Copy OK

Track 24

Filename E:\Releases\VA - 101 Soul Anthems (5 CD 2011)[FLAC]\CD 3\24 - Ray Pollard - The Drifter.wav

Pre-gap length 0:00:00.25

Peak level 98.5 %
Extraction speed 4.0 X
Track quality 100.0 %
Test CRC 9D79A027
Copy CRC 9D79A027
Accurately ripped (confidence 9) [ECDCD414] (AR v2)
Copy OK


All tracks accurately ripped

No errors occurred

End of status report

==== Log checksum 5052F3AC4840FC65302BA82919DBD1F9BD583D241F6FD50EAA20F65C605C7D9A ====


Exact Audio Copy V1.6 from 23. October 2020

EAC extraction logfile from 1. March 2024, 19:59

Various Artists / 101 Soul Anthems

Used drive : PLEXTOR PX-891SAF PLUS Adapter: 1 ID: 0

Read mode : Secure
Utilize accurate stream : Yes
Defeat audio cache : Yes
Make use of C2 pointers : No

Read offset correction : 6
Overread into Lead-In and Lead-Out : No
Fill up missing offset samples with silence : Yes
Delete leading and trailing silent blocks : No
Null samples used in CRC calculations : Yes
Used interface : Native Win32 interface for Win NT & 2000
Gap handling : Appended to previous track

Used output format : User Defined Encoder
Selected bitrate : 1024 kBit/s
Quality : High
Add ID3 tag : No
Command line compressor : C:\Program Files (x86)\Exact Audio Copy\Flac\flac.exe
Additional command line options : -0 -V -T "ARTIST=%artist%" -T "TITLE=%title%" -T "ALBUM=%albumtitle%" -T "DATE=%year%" -T "TRACKNUMBER=%tracknr%" -T "TOTALTRACKS=%numtracks%" -T "GENRE=%genre%" -T "COMMENT=%comment%" %source%


TOC of the extracted CD

Track | Start | Length | Start sector | End sector
––––––––––––––––––––––––––––-
1 | 0:00.00 | 2:42.23 | 0 | 12172
2 | 2:42.23 | 3:12.30 | 12173 | 26602
3 | 5:54.53 | 3:28.66 | 26603 | 42268
4 | 9:23.44 | 2:44.15 | 42269 | 54583
5 | 12:07.59 | 2:52.14 | 54584 | 67497
6 | 14:59.73 | 4:55.41 | 67498 | 89663
7 | 19:55.39 | 2:24.60 | 89664 | 100523
8 | 22:20.24 | 2:31.10 | 100524 | 111858
9 | 24:51.34 | 4:03.06 | 111859 | 130089
10 | 28:54.40 | 4:40.72 | 130090 | 151161
11 | 33:35.37 | 2:03.10 | 151162 | 160396
12 | 35:38.47 | 3:08.35 | 160397 | 174531
13 | 38:47.07 | 4:49.34 | 174532 | 196240
14 | 43:36.41 | 3:36.07 | 196241 | 212447
15 | 47:12.48 | 2:42.37 | 212448 | 224634
16 | 49:55.10 | 3:29.26 | 224635 | 240335
17 | 53:24.36 | 4:10.54 | 240336 | 259139
18 | 57:35.15 | 4:47.40 | 259140 | 280704
19 | 62:22.55 | 2:44.31 | 280705 | 293035
20 | 65:07.11 | 2:29.21 | 293036 | 304231


Track 1

Filename E:\Releases\VA - 101 Soul Anthems (5 CD 2011)[FLAC]\CD 5\01 - Otis Redding - (Sittin' On) The Dock Of The Bay.wav

Pre-gap length 0:00:02.00

Peak level 93.6 %
Extraction speed 1.3 X
Track quality 99.9 %
Test CRC DC6F7647
Copy CRC DC6F7647
Accurately ripped (confidence 10) [863EC3B3] (AR v2)
Copy OK

Track 2

Filename E:\Releases\VA - 101 Soul Anthems (5 CD 2011)[FLAC]\CD 5\02 - Marvin Gaye - I Heard It Through The Grapevine.wav

Pre-gap length 0:00:00.25

Peak level 82.1 %
Extraction speed 2.2 X
Track quality 100.0 %
Test CRC B4665030
Copy CRC B4665030
Accurately ripped (confidence 10) [1DF233EE] (AR v2)
Copy OK

Track 3

Filename E:\Releases\VA - 101 Soul Anthems (5 CD 2011)[FLAC]\CD 5\03 - Lorraine Ellison - Stay With Me Baby.wav

Pre-gap length 0:00:00.25

Peak level 99.8 %
Extraction speed 2.3 X
Track quality 100.0 %
Test CRC E3E43AB7
Copy CRC E3E43AB7
Accurately ripped (confidence 10) [6F1734BE] (AR v2)
Copy OK

Track 4

Filename E:\Releases\VA - 101 Soul Anthems (5 CD 2011)[FLAC]\CD 5\04 - Aretha Franklin - (You Make Me Feel Like) A Natural Woman.wav

Pre-gap length 0:00:00.25

Peak level 98.8 %
Extraction speed 2.4 X
Track quality 100.0 %
Test CRC 295D0BF0
Copy CRC 295D0BF0
Accurately ripped (confidence 11) [D4035B2D] (AR v2)
Copy OK

Track 5

Filename E:\Releases\VA - 101 Soul Anthems (5 CD 2011)[FLAC]\CD 5\05 - Dionne Warwick - Walk On By.wav

Pre-gap length 0:00:00.25

Peak level 96.4 %
Extraction speed 2.5 X
Track quality 100.0 %
Test CRC 1FA590B9
Copy CRC 1FA590B9
Accurately ripped (confidence 10) [71F0A463] (AR v2)
Copy OK

Track 6

Filename E:\Releases\VA - 101 Soul Anthems (5 CD 2011)[FLAC]\CD 5\06 - Randy Crawford - One Day I'll Fly Away.wav

Pre-gap length 0:00:00.25

Peak level 99.8 %
Extraction speed 2.9 X
Track quality 100.0 %
Test CRC 7CFA119E
Copy CRC 7CFA119E
Accurately ripped (confidence 11) [870C2C19] (AR v2)
Copy OK

Track 7

Filename E:\Releases\VA - 101 Soul Anthems (5 CD 2011)[FLAC]\CD 5\07 - Dusty Springfield - Son of A Preacher Man.wav

Pre-gap length 0:00:00.25

Peak level 98.0 %
Extraction speed 2.7 X
Track quality 100.0 %
Test CRC 86261D55
Copy CRC 86261D55
Accurately ripped (confidence 10) [64A10204] (AR v2)
Copy OK

Track 8

Filename E:\Releases\VA - 101 Soul Anthems (5 CD 2011)[FLAC]\CD 5\08 - James Carr - The Dark End Of The Street.wav

Pre-gap length 0:00:00.25

Peak level 96.8 %
Extraction speed 2.8 X
Track quality 100.0 %
Test CRC 2F223179
Copy CRC 2F223179
Accurately ripped (confidence 10) [D44ACDAC] (AR v2)
Copy OK

Track 9

Filename E:\Releases\VA - 101 Soul Anthems (5 CD 2011)[FLAC]\CD 5\09 - Nina Simone - I Loves You, Porgy.wav

Pre-gap length 0:00:00.25

Peak level 74.5 %
Extraction speed 3.2 X
Track quality 100.0 %
Test CRC D9E4FFE9
Copy CRC D9E4FFE9
Accurately ripped (confidence 10) [32AD51DB] (AR v2)
Copy OK

Track 10

Filename E:\Releases\VA - 101 Soul Anthems (5 CD 2011)[FLAC]\CD 5\10 - Minnie Riperton - Inside My Love.wav

Pre-gap length 0:00:00.25

Peak level 98.0 %
Extraction speed 3.4 X
Track quality 100.0 %
Test CRC AF7B8911
Copy CRC AF7B8911
Accurately ripped (confidence 10) [64DAC69E] (AR v2)
Copy OK

Track 11

Filename E:\Releases\VA - 101 Soul Anthems (5 CD 2011)[FLAC]\CD 5\11 - Bill Withers - Ain't No Sunshine.wav

Pre-gap length 0:00:00.25

Peak level 98.0 %
Extraction speed 1.9 X
Track quality 99.9 %
Test CRC 3A50A518
Copy CRC 3A50A518
Accurately ripped (confidence 10) [86D03C6E] (AR v2)
Copy OK

Track 12

Filename E:\Releases\VA - 101 Soul Anthems (5 CD 2011)[FLAC]\CD 5\12 - Hall & Oates - Sara Smile.wav

Pre-gap length 0:00:00.25

Peak level 99.9 %
Extraction speed 3.4 X
Track quality 100.0 %
Test CRC C95A0914
Copy CRC C95A0914
Accurately ripped (confidence 10) [3B784B40] (AR v2)
Copy OK

Track 13

Filename E:\Releases\VA - 101 Soul Anthems (5 CD 2011)[FLAC]\CD 5\13 - Heatwave - Always And Forever.wav

Pre-gap length 0:00:00.25

Peak level 88.0 %
Extraction speed 3.7 X
Track quality 100.0 %
Test CRC 2F5B94DC
Copy CRC 2F5B94DC
Accurately ripped (confidence 10) [075DF1C1] (AR v2)
Copy OK

Track 14

Filename E:\Releases\VA - 101 Soul Anthems (5 CD 2011)[FLAC]\CD 5\14 - James Ingram - Baby Come To Me.wav

Pre-gap length 0:00:00.25

Peak level 97.2 %
Extraction speed 2.6 X
Track quality 99.9 %
Test CRC 6D10409E
Copy CRC 6D10409E
Accurately ripped (confidence 10) [65FABA22] (AR v2)
Copy OK

Track 15

Filename E:\Releases\VA - 101 Soul Anthems (5 CD 2011)[FLAC]\CD 5\15 - Baby Washington - That's How Heartaches Are Made.wav

Pre-gap length 0:00:00.25

Peak level 97.1 %
Extraction speed 3.6 X
Track quality 100.0 %
Test CRC 59B1B5CB
Copy CRC 59B1B5CB
Accurately ripped (confidence 10) [475D0916] (AR v2)
Copy OK

Track 16

Filename E:\Releases\VA - 101 Soul Anthems (5 CD 2011)[FLAC]\CD 5\16 - Roberta Flack - Tonight I Celebrate My Love.wav

Pre-gap length 0:00:00.25

Peak level 98.0 %
Extraction speed 3.8 X
Track quality 100.0 %
Test CRC F5EDE4B7
Copy CRC F5EDE4B7
Accurately ripped (confidence 10) [4B8426EA] (AR v2)
Copy OK

Track 17

Filename E:\Releases\VA - 101 Soul Anthems (5 CD 2011)[FLAC]\CD 5\17 - Larry Graham - One In A Million You.wav

Pre-gap length 0:00:00.25

Peak level 100.0 %
Extraction speed 4.0 X
Track quality 100.0 %
Test CRC 8CC27BAB
Copy CRC 8CC27BAB
Accurately ripped (confidence 9) [F21C0EF7] (AR v2)
Copy OK

Track 18

Filename E:\Releases\VA - 101 Soul Anthems (5 CD 2011)[FLAC]\CD 5\18 - Atlantic Starr - Always.wav

Pre-gap length 0:00:00.24

Peak level 77.5 %
Extraction speed 4.2 X
Track quality 100.0 %
Test CRC 9D494AA0
Copy CRC 9D494AA0
Accurately ripped (confidence 9) [9DB789FB] (AR v2)
Copy OK

Track 19

Filename E:\Releases\VA - 101 Soul Anthems (5 CD 2011)[FLAC]\CD 5\19 - Joe Cocker - You Are So Beautiful.wav

Pre-gap length 0:00:00.25

Peak level 99.5 %
Extraction speed 4.0 X
Track quality 100.0 %
Test CRC 1C675428
Copy CRC 1C675428
Cannot be verified as accurate (confidence 10) [E3451C6C], AccurateRip returned [5B57433D] (AR v2)
Copy OK

Track 20

Filename E:\Releases\VA - 101 Soul Anthems (5 CD 2011)[FLAC]\CD 5\20 - The Drifters - Save The Last Dance For Me.wav

Pre-gap length 0:00:00.25

Peak level 96.8 %
Extraction speed 3.9 X
Track quality 100.0 %
Test CRC 468FB046
Copy CRC 468FB046
Accurately ripped (confidence 8) [61425E9B] (AR v2)
Copy OK


19 track(s) accurately ripped
1 track(s) could not be verified as accurate

Some tracks could not be verified as accurate

No errors occurred

End of status report

==== Log checksum 291767EDAB9A01440686F7D7C7E17B55E9A21100E8CD042C1D2A4F202F63149F ====