Tags
Language
Tags
March 2024
Su Mo Tu We Th Fr Sa
25 26 27 28 29 1 2
3 4 5 6 7 8 9
10 11 12 13 14 15 16
17 18 19 20 21 22 23
24 25 26 27 28 29 30
31 1 2 3 4 5 6

The Dear Hunter - Migrant (Vinyl Reissue) (2013/2020) [24bit/192kHz]

Posted By: delpotro
The Dear Hunter - Migrant (Vinyl Reissue) (2013/2020) [24bit/192kHz]

The Dear Hunter - Migrant (Vinyl Reissue) (2013/2020)
Vinyl Rip | FLAC (tracks) 24-bit/192 kHz | Time - 50:03 minutes | 1,97 GB | Artwork - 142 MB
Progressive Rock | Label: Equal Vision Records

Vinyl LP pressing. 2013 release, the fifth album from this Indie band led by Casey Crescenzo, formerly of Post-Hardcore outfit The Receiving End Of Sirens. The Dear Hunter recorded Migrant earlier this year at Vu Du Studios in Long Island, NY with producer Mike Watts, after almost two years supporting their critically acclaimed 36-track collection: The Color Spectrum. Prior to The Color Spectrum, The Dear Hunter also embarked on another concept project - a six album series chronicling the story of a boy at the turn of the century only referred to as The Dear Hunter (Acts I - III currently released). While Migrant takes a departure from the band's previous use of an overarching concept, it remains true to their signature grandiose sound, fueled by Crescenzo's soulful vocals.

Tracklist:
1. Bring You Down (04:24)
2. Whisper (03:59)
3. Shame (04:04)
4. An Escape (03:38)
5. Shouting at the Rain (04:16)
6. The Kiss of Life (04:46)
7. Girl (03:04)
8. Cycles (04:33)
9. Sweet Naiveté (04:32)
10. Let Go (03:40)
11. This Vicious Place (04:40)
12. Don’t Look Back (04:42)

foobar2000 1.4.1 / Dynamic Range Meter 1.1.1
log date: 2021-06-02 21:03:48

––––––––––––––––––––––––––––––––––––––––
Analyzed: The Dear Hunter / Migrant
––––––––––––––––––––––––––––––––––––––––

DR Peak RMS Duration Track
––––––––––––––––––––––––––––––––––––––––
DR8 -0.18 dB -10.81 dB 4:23 01-Bring You Down
DR7 -0.47 dB -9.66 dB 3:59 02-Whisper
DR7 -1.16 dB -10.97 dB 4:02 03-Shame
DR7 -0.10 dB -9.60 dB 3:38 04-An Escape
DR7 -0.62 dB -9.86 dB 4:15 05-Shouting at the Rain
DR7 -0.10 dB -9.47 dB 4:42 06-The Kiss of Life
DR8 -0.10 dB -10.43 dB 3:02 07-Girl
DR8 -0.88 dB -12.21 dB 4:32 08-Cycles
DR8 -1.71 dB -11.60 dB 4:31 09-Sweet Naiveté
DR7 -0.29 dB -10.17 dB 3:39 10-Let Go
DR7 -1.88 dB -11.72 dB 4:38 11-This Vicious Place
DR8 -2.09 dB -12.73 dB 4:43 12-Don't Look Back
––––––––––––––––––––––––––––––––––––––––

Number of tracks: 12
Official DR value: DR7

Samplerate: 192000 Hz
Channels: 2
Bits per sample: 24
Bitrate: 5522 kbps
Codec: FLAC
================================================================================


Hardware:
Turntable: JVC QL-A2 Quartz Lock
Headshell: Audio Technica AT-N
Cartridge - Shure V15-mkIII
Stylus - OEM Shure stylus
Phono Preamp - Schiit Mani
Audio Interface - Focusrite Scarlett 2i2 Gen2
Cables: Double shielded coaxial cable

Process:
Record cleaned with carbon fiber brush
Recorded in Audacity, set to 24bit 192khz
Normalized to -0.1dB and removing DC offset using Audacity
Labeled and exported as signed 24 bit WAV
Imported into foobar2000 and tagged
Converted to 24/192 FLAC (level 8) direct from foobar2000

Thanks to the Original customer!