Tags
Language
Tags
July 2024
Su Mo Tu We Th Fr Sa
30 1 2 3 4 5 6
7 8 9 10 11 12 13
14 15 16 17 18 19 20
21 22 23 24 25 26 27
28 29 30 31 1 2 3

The B-52's - Time Capsule: Songs for a Future Generation (1998)

Posted By: Designol
The B-52's - Time Capsule: Songs for a Future Generation (1998)

The B-52's - Time Capsule: Songs for a Future Generation (1998)
EAC | FLAC | Image (Cue&Log) ~ 563 Mb | Mp3 (CBR320) ~ 181 Mb | Scans ~ 82 Mb
New Wave, Post-Punk, Dance-Rock | Label: Reprise | # 9 46920-2 | Time: 01:19:22

Released in 1998, Time Capsule: Songs for a Future Generation is the essential B-52's greatest-hits collection. A chronologically assembled highlight reel of the group's first two decades, it contains all of their singles and a number of album favorites, along with two exclusive then-newly written tracks. When they first arrived on the scene in 1979, their kitschy thrift-store image and weirdly spartan sound immediately set them apart from others in the new wave scene to which they were loosely attached. Three guys, two girls, arcane hairdos, no bassist, and a sound that was equal parts spy music and good-time dance party, the B-52's were always fascinatingly loveable outsiders and remained so throughout their years of success. Beginning with "Planet Claire," "52 Girls," and the immortal "Rock Lobster," Time Capsule winds its way through their early and mid-'80s hits like "Quiche Lorraine" and the charming "Song for a Future Generation." As they continued to grow and evolve, their sound expanded, becoming both more nostalgic and more light-hearted, leading into their commercial peak in the early '90s with the excellent "Channel Z," "Roam," and of course "Love Shack." A highlight of this collection is the previously unreleased original mix of "Summer of Love," which feels far more natural than the version which ended up being released on 1986's Bouncing Off the Satellites. The two newly recorded cuts, "Debbie" and "Hallucinating Pluto," are decent enough and will interest collectors, though they can hardly be considered among the band's best material. Still, tacked as they are to the end, they serve as worthy bookends to this excellent 18-track set, which reveals the full career arc of one of rock's most fun and most distinctive acts.

Review by Timothy Monger, Allmusic.com

The B-52's - Time Capsule: Songs for a Future Generation (1998)



Tracklist:

01. Planet Claire (4:37)
02. 52 Girls (3:36)
03. Rock Lobster (4:54)
04. Party Out Of Bounds (3:22)
05. Strobelight (4:00)
06. Private Idaho (3:35)
07. Quiche Lorraine (3:58)
08. Mesopotamia (3:50)
09. Song For A Future Generation (3:59)
10. Summer Of Love [Original Unreleased Mix] (4:35)
11. Channel Z (4:51)
12. Deadbeat Club (4:54)
13. Love Shack (5:22)
14. Roam (4:53)
15. Good Stuff (5:55)
16. Is That You Mo-Dean? (5:08)
17. Debbie (3:34)
18. Hallucinating Pluto (4:19)


Exact Audio Copy V1.0 beta 3 from 29. August 2011

EAC extraction logfile from 12. September 2012, 2:48

The B-52's / Time Capsule

Used drive : HL-DT-STDVDRAM GE20NU11 Adapter: 0 ID: 1

Read mode : Secure
Utilize accurate stream : Yes
Defeat audio cache : Yes
Make use of C2 pointers : No

Read offset correction : 667
Overread into Lead-In and Lead-Out : No
Fill up missing offset samples with silence : Yes
Delete leading and trailing silent blocks : No
Null samples used in CRC calculations : Yes
Used interface : Native Win32 interface for Win NT & 2000

Used output format : User Defined Encoder
Selected bitrate : 896 kBit/s
Quality : High
Add ID3 tag : No
Command line compressor : C:\Program Files\EAC 3\Exact Audio Copy\Flac\flac.exe
Additional command line options : -V -8 %source%


TOC of the extracted CD

Track | Start | Length | Start sector | End sector
––––––––––––––––––––––––––––-
1 | 0:00.32 | 4:36.43 | 32 | 20774
2 | 4:37.00 | 3:35.62 | 20775 | 36961
3 | 8:12.62 | 4:54.30 | 36962 | 59041
4 | 13:07.17 | 3:21.45 | 59042 | 74161
5 | 16:28.62 | 4:00.25 | 74162 | 92186
6 | 20:29.12 | 3:34.43 | 92187 | 108279
7 | 24:03.55 | 3:57.42 | 108280 | 126096
8 | 28:01.22 | 3:50.33 | 126097 | 143379
9 | 31:51.55 | 3:59.07 | 143380 | 161311
10 | 35:50.62 | 4:34.73 | 161312 | 181934
11 | 40:25.60 | 4:50.65 | 181935 | 203749
12 | 45:16.50 | 4:54.00 | 203750 | 225799
13 | 50:10.50 | 5:22.27 | 225800 | 249976
14 | 55:33.02 | 4:52.68 | 249977 | 271944
15 | 60:25.70 | 5:55.07 | 271945 | 298576
16 | 66:21.02 | 5:07.63 | 298577 | 321664
17 | 71:28.65 | 3:34.27 | 321665 | 337741
18 | 75:03.17 | 4:19.23 | 337742 | 357189


Range status and errors

Selected range

Filename C:\OdW\1998 . Time Capsule (9 46920-2)\The B-52's - Time Capsule.wav

Peak level 100.0 %
Extraction speed 1.4 X
Range quality 99.9 %
Test CRC 4ACA68F4
Copy CRC 4ACA68F4
Copy OK

No errors occurred


AccurateRip summary

Track 1 accurately ripped (confidence 10) [211B47A9] (AR v2)
Track 2 accurately ripped (confidence 11) [0FC0C719] (AR v2)
Track 3 accurately ripped (confidence 11) [250496DC] (AR v2)
Track 4 accurately ripped (confidence 11) [B5302672] (AR v2)
Track 5 accurately ripped (confidence 11) [6F862179] (AR v2)
Track 6 accurately ripped (confidence 11) [F9A328E0] (AR v2)
Track 7 accurately ripped (confidence 11) [605F19A3] (AR v2)
Track 8 accurately ripped (confidence 11) [1B362EAB] (AR v2)
Track 9 accurately ripped (confidence 11) [DBA58EEA] (AR v2)
Track 10 accurately ripped (confidence 11) [88D2E773] (AR v2)
Track 11 accurately ripped (confidence 11) [009E21FC] (AR v2)
Track 12 accurately ripped (confidence 11) [EA83EC87] (AR v2)
Track 13 accurately ripped (confidence 11) [32FB363C] (AR v2)
Track 14 accurately ripped (confidence 11) [56075981] (AR v2)
Track 15 accurately ripped (confidence 11) [CAB39C8E] (AR v2)
Track 16 accurately ripped (confidence 10) [CEAFF5C2] (AR v2)
Track 17 accurately ripped (confidence 9) [D32702EE] (AR v2)
Track 18 accurately ripped (confidence 10) [54A99A8D] (AR v2)

All tracks accurately ripped

End of status report

==== Log checksum 27E67DF8F6D3A63FFE9663CF22628A1BD55A6C6A9DF9232499D2E13D7A970DE4 ====

[CUETools log; Date: 18.08.2018 17:31:51; Version: 2.1.4]
Pregap length 00:00:32.
HDCD: peak extend: none, transient filter: none, gain: none
[CTDB TOCID: rvOGSAEOnshvh20PWfWRjaiGlfs-] found.
Track | CTDB Status
1 | (418/424) Accurately ripped
2 | (418/424) Accurately ripped
3 | (416/424) Accurately ripped
4 | (419/424) Accurately ripped
5 | (420/424) Accurately ripped
6 | (422/424) Accurately ripped
7 | (419/424) Accurately ripped
8 | (418/424) Accurately ripped
9 | (420/424) Accurately ripped
10 | (417/424) Accurately ripped
11 | (415/424) Accurately ripped
12 | (414/424) Accurately ripped
13 | (415/424) Accurately ripped
14 | (413/424) Accurately ripped
15 | (392/424) Accurately ripped, or (19/424) differs in 3 samples @02:32:60
16 | (410/424) Accurately ripped
17 | (410/424) Accurately ripped
18 | (392/424) Accurately ripped
[AccurateRip ID: 0031e89a-02a03965-0a129a12] found.
Track [ CRC | V2 ] Status
01 [7b03a0e8|211b47a9] (093+083/586) Accurately ripped
02 [629fe2e6|0fc0c719] (096+085/591) Accurately ripped
03 [fb07a05a|250496dc] (100+085/601) Accurately ripped
04 [ede0f55b|b5302672] (094+083/588) Accurately ripped
05 [ce6fdd20|6f862179] (097+083/585) Accurately ripped
06 [7dba459b|f9a328e0] (098+082/595) Accurately ripped
07 [404d5874|605f19a3] (095+083/587) Accurately ripped
08 [0f69d985|1b362eab] (096+083/586) Accurately ripped
09 [c9000838|dba58eea] (097+084/582) Accurately ripped
10 [a533958e|88d2e773] (096+085/581) Accurately ripped
11 [3d579acf|009e21fc] (092+084/579) Accurately ripped
12 [990b7798|ea83ec87] (098+084/587) Accurately ripped
13 [05068f9f|32fb363c] (098+085/592) Accurately ripped
14 [0bf0a93a|56075981] (099+084/590) Accurately ripped
15 [4c62fb4f|cab39c8e] (093+083/575) Accurately ripped
16 [5cd5a653|ceaff5c2] (090+083/566) Accurately ripped
17 [4d533079|d32702ee] (084+081/554) Accurately ripped
18 [b5d79cbb|54a99a8d] (087+078/530) Accurately ripped
Offsetted by -2729:
01 [528d655a] (094/586) Accurately ripped
02 [1beb0496] (096/591) Accurately ripped
03 [42b33423] (098/601) Accurately ripped
04 [e69b8fa7] (097/588) Accurately ripped
05 [695b984d] (095/585) Accurately ripped
06 [f8c3a3c2] (098/595) Accurately ripped
07 [bd158c1e] (097/587) Accurately ripped
08 [1d3e103d] (096/586) Accurately ripped
09 [c985a6aa] (094/582) Accurately ripped
10 [e0bc9e58] (095/581) Accurately ripped
11 [caa1aac4] (094/579) Accurately ripped
12 [9ba30459] (095/587) Accurately ripped
13 [9272477f] (096/592) Accurately ripped
14 [993da843] (095/590) Accurately ripped
15 [8b85937c] (092/575) Accurately ripped
16 [10f369b2] (093/566) Accurately ripped
17 [9df8554f] (090/554) Accurately ripped
18 [68eab6b1] (086/530) Accurately ripped
Offsetted by -18:
01 [04762bc8] (006/586) Accurately ripped
02 [2c9bf00f] (006/591) Accurately ripped
03 [a284152a] (007/601) Accurately ripped
04 [fc8a4c58] (006/588) Accurately ripped
05 [5a585977] (006/585) Accurately ripped
06 [4629d57b] (007/595) Accurately ripped
07 [bade094b] (006/587) Accurately ripped
08 [2069a145] (005/586) Accurately ripped
09 [926c7a43] (007/582) Accurately ripped
10 [29e95057] (006/581) Accurately ripped
11 [0818d307] (006/579) Accurately ripped
12 [24fde9cb] (006/587) Accurately ripped
13 [cdde1605] (007/592) Accurately ripped
14 [30a58484] (007/590) Accurately ripped
15 [f4a0e236] (008/575) Accurately ripped
16 [737a7c53] (006/566) Accurately ripped
17 [6817789c] (006/554) Accurately ripped
18 [ce440b23] (006/530) Accurately ripped
Offsetted by 1735:
01 [5b5c5329] (090/586) Accurately ripped
02 [ddd676a0] (090/591) Accurately ripped
03 [00978600] (094/601) Accurately ripped
04 [20e64f5e] (090/588) Accurately ripped
05 [17e70850] (089/585) Accurately ripped
06 [e13f8a90] (092/595) Accurately ripped
07 [2767dea8] (090/587) Accurately ripped
08 [5eaa8f39] (090/586) Accurately ripped
09 [0e9a2c98] (087/582) Accurately ripped
10 [4b719a15] (086/581) Accurately ripped
11 [14163a76] (087/579) Accurately ripped
12 [77aac1c6] (089/587) Accurately ripped
13 [f2fafa4f] (090/592) Accurately ripped
14 [310ea6e1] (091/590) Accurately ripped
15 [304bc57d] (086/575) Accurately ripped
16 [e21317d8] (083/566) Accurately ripped
17 [a7b32b43] (083/554) Accurately ripped
18 [114d79c0] (078/530) Accurately ripped
Offsetted by 1961:
01 [b2cdd416] (014/586) Accurately ripped
02 [be08d9b9] (014/591) Accurately ripped
03 [58fd2289] (014/601) Accurately ripped
04 [a1fed8d6] (014/588) Accurately ripped
05 [f18477e4] (014/585) Accurately ripped
06 [e0340a98] (014/595) Accurately ripped
07 [a8e6838e] (014/587) Accurately ripped
08 [b456c473] (014/586) Accurately ripped
09 [efb88284] (014/582) Accurately ripped
10 [54cd4a8d] (014/581) Accurately ripped
11 [4b96e402] (014/579) Accurately ripped
12 [80245f2e] (014/587) Accurately ripped
13 [fc8d9842] (014/592) Accurately ripped
14 [3567be33] (014/590) Accurately ripped
15 [d362a3d4] (014/575) Accurately ripped
16 [d826b255] (014/566) Accurately ripped
17 [dbf0cbf5] (014/554) Accurately ripped
18 [7c14e844] (013/530) Accurately ripped
Offsetted by 1869:
01 [f6e30c92] (000/586) No match (V2 was not tested)
02 [8c126c79] (000/591) No match (V2 was not tested)
03 [27ef0356] (000/601) No match (V2 was not tested)
04 [86efaf5b] (000/588) No match (V2 was not tested)
05 [2b9942b7] (000/585) No match (V2 was not tested)
06 [5719c37a] (000/595) No match (V2 was not tested)
07 [fcc94c1d] (000/587) No match (V2 was not tested)
08 [cf23e94d] (000/586) No match (V2 was not tested)
09 [c16293c6] (000/582) No match (V2 was not tested)
10 [dcf63db4] (000/581) No match (V2 was not tested)
11 [fd1abfb4] (000/579) No match (V2 was not tested)
12 [233aa13e] (000/587) No match (V2 was not tested)
13 [3c4b014b] (000/592) No match (V2 was not tested)
14 [63a80b9a] (000/590) No match (V2 was not tested)
15 [41c520d7] (000/575) No match (V2 was not tested)
16 [d89accfb] (000/566) No match (V2 was not tested)
17 [35d20aa1] (000/554) No match (V2 was not tested)
18 [28517f84] (000/530) No match (V2 was not tested)

Track Peak [ CRC32 ] [W/O NULL] [ LOG ]
– 100,0 [4ACA68F4] [70AE6FC4] CRC32
01 98,6 [B88061E0] [9FDB699A]
02 98,6 [CD61CB9E] [BC8A5F30]
03 98,6 [9A09CA26] [A710FE42]
04 98,8 [4242E048] [BFB3F92B]
05 97,7 [EBA158E2] [12531B3A]
06 87,3 [2E4D3567] [52420C19]
07 98,8 [B19C62A9] [D8F4B6AF]
08 97,9 [BDE724B9] [88756C26]
09 93,3 [24940456] [74CFE498]
10 92,5 [B3534F6E] [1FC3D086]
11 93,3 [3455BF8C] [A7E639A9]
12 98,8 [AAA159CD] [093F7CAE]
13 97,7 [B14B96D2] [0699E216]
14 98,2 [EE85656A] [167CCF99]
15 89,1 [079B0C44] [457E9ACB]
16 100,0 [30EF1C06] [0F3E4693]
17 97,9 [EB5D0409] [249E88FD]
18 97,9 [EE6A34F1] [A581FB4B]

foobar2000 1.2 / Dynamic Range Meter 1.1.1
log date: 2018-08-18 17:53:58

––––––––––––––––––––––––––––––––––––––––
Analyzed: The B-52's / Time Capsule
––––––––––––––––––––––––––––––––––––––––

DR Peak RMS Duration Track
––––––––––––––––––––––––––––––––––––––––
DR9 -0.12 dB -11.46 dB 4:37 01-Planet Claire
DR8 -0.12 dB -9.65 dB 3:36 02-52 Girls
DR9 -0.12 dB -10.29 dB 4:54 03-Rock Lobster
DR8 -0.10 dB -10.05 dB 3:22 04-Party Out Of Bounds
DR8 -0.20 dB -10.38 dB 4:00 05-Strobelight
DR6 -1.18 dB -8.97 dB 3:35 06-Private Idaho
DR10 -0.10 dB -11.55 dB 3:58 07-Quiche Lorraine
DR10 -0.18 dB -11.31 dB 3:50 08-Mesopotamia
DR9 -0.60 dB -10.33 dB 3:59 09-Song For A Future Generation
DR9 -0.68 dB -10.93 dB 4:35 10-Summer Of Love [Original Unreleased Mix]
DR11 -0.60 dB -13.30 dB 4:51 11-Channel Z
DR10 -0.10 dB -12.04 dB 4:54 12-Deadbeat Club
DR10 -0.20 dB -11.73 dB 5:22 13-Love Shack
DR10 -0.16 dB -11.25 dB 4:53 14-Roam
DR9 -1.00 dB -11.12 dB 5:55 15-Good Stuff
DR8 0.00 dB -10.46 dB 5:08 16-Is That You Mo-Dean?
DR7 -0.18 dB -9.02 dB 3:34 17-Debbie
DR7 -0.18 dB -8.46 dB 4:19 18-Hallucinating Pluto
––––––––––––––––––––––––––––––––––––––––

Number of tracks: 18
Official DR value: DR9

Samplerate: 44100 Hz
Channels: 2
Bits per sample: 16
Bitrate: 992 kbps
Codec: FLAC
================================================================================

The B-52's - Time Capsule: Songs for a Future Generation (1998)

The B-52's - Time Capsule: Songs for a Future Generation (1998)

All thanks to original releaser

More interesting music in My Blog