Tags
Language
Tags
July 2024
Su Mo Tu We Th Fr Sa
30 1 2 3 4 5 6
7 8 9 10 11 12 13
14 15 16 17 18 19 20
21 22 23 24 25 26 27
28 29 30 31 1 2 3

Slave, Steve Arrington & Aurra - The Definitive Collection (2022)

Posted By: Rtax
Slave, Steve Arrington & Aurra - The Definitive Collection (2022)

Slave, Steve Arrington & Aurra - The Definitive Collection (2022)
EAC Rip | FLAC (tracks, cue, log, scans) - 1.4 GB | MP3 CBR 320 kbps - 525 MB
3:47:36 | Soul, Funk, Disco | Label: Robinsongs

A unique compilation of repertoire by the Funk band Slave and it's off shoots Aurra and Steve Arrington. Fantastic triple CD release features all of Slaves hit RnB singles that were released on the Cotillion label. CD One kicks off with Slave's #1 US RnB hit 'Slide', a tough, brassy dance floor anthem built on Mark Adams' relentless bass line. The iconic track spent 20 weeks in the US RnB charts and even made it's presence felt in America's pop chart, Billboard's Hot 100. Other key tracks on CD One are 'Stellar Fungk' and 'Just A Touch Of Love'. CD Two features two Top 10 RnB hits 'Watching You' and 'Snap Shot' and the introduction of cuts by Aurra including their RnB Top 10 smash 'Make Up Your Mind' and the rocking 'Are You Single?'. CD Three continues with the hits and includes Aurra's UK Top 20 hit 'You And Me Tonight' along with Steve Arrington's UK Top Five classic 'Feel So Reel' and RnB Hit 'Dancin' In The Key Of Life', plus other brilliant Slave tracks like 'Party Lites' and 'Checking You Out'.

The American Midwest has undoubtedly played a major role in the evolution of popular music; via fabled big cities like Chicago, where both electric blues and house music were born three decades apart, and Detroit where the world-conquering Motown sound was born. But we can't mention the music of the American Midwest without bringing Dayton into the equation. It's probably more famous in the eyes of fans of RnB music due to the number of great bands that originated there in the 1970s and 80s and gave the world The Ohio Players, Lakeside and Roger Troutman and Zapp, to name but a few, and all available on Robinsongs releases.

CD One kicks off with Slave’s #1 US RnB hit 'Slide’, a tough, brassy dance floor anthem built on Mark Adams' relentless bass line. The iconic track spent 20 weeks in the US RnB charts and even made its presence felt in America's pop chart, Billboard's Hot 100.
Other key tracks on CD One are ‘Stellar Fungk’ and ‘Just A Touch Of Love’.

CD Two features two Top 10 RnB hits ‘Watching You’ and ‘Snap Shot’ and the introduction of cuts by Aurra including their RnB Top 10 smash ‘Make Up Your Mind’ and the rocking ‘Are You Single?’.

CD Three continues with the hits and includes Aurra’s UK Top 20 hit ‘You And Me Tonight’ along with Steve Arrington’s UK Top Five classic ‘Feel So Reel’ and RnB Hit ‘Dancin’ In The Key Of Life’, plus other brilliant Slave tracks like ‘Party Lites’ and ‘Checking You Out’.

The American Midwest has undoubtedly played a major role in the evolution of popular music; via fabled big cities like Chicago, where both electric blues and house music were born three decades apart, and Detroit where the world-conquering Motown sound was born.

But we can't mention the music of the American Midwest without bringing Dayton into the equation. It's probably more famous in the eyes of fans of RnB music due to the number of great bands that originated there in the 1970s and 80s and gave the world The Ohio Players, Lakeside and Roger Troutman and Zapp, to name but a few, and all available on Robinsongs releases.
Slave, whose music is the focus of this 3CD compilation, which selects key musical moments from the group's back catalogue as well as crucial tracks from two of the group’s offshoots; drummer-turned-vocalist Steve Arrington and the band, later to become a duo, Aurra.

Tracklist
DISC ONE
1 Slide
2 Screw Your Wig On Tite
3 Party Hardy
4 You And Me
5 Separated
6 Son Of Slide
7 Life Can Be Happy
8 The Great American Funk Song
9 Baby Sinister
10 The Party Song
11 Stellar Fungk
12 Thank You Lord
13 Drac Is Back
14 Just A Touch Of Love
15 Are You Ready For Love? (2006 Remaster)
All songs by Slave

DISC TWO
1 Slave - Funky Lady (Foxy Lady)
2 Slave - Shine
3 Slave - Feel My Love
4 Slave - Sizzlin' Hot
5 Slave - Watching You
6 Slave - Never Get Away
7 Slave - Stone Jam
8 Slave - Snap Shot (Single Version)
9 Slave - Wait For Me
10 Slave - Steal Your Heart (2006 Remaster)
11 Aurra - In The Mood To Groove
12 Aurra - Make Up Your Mind
13 Aurra - Are You Single
14 Slave - Intro (Come To Blow Ya Mind)
15 Slave - I'll Be Gone

DISC THREE
1 Aurra - Checking You Out
2 Aurra - Such A Feeling
3 Slave - Steppin' Out
4 Slave - Turn You Out (In & Out)
5 Slave - Shake It Up
6 Steve Arrington - You Meet My Approval (2006 Remaster)
7 Steve Arrington - Weak At The Knees
8 Slave - Jungle Dance
9 Slave - OOOHH
10 Steve Arrington - Feel So Real
11 Steve Arrington - Dancin' In The Key Of Life
12 Aurra - You And Me Tonight
13 Slave - Party Lites
14 Slave - Everybody Slide (2006 Remaster)
Exact Audio Copy V1.3 from 2. September 2016

EAC extraction logfile from 30. September 2022, 21:39

Slave & Steve Arrington / The Definitive Collection

Used drive : HL-DT-STBD-RE BH16NS55 Adapter: 1 ID: 0

Read mode : Secure
Utilize accurate stream : Yes
Defeat audio cache : Yes
Make use of C2 pointers : No

Read offset correction : 6
Overread into Lead-In and Lead-Out : No
Fill up missing offset samples with silence : Yes
Delete leading and trailing silent blocks : No
Null samples used in CRC calculations : Yes
Used interface : Native Win32 interface for Win NT & 2000
Gap handling : Appended to previous track

Used output format : User Defined Encoder
Selected bitrate : 1024 kBit/s
Quality : High
Add ID3 tag : No
Command line compressor : C:\Program Files (x86)\Exact Audio Copy\Flac\flac.exe
Additional command line options : -8 -V -T "ARTIST=%artist%" -T "TITLE=%title%" -T "ALBUM=%albumtitle%" -T "DATE=%year%" -T "TRACKNUMBER=%tracknr%" -T "GENRE=%genre%" -T "PERFORMER=%albuminterpret%" -T "COMPOSER=%composer%" %haslyrics%–tag-from-file=LYRICS="%lyricsfile%"%haslyrics% -T "ALBUMARTIST=%albumartist%" -T "DISCNUMBER=%cdnumber%" -T "TOTALDISCS=%totalcds%" -T "TOTALTRACKS=%numtracks%" -T "COMMENT=%comment%" %source% -o %dest%


TOC of the extracted CD

Track | Start | Length | Start sector | End sector
––––––––––––––––––––––––––––-
1 | 0:00.00 | 6:50.64 | 0 | 30813
2 | 6:50.64 | 5:27.59 | 30814 | 55397
3 | 12:18.48 | 3:46.43 | 55398 | 72390
4 | 16:05.16 | 6:43.22 | 72391 | 102637
5 | 22:48.38 | 5:34.46 | 102638 | 127733
6 | 28:23.09 | 5:27.30 | 127734 | 152288
7 | 33:50.39 | 4:18.62 | 152289 | 171700
8 | 38:09.26 | 3:54.47 | 171701 | 189297
9 | 42:03.73 | 6:47.70 | 189298 | 219892
10 | 48:51.68 | 4:11.50 | 219893 | 238767
11 | 53:03.43 | 8:42.16 | 238768 | 277933
12 | 61:45.59 | 1:31.71 | 277934 | 284829
13 | 63:17.55 | 4:02.63 | 284830 | 303042
14 | 67:20.43 | 6:29.61 | 303043 | 332278
15 | 73:50.29 | 3:43.65 | 332279 | 349068


Track 1

Filename D:\#cdr\#wav+flac\#New\Slave & Steve Arrington - The Definitive Collection\cd 1\01. Slave - Slide.wav

Pre-gap length 0:00:02.00

Peak level 74.6 %
Extraction speed 5.1 X
Track quality 100.0 %
Test CRC 61A5D3A4
Copy CRC 61A5D3A4
Track not present in AccurateRip database
Copy OK

Track 2

Filename D:\#cdr\#wav+flac\#New\Slave & Steve Arrington - The Definitive Collection\cd 1\02. Slave - Screw Your Wig On Tite.wav

Pre-gap length 0:00:01.24

Peak level 71.5 %
Extraction speed 5.6 X
Track quality 100.0 %
Test CRC 5C14A257
Copy CRC 5C14A257
Track not present in AccurateRip database
Copy OK

Track 3

Filename D:\#cdr\#wav+flac\#New\Slave & Steve Arrington - The Definitive Collection\cd 1\03. Slave - Party Hardy.wav

Pre-gap length 0:00:00.17

Peak level 61.6 %
Extraction speed 5.7 X
Track quality 100.0 %
Test CRC EC2A5C8D
Copy CRC EC2A5C8D
Track not present in AccurateRip database
Copy OK

Track 4

Filename D:\#cdr\#wav+flac\#New\Slave & Steve Arrington - The Definitive Collection\cd 1\04. Slave - You And Me.wav

Pre-gap length 0:00:01.81

Peak level 62.3 %
Extraction speed 6.6 X
Track quality 100.0 %
Test CRC B76B0CF1
Copy CRC B76B0CF1
Track not present in AccurateRip database
Copy OK

Track 5

Filename D:\#cdr\#wav+flac\#New\Slave & Steve Arrington - The Definitive Collection\cd 1\05. Slave - Separated.wav

Pre-gap length 0:00:01.70

Peak level 70.7 %
Extraction speed 6.0 X
Track quality 99.9 %
Test CRC 76D6D64F
Copy CRC 76D6D64F
Track not present in AccurateRip database
Copy OK

Track 6

Filename D:\#cdr\#wav+flac\#New\Slave & Steve Arrington - The Definitive Collection\cd 1\06. Slave - Son Of Slide.wav

Pre-gap length 0:00:00.14

Peak level 69.1 %
Extraction speed 7.3 X
Track quality 100.0 %
Test CRC D2D59F56
Copy CRC D2D59F56
Track not present in AccurateRip database
Copy OK

Track 7

Filename D:\#cdr\#wav+flac\#New\Slave & Steve Arrington - The Definitive Collection\cd 1\07. Slave - Life Can Be Happy.wav

Pre-gap length 0:00:01.61

Peak level 94.3 %
Extraction speed 7.5 X
Track quality 100.0 %
Test CRC B9786EDC
Copy CRC B9786EDC
Track not present in AccurateRip database
Copy OK

Track 8

Filename D:\#cdr\#wav+flac\#New\Slave & Steve Arrington - The Definitive Collection\cd 1\08. Slave - The Great American Funk Song.wav

Pre-gap length 0:00:02.29

Peak level 94.3 %
Extraction speed 7.6 X
Track quality 100.0 %
Test CRC B93CC4C4
Copy CRC B93CC4C4
Track not present in AccurateRip database
Copy OK

Track 9

Filename D:\#cdr\#wav+flac\#New\Slave & Steve Arrington - The Definitive Collection\cd 1\09. Slave - Baby Sinister.wav

Pre-gap length 0:00:01.22

Peak level 94.3 %
Extraction speed 8.3 X
Track quality 100.0 %
Test CRC 88904844
Copy CRC 88904844
Track not present in AccurateRip database
Copy OK

Track 10

Filename D:\#cdr\#wav+flac\#New\Slave & Steve Arrington - The Definitive Collection\cd 1\10. Slave - The Party Song.wav

Pre-gap length 0:00:01.56

Peak level 94.3 %
Extraction speed 6.9 X
Track quality 99.9 %
Test CRC 31CDEFE1
Copy CRC 31CDEFE1
Track not present in AccurateRip database
Copy OK

Track 11

Filename D:\#cdr\#wav+flac\#New\Slave & Steve Arrington - The Definitive Collection\cd 1\11. Slave - Stellar Fungk.wav

Pre-gap length 0:00:01.48

Peak level 94.3 %
Extraction speed 8.3 X
Track quality 99.9 %
Test CRC 38B2EEA0
Copy CRC 38B2EEA0
Track not present in AccurateRip database
Copy OK

Track 12

Filename D:\#cdr\#wav+flac\#New\Slave & Steve Arrington - The Definitive Collection\cd 1\12. Slave - Thank You Lord.wav

Pre-gap length 0:00:00.76

Peak level 94.3 %
Extraction speed 5.0 X
Track quality 99.8 %
Test CRC D04B2E82
Copy CRC D04B2E82
Track not present in AccurateRip database
Copy OK

Track 13

Filename D:\#cdr\#wav+flac\#New\Slave & Steve Arrington - The Definitive Collection\cd 1\13. Slave - Drac Is Back.wav

Pre-gap length 0:00:01.29

Peak level 94.3 %
Extraction speed 8.9 X
Track quality 100.0 %
Test CRC E010DC42
Copy CRC E010DC42
Track not present in AccurateRip database
Copy OK

Track 14

Filename D:\#cdr\#wav+flac\#New\Slave & Steve Arrington - The Definitive Collection\cd 1\14. Slave - Just A Touch Of Love.wav

Pre-gap length 0:00:01.73

Peak level 94.3 %
Extraction speed 9.6 X
Track quality 100.0 %
Test CRC 2E98122D
Copy CRC 2E98122D
Track not present in AccurateRip database
Copy OK

Track 15

Filename D:\#cdr\#wav+flac\#New\Slave & Steve Arrington - The Definitive Collection\cd 1\15. Slave - Are You Ready For Love.wav

Pre-gap length 0:00:00.05

Peak level 62.9 %
Extraction speed 8.3 X
Track quality 100.0 %
Test CRC 31E10686
Copy CRC 31E10686
Track not present in AccurateRip database
Copy OK


None of the tracks are present in the AccurateRip database

No errors occurred

End of status report

–– CUETools DB Plugin V2.1.6

[CTDB TOCID: 0iZJNV8wqzPb8hQuquKD4aRiiS8-] disk not present in database
Submit result: 0iZJNV8wqzPb8hQuquKD4aRiiS8- has been uploaded


==== Log checksum 4264A5E2EC4237E1AA56F3A99B4789E91D704EC7841C1840CC4B4A21A8ECB07C ====

––––––––––––––––––––––––––––––

Exact Audio Copy V1.3 from 2. September 2016

EAC extraction logfile from 30. September 2022, 21:39

Slave & Steve Arrington / The Definitive Collection

Used drive : HL-DT-STBD-RE BH16NS55 Adapter: 1 ID: 0

Read mode : Secure
Utilize accurate stream : Yes
Defeat audio cache : Yes
Make use of C2 pointers : No

Read offset correction : 6
Overread into Lead-In and Lead-Out : No
Fill up missing offset samples with silence : Yes
Delete leading and trailing silent blocks : No
Null samples used in CRC calculations : Yes
Used interface : Native Win32 interface for Win NT & 2000
Gap handling : Appended to previous track

Used output format : User Defined Encoder
Selected bitrate : 1024 kBit/s
Quality : High
Add ID3 tag : No
Command line compressor : C:\Program Files (x86)\Exact Audio Copy\Flac\flac.exe
Additional command line options : -8 -V -T "ARTIST=%artist%" -T "TITLE=%title%" -T "ALBUM=%albumtitle%" -T "DATE=%year%" -T "TRACKNUMBER=%tracknr%" -T "GENRE=%genre%" -T "PERFORMER=%albuminterpret%" -T "COMPOSER=%composer%" %haslyrics%–tag-from-file=LYRICS="%lyricsfile%"%haslyrics% -T "ALBUMARTIST=%albumartist%" -T "DISCNUMBER=%cdnumber%" -T "TOTALDISCS=%totalcds%" -T "TOTALTRACKS=%numtracks%" -T "COMMENT=%comment%" %source% -o %dest%


TOC of the extracted CD

Track | Start | Length | Start sector | End sector
––––––––––––––––––––––––––––-
1 | 0:00.00 | 6:50.64 | 0 | 30813
2 | 6:50.64 | 5:27.59 | 30814 | 55397
3 | 12:18.48 | 3:46.43 | 55398 | 72390
4 | 16:05.16 | 6:43.22 | 72391 | 102637
5 | 22:48.38 | 5:34.46 | 102638 | 127733
6 | 28:23.09 | 5:27.30 | 127734 | 152288
7 | 33:50.39 | 4:18.62 | 152289 | 171700
8 | 38:09.26 | 3:54.47 | 171701 | 189297
9 | 42:03.73 | 6:47.70 | 189298 | 219892
10 | 48:51.68 | 4:11.50 | 219893 | 238767
11 | 53:03.43 | 8:42.16 | 238768 | 277933
12 | 61:45.59 | 1:31.71 | 277934 | 284829
13 | 63:17.55 | 4:02.63 | 284830 | 303042
14 | 67:20.43 | 6:29.61 | 303043 | 332278
15 | 73:50.29 | 3:43.65 | 332279 | 349068


Track 1

Filename D:\#cdr\#wav+flac\#New\Slave & Steve Arrington - The Definitive Collection\cd 1\01. Slave - Slide.wav

Pre-gap length 0:00:02.00

Peak level 74.6 %
Extraction speed 5.1 X
Track quality 100.0 %
Test CRC 61A5D3A4
Copy CRC 61A5D3A4
Track not present in AccurateRip database
Copy OK

Track 2

Filename D:\#cdr\#wav+flac\#New\Slave & Steve Arrington - The Definitive Collection\cd 1\02. Slave - Screw Your Wig On Tite.wav

Pre-gap length 0:00:01.24

Peak level 71.5 %
Extraction speed 5.6 X
Track quality 100.0 %
Test CRC 5C14A257
Copy CRC 5C14A257
Track not present in AccurateRip database
Copy OK

Track 3

Filename D:\#cdr\#wav+flac\#New\Slave & Steve Arrington - The Definitive Collection\cd 1\03. Slave - Party Hardy.wav

Pre-gap length 0:00:00.17

Peak level 61.6 %
Extraction speed 5.7 X
Track quality 100.0 %
Test CRC EC2A5C8D
Copy CRC EC2A5C8D
Track not present in AccurateRip database
Copy OK

Track 4

Filename D:\#cdr\#wav+flac\#New\Slave & Steve Arrington - The Definitive Collection\cd 1\04. Slave - You And Me.wav

Pre-gap length 0:00:01.81

Peak level 62.3 %
Extraction speed 6.6 X
Track quality 100.0 %
Test CRC B76B0CF1
Copy CRC B76B0CF1
Track not present in AccurateRip database
Copy OK

Track 5

Filename D:\#cdr\#wav+flac\#New\Slave & Steve Arrington - The Definitive Collection\cd 1\05. Slave - Separated.wav

Pre-gap length 0:00:01.70

Peak level 70.7 %
Extraction speed 6.0 X
Track quality 99.9 %
Test CRC 76D6D64F
Copy CRC 76D6D64F
Track not present in AccurateRip database
Copy OK

Track 6

Filename D:\#cdr\#wav+flac\#New\Slave & Steve Arrington - The Definitive Collection\cd 1\06. Slave - Son Of Slide.wav

Pre-gap length 0:00:00.14

Peak level 69.1 %
Extraction speed 7.3 X
Track quality 100.0 %
Test CRC D2D59F56
Copy CRC D2D59F56
Track not present in AccurateRip database
Copy OK

Track 7

Filename D:\#cdr\#wav+flac\#New\Slave & Steve Arrington - The Definitive Collection\cd 1\07. Slave - Life Can Be Happy.wav

Pre-gap length 0:00:01.61

Peak level 94.3 %
Extraction speed 7.5 X
Track quality 100.0 %
Test CRC B9786EDC
Copy CRC B9786EDC
Track not present in AccurateRip database
Copy OK

Track 8

Filename D:\#cdr\#wav+flac\#New\Slave & Steve Arrington - The Definitive Collection\cd 1\08. Slave - The Great American Funk Song.wav

Pre-gap length 0:00:02.29

Peak level 94.3 %
Extraction speed 7.6 X
Track quality 100.0 %
Test CRC B93CC4C4
Copy CRC B93CC4C4
Track not present in AccurateRip database
Copy OK

Track 9

Filename D:\#cdr\#wav+flac\#New\Slave & Steve Arrington - The Definitive Collection\cd 1\09. Slave - Baby Sinister.wav

Pre-gap length 0:00:01.22

Peak level 94.3 %
Extraction speed 8.3 X
Track quality 100.0 %
Test CRC 88904844
Copy CRC 88904844
Track not present in AccurateRip database
Copy OK

Track 10

Filename D:\#cdr\#wav+flac\#New\Slave & Steve Arrington - The Definitive Collection\cd 1\10. Slave - The Party Song.wav

Pre-gap length 0:00:01.56

Peak level 94.3 %
Extraction speed 6.9 X
Track quality 99.9 %
Test CRC 31CDEFE1
Copy CRC 31CDEFE1
Track not present in AccurateRip database
Copy OK

Track 11

Filename D:\#cdr\#wav+flac\#New\Slave & Steve Arrington - The Definitive Collection\cd 1\11. Slave - Stellar Fungk.wav

Pre-gap length 0:00:01.48

Peak level 94.3 %
Extraction speed 8.3 X
Track quality 99.9 %
Test CRC 38B2EEA0
Copy CRC 38B2EEA0
Track not present in AccurateRip database
Copy OK

Track 12

Filename D:\#cdr\#wav+flac\#New\Slave & Steve Arrington - The Definitive Collection\cd 1\12. Slave - Thank You Lord.wav

Pre-gap length 0:00:00.76

Peak level 94.3 %
Extraction speed 5.0 X
Track quality 99.8 %
Test CRC D04B2E82
Copy CRC D04B2E82
Track not present in AccurateRip database
Copy OK

Track 13

Filename D:\#cdr\#wav+flac\#New\Slave & Steve Arrington - The Definitive Collection\cd 1\13. Slave - Drac Is Back.wav

Pre-gap length 0:00:01.29

Peak level 94.3 %
Extraction speed 8.9 X
Track quality 100.0 %
Test CRC E010DC42
Copy CRC E010DC42
Track not present in AccurateRip database
Copy OK

Track 14

Filename D:\#cdr\#wav+flac\#New\Slave & Steve Arrington - The Definitive Collection\cd 1\14. Slave - Just A Touch Of Love.wav

Pre-gap length 0:00:01.73

Peak level 94.3 %
Extraction speed 9.6 X
Track quality 100.0 %
Test CRC 2E98122D
Copy CRC 2E98122D
Track not present in AccurateRip database
Copy OK

Track 15

Filename D:\#cdr\#wav+flac\#New\Slave & Steve Arrington - The Definitive Collection\cd 1\15. Slave - Are You Ready For Love.wav

Pre-gap length 0:00:00.05

Peak level 62.9 %
Extraction speed 8.3 X
Track quality 100.0 %
Test CRC 31E10686
Copy CRC 31E10686
Track not present in AccurateRip database
Copy OK


None of the tracks are present in the AccurateRip database

No errors occurred

End of status report

–– CUETools DB Plugin V2.1.6

[CTDB TOCID: 0iZJNV8wqzPb8hQuquKD4aRiiS8-] disk not present in database
Submit result: 0iZJNV8wqzPb8hQuquKD4aRiiS8- has been uploaded


==== Log checksum 4264A5E2EC4237E1AA56F3A99B4789E91D704EC7841C1840CC4B4A21A8ECB07C ====


Exact Audio Copy V1.3 from 2. September 2016

EAC extraction logfile from 30. September 2022, 22:09

Slave & Steve Arrington / The Definitive Collection

Used drive : HL-DT-STBD-RE BH16NS55 Adapter: 1 ID: 0

Read mode : Secure
Utilize accurate stream : Yes
Defeat audio cache : Yes
Make use of C2 pointers : No

Read offset correction : 6
Overread into Lead-In and Lead-Out : No
Fill up missing offset samples with silence : Yes
Delete leading and trailing silent blocks : No
Null samples used in CRC calculations : Yes
Used interface : Native Win32 interface for Win NT & 2000
Gap handling : Appended to previous track

Used output format : User Defined Encoder
Selected bitrate : 1024 kBit/s
Quality : High
Add ID3 tag : No
Command line compressor : C:\Program Files (x86)\Exact Audio Copy\Flac\flac.exe
Additional command line options : -8 -V -T "ARTIST=%artist%" -T "TITLE=%title%" -T "ALBUM=%albumtitle%" -T "DATE=%year%" -T "TRACKNUMBER=%tracknr%" -T "GENRE=%genre%" -T "PERFORMER=%albuminterpret%" -T "COMPOSER=%composer%" %haslyrics%–tag-from-file=LYRICS="%lyricsfile%"%haslyrics% -T "ALBUMARTIST=%albumartist%" -T "DISCNUMBER=%cdnumber%" -T "TOTALDISCS=%totalcds%" -T "TOTALTRACKS=%numtracks%" -T "COMMENT=%comment%" %source% -o %dest%


TOC of the extracted CD

Track | Start | Length | Start sector | End sector
––––––––––––––––––––––––––––-
1 | 0:00.00 | 4:37.65 | 0 | 20839
2 | 4:37.65 | 5:03.43 | 20840 | 43607
3 | 9:41.33 | 4:30.47 | 43608 | 63904
4 | 14:12.05 | 5:09.49 | 63905 | 87128
5 | 19:21.54 | 4:42.28 | 87129 | 108306
6 | 24:04.07 | 5:11.33 | 108307 | 131664
7 | 29:15.40 | 6:46.49 | 131665 | 162163
8 | 36:02.14 | 3:24.21 | 162164 | 177484
9 | 39:26.35 | 5:16.53 | 177485 | 201237
10 | 44:43.13 | 5:22.01 | 201238 | 225388
11 | 50:05.14 | 5:35.22 | 225389 | 250535
12 | 55:40.36 | 6:25.45 | 250536 | 279455
13 | 62:06.06 | 6:34.50 | 279456 | 309055
14 | 68:40.56 | 3:03.05 | 309056 | 322785
15 | 71:43.61 | 4:31.29 | 322786 | 343139


Track 1

Filename D:\#cdr\#wav+flac\#New\Slave & Steve Arrington - The Definitive Collection\cd 2\01. Slave & Steve Arrington - Funky Lady (Foxy Lady).wav

Pre-gap length 0:00:02.00

Peak level 89.0 %
Extraction speed 4.0 X
Track quality 99.9 %
Test CRC 329BFF95
Copy CRC 329BFF95
Track not present in AccurateRip database
Copy OK

Track 2

Filename D:\#cdr\#wav+flac\#New\Slave & Steve Arrington - The Definitive Collection\cd 2\02. Slave & Steve Arrington - Shine.wav

Pre-gap length 0:00:01.33

Peak level 94.3 %
Extraction speed 5.3 X
Track quality 100.0 %
Test CRC EE711B34
Copy CRC EE711B34
Track not present in AccurateRip database
Copy OK

Track 3

Filename D:\#cdr\#wav+flac\#New\Slave & Steve Arrington - The Definitive Collection\cd 2\03. Slave & Steve Arrington - Feel My Love.wav

Pre-gap length 0:00:00.81

Peak level 59.8 %
Extraction speed 5.6 X
Track quality 100.0 %
Test CRC 0A038101
Copy CRC 0A038101
Track not present in AccurateRip database
Copy OK

Track 4

Filename D:\#cdr\#wav+flac\#New\Slave & Steve Arrington - The Definitive Collection\cd 2\04. Slave & Steve Arrington - Sizzlin' Hot.wav

Pre-gap length 0:00:01.24

Peak level 66.8 %
Extraction speed 6.1 X
Track quality 100.0 %
Test CRC 15FD6698
Copy CRC 15FD6698
Track not present in AccurateRip database
Copy OK

Track 5

Filename D:\#cdr\#wav+flac\#New\Slave & Steve Arrington - The Definitive Collection\cd 2\05. Slave & Steve Arrington - Watching You.wav

Pre-gap length 0:00:01.82

Peak level 68.6 %
Extraction speed 6.4 X
Track quality 100.0 %
Test CRC 809C36C4
Copy CRC 809C36C4
Track not present in AccurateRip database
Copy OK

Track 6

Filename D:\#cdr\#wav+flac\#New\Slave & Steve Arrington - The Definitive Collection\cd 2\06. Slave & Steve Arrington - Never Get Away.wav

Pre-gap length 0:00:02.01

Peak level 72.4 %
Extraction speed 5.9 X
Track quality 99.9 %
Test CRC 8164BEDE
Copy CRC 8164BEDE
Track not present in AccurateRip database
Copy OK

Track 7

Filename D:\#cdr\#wav+flac\#New\Slave & Steve Arrington - The Definitive Collection\cd 2\07. Slave & Steve Arrington - Stone Jam.wav

Pre-gap length 0:00:02.24

Peak level 69.6 %
Extraction speed 6.6 X
Track quality 99.9 %
Test CRC C8A8C3FA
Copy CRC C8A8C3FA
Track not present in AccurateRip database
Copy OK

Track 8

Filename D:\#cdr\#wav+flac\#New\Slave & Steve Arrington - The Definitive Collection\cd 2\08. Slave & Steve Arrington - Snap Shot.wav

Pre-gap length 0:00:00.04

Peak level 94.3 %
Extraction speed 7.2 X
Track quality 100.0 %
Test CRC 0863B42C
Copy CRC 0863B42C
Track not present in AccurateRip database
Copy OK

Track 9

Filename D:\#cdr\#wav+flac\#New\Slave & Steve Arrington - The Definitive Collection\cd 2\09. Slave & Steve Arrington - Wait For Me.wav

Pre-gap length 0:00:00.76

Peak level 94.3 %
Extraction speed 6.7 X
Track quality 99.9 %
Test CRC EE53AFE6
Copy CRC EE53AFE6
Track not present in AccurateRip database
Copy OK

Track 10

Filename D:\#cdr\#wav+flac\#New\Slave & Steve Arrington - The Definitive Collection\cd 2\10. Slave & Steve Arrington - Steal Your Heart.wav

Pre-gap length 0:00:00.12

Peak level 83.8 %
Extraction speed 7.0 X
Track quality 99.9 %
Test CRC 096F9C29
Copy CRC 096F9C29
Track not present in AccurateRip database
Copy OK

Track 11

Filename D:\#cdr\#wav+flac\#New\Slave & Steve Arrington - The Definitive Collection\cd 2\11. Aurra - In The Mood To Groove.wav

Pre-gap length 0:00:00.10

Peak level 62.6 %
Extraction speed 7.3 X
Track quality 99.9 %
Test CRC 31253C41
Copy CRC 31253C41
Track not present in AccurateRip database
Copy OK

Track 12

Filename D:\#cdr\#wav+flac\#New\Slave & Steve Arrington - The Definitive Collection\cd 2\12. Aurra - Make Up Your Mind.wav

Pre-gap length 0:00:01.25

Peak level 94.3 %
Extraction speed 8.9 X
Track quality 100.0 %
Test CRC 4889F468
Copy CRC 4889F468
Track not present in AccurateRip database
Copy OK

Track 13

Filename D:\#cdr\#wav+flac\#New\Slave & Steve Arrington - The Definitive Collection\cd 2\13. Aurra - Are You Single.wav

Pre-gap length 0:00:01.13

Peak level 79.2 %
Extraction speed 9.3 X
Track quality 100.0 %
Test CRC 0130DC95
Copy CRC 0130DC95
Track not present in AccurateRip database
Copy OK

Track 14

Filename D:\#cdr\#wav+flac\#New\Slave & Steve Arrington - The Definitive Collection\cd 2\14. Slave & Steve Arrington - Intro (Come To Blow Ya Mind).wav

Pre-gap length 0:00:01.88

Peak level 94.3 %
Extraction speed 8.7 X
Track quality 100.0 %
Test CRC D53B3103
Copy CRC D53B3103
Track not present in AccurateRip database
Copy OK

Track 15

Filename D:\#cdr\#wav+flac\#New\Slave & Steve Arrington - The Definitive Collection\cd 2\15. Slave & Steve Arrington - I'll Be Gone.wav

Pre-gap length 0:00:01.18

Peak level 94.3 %
Extraction speed 9.3 X
Track quality 100.0 %
Test CRC 9080EDFC
Copy CRC 9080EDFC
Track not present in AccurateRip database
Copy OK


None of the tracks are present in the AccurateRip database

No errors occurred

End of status report

–– CUETools DB Plugin V2.1.6

[CTDB TOCID: aAVKHN9WlwTqzNsNYDqa.5Gqu.I-] disk not present in database
Submit result: aAVKHN9WlwTqzNsNYDqa.5Gqu.I- has been uploaded


==== Log checksum CFE0BB3E70F0DE95D1B5317533045EA21FB9B2D065B867D8A70E3DB3AA21B118 ====

––––––––––––––––––––––––––––––

Exact Audio Copy V1.3 from 2. September 2016

EAC extraction logfile from 30. September 2022, 22:09

Slave & Steve Arrington / The Definitive Collection

Used drive : HL-DT-STBD-RE BH16NS55 Adapter: 1 ID: 0

Read mode : Secure
Utilize accurate stream : Yes
Defeat audio cache : Yes
Make use of C2 pointers : No

Read offset correction : 6
Overread into Lead-In and Lead-Out : No
Fill up missing offset samples with silence : Yes
Delete leading and trailing silent blocks : No
Null samples used in CRC calculations : Yes
Used interface : Native Win32 interface for Win NT & 2000
Gap handling : Appended to previous track

Used output format : User Defined Encoder
Selected bitrate : 1024 kBit/s
Quality : High
Add ID3 tag : No
Command line compressor : C:\Program Files (x86)\Exact Audio Copy\Flac\flac.exe
Additional command line options : -8 -V -T "ARTIST=%artist%" -T "TITLE=%title%" -T "ALBUM=%albumtitle%" -T "DATE=%year%" -T "TRACKNUMBER=%tracknr%" -T "GENRE=%genre%" -T "PERFORMER=%albuminterpret%" -T "COMPOSER=%composer%" %haslyrics%–tag-from-file=LYRICS="%lyricsfile%"%haslyrics% -T "ALBUMARTIST=%albumartist%" -T "DISCNUMBER=%cdnumber%" -T "TOTALDISCS=%totalcds%" -T "TOTALTRACKS=%numtracks%" -T "COMMENT=%comment%" %source% -o %dest%


TOC of the extracted CD

Track | Start | Length | Start sector | End sector
––––––––––––––––––––––––––––-
1 | 0:00.00 | 4:37.65 | 0 | 20839
2 | 4:37.65 | 5:03.43 | 20840 | 43607
3 | 9:41.33 | 4:30.47 | 43608 | 63904
4 | 14:12.05 | 5:09.49 | 63905 | 87128
5 | 19:21.54 | 4:42.28 | 87129 | 108306
6 | 24:04.07 | 5:11.33 | 108307 | 131664
7 | 29:15.40 | 6:46.49 | 131665 | 162163
8 | 36:02.14 | 3:24.21 | 162164 | 177484
9 | 39:26.35 | 5:16.53 | 177485 | 201237
10 | 44:43.13 | 5:22.01 | 201238 | 225388
11 | 50:05.14 | 5:35.22 | 225389 | 250535
12 | 55:40.36 | 6:25.45 | 250536 | 279455
13 | 62:06.06 | 6:34.50 | 279456 | 309055
14 | 68:40.56 | 3:03.05 | 309056 | 322785
15 | 71:43.61 | 4:31.29 | 322786 | 343139


Track 1

Filename D:\#cdr\#wav+flac\#New\Slave & Steve Arrington - The Definitive Collection\cd 2\01. Slave & Steve Arrington - Funky Lady (Foxy Lady).wav

Pre-gap length 0:00:02.00

Peak level 89.0 %
Extraction speed 4.0 X
Track quality 99.9 %
Test CRC 329BFF95
Copy CRC 329BFF95
Track not present in AccurateRip database
Copy OK

Track 2

Filename D:\#cdr\#wav+flac\#New\Slave & Steve Arrington - The Definitive Collection\cd 2\02. Slave & Steve Arrington - Shine.wav

Pre-gap length 0:00:01.33

Peak level 94.3 %
Extraction speed 5.3 X
Track quality 100.0 %
Test CRC EE711B34
Copy CRC EE711B34
Track not present in AccurateRip database
Copy OK

Track 3

Filename D:\#cdr\#wav+flac\#New\Slave & Steve Arrington - The Definitive Collection\cd 2\03. Slave & Steve Arrington - Feel My Love.wav

Pre-gap length 0:00:00.81

Peak level 59.8 %
Extraction speed 5.6 X
Track quality 100.0 %
Test CRC 0A038101
Copy CRC 0A038101
Track not present in AccurateRip database
Copy OK

Track 4

Filename D:\#cdr\#wav+flac\#New\Slave & Steve Arrington - The Definitive Collection\cd 2\04. Slave & Steve Arrington - Sizzlin' Hot.wav

Pre-gap length 0:00:01.24

Peak level 66.8 %
Extraction speed 6.1 X
Track quality 100.0 %
Test CRC 15FD6698
Copy CRC 15FD6698
Track not present in AccurateRip database
Copy OK

Track 5

Filename D:\#cdr\#wav+flac\#New\Slave & Steve Arrington - The Definitive Collection\cd 2\05. Slave & Steve Arrington - Watching You.wav

Pre-gap length 0:00:01.82

Peak level 68.6 %
Extraction speed 6.4 X
Track quality 100.0 %
Test CRC 809C36C4
Copy CRC 809C36C4
Track not present in AccurateRip database
Copy OK

Track 6

Filename D:\#cdr\#wav+flac\#New\Slave & Steve Arrington - The Definitive Collection\cd 2\06. Slave & Steve Arrington - Never Get Away.wav

Pre-gap length 0:00:02.01

Peak level 72.4 %
Extraction speed 5.9 X
Track quality 99.9 %
Test CRC 8164BEDE
Copy CRC 8164BEDE
Track not present in AccurateRip database
Copy OK

Track 7

Filename D:\#cdr\#wav+flac\#New\Slave & Steve Arrington - The Definitive Collection\cd 2\07. Slave & Steve Arrington - Stone Jam.wav

Pre-gap length 0:00:02.24

Peak level 69.6 %
Extraction speed 6.6 X
Track quality 99.9 %
Test CRC C8A8C3FA
Copy CRC C8A8C3FA
Track not present in AccurateRip database
Copy OK

Track 8

Filename D:\#cdr\#wav+flac\#New\Slave & Steve Arrington - The Definitive Collection\cd 2\08. Slave & Steve Arrington - Snap Shot.wav

Pre-gap length 0:00:00.04

Peak level 94.3 %
Extraction speed 7.2 X
Track quality 100.0 %
Test CRC 0863B42C
Copy CRC 0863B42C
Track not present in AccurateRip database
Copy OK

Track 9

Filename D:\#cdr\#wav+flac\#New\Slave & Steve Arrington - The Definitive Collection\cd 2\09. Slave & Steve Arrington - Wait For Me.wav

Pre-gap length 0:00:00.76

Peak level 94.3 %
Extraction speed 6.7 X
Track quality 99.9 %
Test CRC EE53AFE6
Copy CRC EE53AFE6
Track not present in AccurateRip database
Copy OK

Track 10

Filename D:\#cdr\#wav+flac\#New\Slave & Steve Arrington - The Definitive Collection\cd 2\10. Slave & Steve Arrington - Steal Your Heart.wav

Pre-gap length 0:00:00.12

Peak level 83.8 %
Extraction speed 7.0 X
Track quality 99.9 %
Test CRC 096F9C29
Copy CRC 096F9C29
Track not present in AccurateRip database
Copy OK

Track 11

Filename D:\#cdr\#wav+flac\#New\Slave & Steve Arrington - The Definitive Collection\cd 2\11. Aurra - In The Mood To Groove.wav

Pre-gap length 0:00:00.10

Peak level 62.6 %
Extraction speed 7.3 X
Track quality 99.9 %
Test CRC 31253C41
Copy CRC 31253C41
Track not present in AccurateRip database
Copy OK

Track 12

Filename D:\#cdr\#wav+flac\#New\Slave & Steve Arrington - The Definitive Collection\cd 2\12. Aurra - Make Up Your Mind.wav

Pre-gap length 0:00:01.25

Peak level 94.3 %
Extraction speed 8.9 X
Track quality 100.0 %
Test CRC 4889F468
Copy CRC 4889F468
Track not present in AccurateRip database
Copy OK

Track 13

Filename D:\#cdr\#wav+flac\#New\Slave & Steve Arrington - The Definitive Collection\cd 2\13. Aurra - Are You Single.wav

Pre-gap length 0:00:01.13

Peak level 79.2 %
Extraction speed 9.3 X
Track quality 100.0 %
Test CRC 0130DC95
Copy CRC 0130DC95
Track not present in AccurateRip database
Copy OK

Track 14

Filename D:\#cdr\#wav+flac\#New\Slave & Steve Arrington - The Definitive Collection\cd 2\14. Slave & Steve Arrington - Intro (Come To Blow Ya Mind).wav

Pre-gap length 0:00:01.88

Peak level 94.3 %
Extraction speed 8.7 X
Track quality 100.0 %
Test CRC D53B3103
Copy CRC D53B3103
Track not present in AccurateRip database
Copy OK

Track 15

Filename D:\#cdr\#wav+flac\#New\Slave & Steve Arrington - The Definitive Collection\cd 2\15. Slave & Steve Arrington - I'll Be Gone.wav

Pre-gap length 0:00:01.18

Peak level 94.3 %
Extraction speed 9.3 X
Track quality 100.0 %
Test CRC 9080EDFC
Copy CRC 9080EDFC
Track not present in AccurateRip database
Copy OK


None of the tracks are present in the AccurateRip database

No errors occurred

End of status report

–– CUETools DB Plugin V2.1.6

[CTDB TOCID: aAVKHN9WlwTqzNsNYDqa.5Gqu.I-] disk not present in database
Submit result: aAVKHN9WlwTqzNsNYDqa.5Gqu.I- has been uploaded


==== Log checksum CFE0BB3E70F0DE95D1B5317533045EA21FB9B2D065B867D8A70E3DB3AA21B118 ====


Exact Audio Copy V1.3 from 2. September 2016

EAC extraction logfile from 30. September 2022, 22:46

Slave & Steve Arrington / The Definitive Collection

Used drive : HL-DT-STBD-RE BH16NS55 Adapter: 1 ID: 0

Read mode : Secure
Utilize accurate stream : Yes
Defeat audio cache : Yes
Make use of C2 pointers : No

Read offset correction : 6
Overread into Lead-In and Lead-Out : No
Fill up missing offset samples with silence : Yes
Delete leading and trailing silent blocks : No
Null samples used in CRC calculations : Yes
Used interface : Native Win32 interface for Win NT & 2000
Gap handling : Appended to previous track

Used output format : User Defined Encoder
Selected bitrate : 1024 kBit/s
Quality : High
Add ID3 tag : No
Command line compressor : C:\Program Files (x86)\Exact Audio Copy\Flac\flac.exe
Additional command line options : -8 -V -T "ARTIST=%artist%" -T "TITLE=%title%" -T "ALBUM=%albumtitle%" -T "DATE=%year%" -T "TRACKNUMBER=%tracknr%" -T "GENRE=%genre%" -T "PERFORMER=%albuminterpret%" -T "COMPOSER=%composer%" %haslyrics%–tag-from-file=LYRICS="%lyricsfile%"%haslyrics% -T "ALBUMARTIST=%albumartist%" -T "DISCNUMBER=%cdnumber%" -T "TOTALDISCS=%totalcds%" -T "TOTALTRACKS=%numtracks%" -T "COMMENT=%comment%" %source% -o %dest%


TOC of the extracted CD

Track | Start | Length | Start sector | End sector
––––––––––––––––––––––––––––-
1 | 0:00.00 | 6:02.46 | 0 | 27195
2 | 6:02.46 | 5:16.60 | 27196 | 50955
3 | 11:19.31 | 5:18.13 | 50956 | 74818
4 | 16:37.44 | 6:43.48 | 74819 | 105091
5 | 23:21.17 | 4:40.66 | 105092 | 126157
6 | 28:02.08 | 5:35.38 | 126158 | 151320
7 | 33:37.46 | 5:25.32 | 151321 | 175727
8 | 39:03.03 | 4:52.10 | 175728 | 197637
9 | 43:55.13 | 4:24.05 | 197638 | 217442
10 | 48:19.18 | 5:09.57 | 217443 | 240674
11 | 53:29.00 | 4:56.01 | 240675 | 262875
12 | 58:25.01 | 3:55.54 | 262876 | 280554
13 | 62:20.55 | 4:55.47 | 280555 | 302726
14 | 67:16.27 | 6:25.55 | 302727 | 331656


Track 1

Filename D:\#cdr\#wav+flac\#New\Slave & Steve Arrington - The Definitive Collection\cd 3\01. Aurra - Checking You Out.wav

Pre-gap length 0:00:02.00

Peak level 76.7 %
Extraction speed 5.3 X
Track quality 100.0 %
Test CRC 9D91455F
Copy CRC 9D91455F
Track not present in AccurateRip database
Copy OK

Track 2

Filename D:\#cdr\#wav+flac\#New\Slave & Steve Arrington - The Definitive Collection\cd 3\02. Aurra - Such A Feeling.wav

Pre-gap length 0:00:01.22

Peak level 75.3 %
Extraction speed 5.9 X
Track quality 100.0 %
Test CRC 7947B913
Copy CRC 7947B913
Track not present in AccurateRip database
Copy OK

Track 3

Filename D:\#cdr\#wav+flac\#New\Slave & Steve Arrington - The Definitive Collection\cd 3\03. Slave - Steppin' Out.wav

Pre-gap length 0:00:00.66

Peak level 92.6 %
Extraction speed 6.3 X
Track quality 100.0 %
Test CRC EE9E3262
Copy CRC EE9E3262
Track not present in AccurateRip database
Copy OK

Track 4

Filename D:\#cdr\#wav+flac\#New\Slave & Steve Arrington - The Definitive Collection\cd 3\04. Slave - Turn You Out (In & Out).wav

Pre-gap length 0:00:01.06

Peak level 94.3 %
Extraction speed 7.0 X
Track quality 100.0 %
Test CRC 9C65C102
Copy CRC 9C65C102
Track not present in AccurateRip database
Copy OK

Track 5

Filename D:\#cdr\#wav+flac\#New\Slave & Steve Arrington - The Definitive Collection\cd 3\05. Slave - Shake It Up.wav

Pre-gap length 0:00:00.86

Peak level 69.5 %
Extraction speed 6.0 X
Track quality 99.9 %
Test CRC 02E81F33
Copy CRC 02E81F33
Track not present in AccurateRip database
Copy OK

Track 6

Filename D:\#cdr\#wav+flac\#New\Slave & Steve Arrington - The Definitive Collection\cd 3\06. Steve Arrington - You Meet My Approval.wav

Pre-gap length 0:00:00.86

Peak level 60.2 %
Extraction speed 7.7 X
Track quality 100.0 %
Test CRC 892EC582
Copy CRC 892EC582
Track not present in AccurateRip database
Copy OK

Track 7

Filename D:\#cdr\#wav+flac\#New\Slave & Steve Arrington - The Definitive Collection\cd 3\07. Steve Arrington's Hall Of Fame - Weak At The Knees.wav

Pre-gap length 0:00:01.52

Peak level 60.9 %
Extraction speed 8.1 X
Track quality 100.0 %
Test CRC 35491378
Copy CRC 35491378
Track not present in AccurateRip database
Copy OK

Track 8

Filename D:\#cdr\#wav+flac\#New\Slave & Steve Arrington - The Definitive Collection\cd 3\08. Slave - Jungle Dance.wav

Pre-gap length 0:00:01.45

Peak level 94.3 %
Extraction speed 7.0 X
Track quality 99.9 %
Test CRC E90E5ECB
Copy CRC E90E5ECB
Track not present in AccurateRip database
Copy OK

Track 9

Filename D:\#cdr\#wav+flac\#New\Slave & Steve Arrington - The Definitive Collection\cd 3\09. Slave - Ooohh.wav

Pre-gap length 0:00:01.13

Peak level 94.3 %
Extraction speed 8.5 X
Track quality 100.0 %
Test CRC F870A508
Copy CRC F870A508
Track not present in AccurateRip database
Copy OK

Track 10

Filename D:\#cdr\#wav+flac\#New\Slave & Steve Arrington - The Definitive Collection\cd 3\10. Steve Arrington - Feel So Real.wav

Pre-gap length 0:00:01.16

Peak level 78.4 %
Extraction speed 7.6 X
Track quality 99.9 %
Test CRC 8E259049
Copy CRC 8E259049
Track not present in AccurateRip database
Copy OK

Track 11

Filename D:\#cdr\#wav+flac\#New\Slave & Steve Arrington - The Definitive Collection\cd 3\11. Steve Arrington - Dancin' In The Key Of Life.wav

Pre-gap length 0:00:01.36

Peak level 54.9 %
Extraction speed 9.1 X
Track quality 100.0 %
Test CRC 7D2E105F
Copy CRC 7D2E105F
Track not present in AccurateRip database
Copy OK

Track 12

Filename D:\#cdr\#wav+flac\#New\Slave & Steve Arrington - The Definitive Collection\cd 3\12. Aurra - You And Me Tonight.wav

Pre-gap length 0:00:01.52

Peak level 58.8 %
Extraction speed 7.5 X
Track quality 99.9 %
Test CRC DBEFAE3C
Copy CRC DBEFAE3C
Track not present in AccurateRip database
Copy OK

Track 13

Filename D:\#cdr\#wav+flac\#New\Slave & Steve Arrington - The Definitive Collection\cd 3\13. Slave - Party Lites.wav

Pre-gap length 0:00:01.33

Peak level 77.5 %
Extraction speed 9.7 X
Track quality 100.0 %
Test CRC 69F88605
Copy CRC 69F88605
Track not present in AccurateRip database
Copy OK

Track 14

Filename D:\#cdr\#wav+flac\#New\Slave & Steve Arrington - The Definitive Collection\cd 3\14. Slave - Everybody Slide.wav

Pre-gap length 0:00:00.90

Peak level 69.7 %
Extraction speed 10.2 X
Track quality 100.0 %
Test CRC 3183BC2B
Copy CRC 3183BC2B
Track not present in AccurateRip database
Copy OK


None of the tracks are present in the AccurateRip database

No errors occurred

End of status report

–– CUETools DB Plugin V2.1.6

[CTDB TOCID: LG5SIFPP_B_Gntob.ayQB0SpGjk-] disk not present in database
Submit result: LG5SIFPP_B_Gntob.ayQB0SpGjk- has been uploaded


==== Log checksum A97973391B156A4CDFC9F134951F16A39552137CAF0CFEAA42FD62E9E9279A99 ====

––––––––––––––––––––––––––––––

Exact Audio Copy V1.3 from 2. September 2016

EAC extraction logfile from 30. September 2022, 22:46

Slave & Steve Arrington / The Definitive Collection

Used drive : HL-DT-STBD-RE BH16NS55 Adapter: 1 ID: 0

Read mode : Secure
Utilize accurate stream : Yes
Defeat audio cache : Yes
Make use of C2 pointers : No

Read offset correction : 6
Overread into Lead-In and Lead-Out : No
Fill up missing offset samples with silence : Yes
Delete leading and trailing silent blocks : No
Null samples used in CRC calculations : Yes
Used interface : Native Win32 interface for Win NT & 2000
Gap handling : Appended to previous track

Used output format : User Defined Encoder
Selected bitrate : 1024 kBit/s
Quality : High
Add ID3 tag : No
Command line compressor : C:\Program Files (x86)\Exact Audio Copy\Flac\flac.exe
Additional command line options : -8 -V -T "ARTIST=%artist%" -T "TITLE=%title%" -T "ALBUM=%albumtitle%" -T "DATE=%year%" -T "TRACKNUMBER=%tracknr%" -T "GENRE=%genre%" -T "PERFORMER=%albuminterpret%" -T "COMPOSER=%composer%" %haslyrics%–tag-from-file=LYRICS="%lyricsfile%"%haslyrics% -T "ALBUMARTIST=%albumartist%" -T "DISCNUMBER=%cdnumber%" -T "TOTALDISCS=%totalcds%" -T "TOTALTRACKS=%numtracks%" -T "COMMENT=%comment%" %source% -o %dest%


TOC of the extracted CD

Track | Start | Length | Start sector | End sector
––––––––––––––––––––––––––––-
1 | 0:00.00 | 6:02.46 | 0 | 27195
2 | 6:02.46 | 5:16.60 | 27196 | 50955
3 | 11:19.31 | 5:18.13 | 50956 | 74818
4 | 16:37.44 | 6:43.48 | 74819 | 105091
5 | 23:21.17 | 4:40.66 | 105092 | 126157
6 | 28:02.08 | 5:35.38 | 126158 | 151320
7 | 33:37.46 | 5:25.32 | 151321 | 175727
8 | 39:03.03 | 4:52.10 | 175728 | 197637
9 | 43:55.13 | 4:24.05 | 197638 | 217442
10 | 48:19.18 | 5:09.57 | 217443 | 240674
11 | 53:29.00 | 4:56.01 | 240675 | 262875
12 | 58:25.01 | 3:55.54 | 262876 | 280554
13 | 62:20.55 | 4:55.47 | 280555 | 302726
14 | 67:16.27 | 6:25.55 | 302727 | 331656


Track 1

Filename D:\#cdr\#wav+flac\#New\Slave & Steve Arrington - The Definitive Collection\cd 3\01. Aurra - Checking You Out.wav

Pre-gap length 0:00:02.00

Peak level 76.7 %
Extraction speed 5.3 X
Track quality 100.0 %
Test CRC 9D91455F
Copy CRC 9D91455F
Track not present in AccurateRip database
Copy OK

Track 2

Filename D:\#cdr\#wav+flac\#New\Slave & Steve Arrington - The Definitive Collection\cd 3\02. Aurra - Such A Feeling.wav

Pre-gap length 0:00:01.22

Peak level 75.3 %
Extraction speed 5.9 X
Track quality 100.0 %
Test CRC 7947B913
Copy CRC 7947B913
Track not present in AccurateRip database
Copy OK

Track 3

Filename D:\#cdr\#wav+flac\#New\Slave & Steve Arrington - The Definitive Collection\cd 3\03. Slave - Steppin' Out.wav

Pre-gap length 0:00:00.66

Peak level 92.6 %
Extraction speed 6.3 X
Track quality 100.0 %
Test CRC EE9E3262
Copy CRC EE9E3262
Track not present in AccurateRip database
Copy OK

Track 4

Filename D:\#cdr\#wav+flac\#New\Slave & Steve Arrington - The Definitive Collection\cd 3\04. Slave - Turn You Out (In & Out).wav

Pre-gap length 0:00:01.06

Peak level 94.3 %
Extraction speed 7.0 X
Track quality 100.0 %
Test CRC 9C65C102
Copy CRC 9C65C102
Track not present in AccurateRip database
Copy OK

Track 5

Filename D:\#cdr\#wav+flac\#New\Slave & Steve Arrington - The Definitive Collection\cd 3\05. Slave - Shake It Up.wav

Pre-gap length 0:00:00.86

Peak level 69.5 %
Extraction speed 6.0 X
Track quality 99.9 %
Test CRC 02E81F33
Copy CRC 02E81F33
Track not present in AccurateRip database
Copy OK

Track 6

Filename D:\#cdr\#wav+flac\#New\Slave & Steve Arrington - The Definitive Collection\cd 3\06. Steve Arrington - You Meet My Approval.wav

Pre-gap length 0:00:00.86

Peak level 60.2 %
Extraction speed 7.7 X
Track quality 100.0 %
Test CRC 892EC582
Copy CRC 892EC582
Track not present in AccurateRip database
Copy OK

Track 7

Filename D:\#cdr\#wav+flac\#New\Slave & Steve Arrington - The Definitive Collection\cd 3\07. Steve Arrington's Hall Of Fame - Weak At The Knees.wav

Pre-gap length 0:00:01.52

Peak level 60.9 %
Extraction speed 8.1 X
Track quality 100.0 %
Test CRC 35491378
Copy CRC 35491378
Track not present in AccurateRip database
Copy OK

Track 8

Filename D:\#cdr\#wav+flac\#New\Slave & Steve Arrington - The Definitive Collection\cd 3\08. Slave - Jungle Dance.wav

Pre-gap length 0:00:01.45

Peak level 94.3 %
Extraction speed 7.0 X
Track quality 99.9 %
Test CRC E90E5ECB
Copy CRC E90E5ECB
Track not present in AccurateRip database
Copy OK

Track 9

Filename D:\#cdr\#wav+flac\#New\Slave & Steve Arrington - The Definitive Collection\cd 3\09. Slave - Ooohh.wav

Pre-gap length 0:00:01.13

Peak level 94.3 %
Extraction speed 8.5 X
Track quality 100.0 %
Test CRC F870A508
Copy CRC F870A508
Track not present in AccurateRip database
Copy OK

Track 10

Filename D:\#cdr\#wav+flac\#New\Slave & Steve Arrington - The Definitive Collection\cd 3\10. Steve Arrington - Feel So Real.wav

Pre-gap length 0:00:01.16

Peak level 78.4 %
Extraction speed 7.6 X
Track quality 99.9 %
Test CRC 8E259049
Copy CRC 8E259049
Track not present in AccurateRip database
Copy OK

Track 11

Filename D:\#cdr\#wav+flac\#New\Slave & Steve Arrington - The Definitive Collection\cd 3\11. Steve Arrington - Dancin' In The Key Of Life.wav

Pre-gap length 0:00:01.36

Peak level 54.9 %
Extraction speed 9.1 X
Track quality 100.0 %
Test CRC 7D2E105F
Copy CRC 7D2E105F
Track not present in AccurateRip database
Copy OK

Track 12

Filename D:\#cdr\#wav+flac\#New\Slave & Steve Arrington - The Definitive Collection\cd 3\12. Aurra - You And Me Tonight.wav

Pre-gap length 0:00:01.52

Peak level 58.8 %
Extraction speed 7.5 X
Track quality 99.9 %
Test CRC DBEFAE3C
Copy CRC DBEFAE3C
Track not present in AccurateRip database
Copy OK

Track 13

Filename D:\#cdr\#wav+flac\#New\Slave & Steve Arrington - The Definitive Collection\cd 3\13. Slave - Party Lites.wav

Pre-gap length 0:00:01.33

Peak level 77.5 %
Extraction speed 9.7 X
Track quality 100.0 %
Test CRC 69F88605
Copy CRC 69F88605
Track not present in AccurateRip database
Copy OK

Track 14

Filename D:\#cdr\#wav+flac\#New\Slave & Steve Arrington - The Definitive Collection\cd 3\14. Slave - Everybody Slide.wav

Pre-gap length 0:00:00.90

Peak level 69.7 %
Extraction speed 10.2 X
Track quality 100.0 %
Test CRC 3183BC2B
Copy CRC 3183BC2B
Track not present in AccurateRip database
Copy OK


None of the tracks are present in the AccurateRip database

No errors occurred

End of status report

–– CUETools DB Plugin V2.1.6

[CTDB TOCID: LG5SIFPP_B_Gntob.ayQB0SpGjk-] disk not present in database
Submit result: LG5SIFPP_B_Gntob.ayQB0SpGjk- has been uploaded


==== Log checksum A97973391B156A4CDFC9F134951F16A39552137CAF0CFEAA42FD62E9E9279A99 ====