Tags
Language
Tags
July 2024
Su Mo Tu We Th Fr Sa
30 1 2 3 4 5 6
7 8 9 10 11 12 13
14 15 16 17 18 19 20
21 22 23 24 25 26 27
28 29 30 31 1 2 3

Sarah Vaughan - Ballads (2002)

Posted By: Rtax
Sarah Vaughan - Ballads (2002)

Sarah Vaughan - Ballads (2002)
XLD Rip | FLAC (tracks, cue, log, scans) - 267 MB
50:52 | Jazz, Vocal | Label. Roulette

Like other entries in Blue Note's excellent Ballads series, this collection features Sarah Vaughan on a number of mellow standards. The songs originate from a number of sessions Vaughan completed for Roulette between 1960-1963, and they are uniformly lovely. The settings range from the guitar/bass backing on "All or Nothing at All" to the orchestra backing on "Dreamy." Vaughan sings the tastefully arranged "You Go to My Head" with the help of the Count Basie Orchestra and the intimately quiet "In a Sentimental Mood" with guitarist Mundell Lowe and bassist George Duvivier. She slowly caresses each syllable of "'Round Midnight," "Solitude," and "Lover Man," delivering fresh takes on these commonly sung classics. A certain warmth also permeates "In a Sentimental Mood" and "If I Had You," filling each note with an air of regret. The reflective material seems tailor-made for that late hour when one's guests have departed and the cocktail glasses have been cleared. Ballads gathers 13 exquisite recordings in one place and captures Vaughan in exceptional voice. It's also enlightening to listen to how she approaches similar material when the arrangements are so divergent. To those unfamiliar with her Roulette work, Ballads offers a fine introduction.~Ronnie D. Lankford, Jr.

Tracklist
01. All or Nothing at All (3:14)
02. Midnight Sun (5:36)
03. Dreamy (2:58)
04. You Go to My Head (4:54)
05. Key Largo (3:31)
06. 'Round Midnight (3:36)
07. The Second Time Around (3:43)
08. Lover Man (4:00)
09. In a Sentimental Mood (4:06)
10. I Guess I'll Hang My Tears Out to Dry (4:09)
11. Solitude (3:50)
12. I Fall in Love Too Easily (3:23)
13. If I Had You (3:52)
X Lossless Decoder version 20211018 (154.0)

XLD extraction logfile from 2022-05-18 10:14:55 -0700

Sarah Vaughan / Ballads

Used drive : HL-DT-ST DVDRAM GP60NB50 (revision RF01)
Media type : Pressed CD

Ripper mode : XLD Secure Ripper
Disable audio cache : OK for the drive with a cache less than 1375KiB
Make use of C2 pointers : NO
Read offset correction : 6
Max retry count : 20
Gap status : Analyzed, Appended (except HTOA)

TOC of the extracted CD
Track | Start | Length | Start sector | End sector
––––––––––––––––––––––––––––-
1 | 00:00:00 | 03:13:55 | 0 | 14529
2 | 03:13:55 | 05:36:37 | 14530 | 39766
3 | 08:50:17 | 02:58:13 | 39767 | 53129
4 | 11:48:30 | 04:53:45 | 53130 | 75149
5 | 16:42:00 | 03:30:47 | 75150 | 90946
6 | 20:12:47 | 03:35:43 | 90947 | 107114
7 | 23:48:15 | 03:43:35 | 107115 | 123874
8 | 27:31:50 | 03:59:47 | 123875 | 141846
9 | 31:31:22 | 04:05:68 | 141847 | 160289
10 | 35:37:15 | 04:09:35 | 160290 | 178999
11 | 39:46:50 | 03:49:47 | 179000 | 196221
12 | 43:36:22 | 03:22:48 | 196222 | 211419
13 | 46:58:70 | 03:52:12 | 211420 | 228831

List of alternate offset correction values
# | Absolute | Relative | Confidence
–––––––––––––––––––––
1 | -440 | -446 | 10
2 | -1176 | -1182 | 2

AccurateRip Summary (DiscID: 0018c06d-00f6dcee-9d0beb0d)
Track 01 : OK (v1+v2, confidence 18/30)
Track 02 : OK (v1+v2, confidence 18/30)
Track 03 : OK (v1+v2, confidence 18/30)
Track 04 : OK (v1+v2, confidence 18/30)
Track 05 : OK (v1+v2, confidence 18/30)
Track 06 : OK (v1+v2, confidence 18/30)
Track 07 : OK (v1+v2, confidence 18/30)
Track 08 : OK (v1+v2, confidence 18/30)
Track 09 : OK (v1+v2, confidence 17/29)
Track 10 : OK (v1+v2, confidence 18/30)
Track 11 : OK (v1+v2, confidence 18/30)
Track 12 : OK (v1+v2, confidence 18/30)
Track 13 : OK (v1+v2, confidence 18/30)
->All tracks accurately ripped.

All Tracks
Album gain : -4.08 dB
Peak : 0.887390
Statistics
Read error : 0
Jitter error (maybe fixed) : 0
Retry sector count : 0
Damaged sector count : 0

Track 01
Filename : /Volumes/El Segundo/Rips/Sarah Vaughan - Ballads (2002) [FLAC]/01 All or Nothing at All.flac
Pre-gap length : 00:02:00

Track gain : -3.32 dB
Peak : 0.868652
CRC32 hash (test run) : A4DD3162
CRC32 hash : A4DD3162
CRC32 hash (skip zero) : E2D13BE0
AccurateRip v1 signature : EAFD2BE3
AccurateRip v2 signature : 1D7D796F
->Accurately ripped (v1+v2, confidence 9+9/30)
Statistics
Read error : 0
Jitter error (maybe fixed) : 0
Retry sector count : 0
Damaged sector count : 0

Track 02
Filename : /Volumes/El Segundo/Rips/Sarah Vaughan - Ballads (2002) [FLAC]/02 Midnight Sun.flac
Pre-gap length : 00:02:30

Track gain : -3.03 dB
Peak : 0.874207
CRC32 hash (test run) : E60B6F28
CRC32 hash : E60B6F28
CRC32 hash (skip zero) : 1699BC8A
AccurateRip v1 signature : C8A6D4B7
AccurateRip v2 signature : EF82831B
->Accurately ripped (v1+v2, confidence 9+9/30)
Statistics
Read error : 0
Jitter error (maybe fixed) : 0
Retry sector count : 0
Damaged sector count : 0

Track 03
Filename : /Volumes/El Segundo/Rips/Sarah Vaughan - Ballads (2002) [FLAC]/03 Dreamy.flac
Pre-gap length : 00:02:22

Track gain : -6.22 dB
Peak : 0.815094
CRC32 hash (test run) : 98500F83
CRC32 hash : 98500F83
CRC32 hash (skip zero) : 7087FEEF
AccurateRip v1 signature : D7B5B3ED
AccurateRip v2 signature : 2759B761
->Accurately ripped (v1+v2, confidence 9+9/30)
Statistics
Read error : 0
Jitter error (maybe fixed) : 0
Retry sector count : 0
Damaged sector count : 0

Track 04
Filename : /Volumes/El Segundo/Rips/Sarah Vaughan - Ballads (2002) [FLAC]/04 You Go to My Head.flac
Pre-gap length : 00:02:08

Track gain : -3.61 dB
Peak : 0.882751
CRC32 hash (test run) : 32E0F275
CRC32 hash : 32E0F275
CRC32 hash (skip zero) : A4A46725
AccurateRip v1 signature : F6A10E43
AccurateRip v2 signature : 4ACD61DB
->Accurately ripped (v1+v2, confidence 9+9/30)
Statistics
Read error : 0
Jitter error (maybe fixed) : 0
Retry sector count : 0
Damaged sector count : 0

Track 05
Filename : /Volumes/El Segundo/Rips/Sarah Vaughan - Ballads (2002) [FLAC]/05 Key Largo.flac
Pre-gap length : 00:02:28

Track gain : -5.04 dB
Peak : 0.886932
CRC32 hash (test run) : 61DF1289
CRC32 hash : 61DF1289
CRC32 hash (skip zero) : C6F9969C
AccurateRip v1 signature : 36D2B09F
AccurateRip v2 signature : AD8AA93A
->Accurately ripped (v1+v2, confidence 9+9/30)
Statistics
Read error : 0
Jitter error (maybe fixed) : 0
Retry sector count : 0
Damaged sector count : 0

Track 06
Filename : /Volumes/El Segundo/Rips/Sarah Vaughan - Ballads (2002) [FLAC]/06 'Round Midnight.flac
Pre-gap length : 00:02:55

Track gain : -4.45 dB
Peak : 0.871704
CRC32 hash (test run) : 998A95C0
CRC32 hash : 998A95C0
CRC32 hash (skip zero) : 79986068
AccurateRip v1 signature : 7559ED07
AccurateRip v2 signature : CA83DC59
->Accurately ripped (v1+v2, confidence 9+9/30)
Statistics
Read error : 0
Jitter error (maybe fixed) : 0
Retry sector count : 0
Damaged sector count : 0

Track 07
Filename : /Volumes/El Segundo/Rips/Sarah Vaughan - Ballads (2002) [FLAC]/07 The Second Time Around.flac
Pre-gap length : 00:02:00

Track gain : -5.21 dB
Peak : 0.874451
CRC32 hash (test run) : 5145FEF8
CRC32 hash : 5145FEF8
CRC32 hash (skip zero) : 2BC993A4
AccurateRip v1 signature : 15C1B0CA
AccurateRip v2 signature : 70707E52
->Accurately ripped (v1+v2, confidence 9+9/30)
Statistics
Read error : 0
Jitter error (maybe fixed) : 0
Retry sector count : 0
Damaged sector count : 0

Track 08
Filename : /Volumes/El Segundo/Rips/Sarah Vaughan - Ballads (2002) [FLAC]/08 Lover Man.flac
Pre-gap length : 00:02:33

Track gain : -4.52 dB
Peak : 0.826447
CRC32 hash (test run) : 535DDF28
CRC32 hash : 535DDF28
CRC32 hash (skip zero) : E989AD61
AccurateRip v1 signature : B2E3F9BC
AccurateRip v2 signature : ABFD520D
->Accurately ripped (v1+v2, confidence 9+9/30)
Statistics
Read error : 0
Jitter error (maybe fixed) : 0
Retry sector count : 0
Damaged sector count : 0

Track 09
Filename : /Volumes/El Segundo/Rips/Sarah Vaughan - Ballads (2002) [FLAC]/09 In a Sentimental Mood.flac
Pre-gap length : 00:02:70

Track gain : -1.69 dB
Peak : 0.870239
CRC32 hash (test run) : D0D7AD01
CRC32 hash : D0D7AD01
CRC32 hash (skip zero) : 8C0096FF
AccurateRip v1 signature : BA8A1856
AccurateRip v2 signature : 58610DD0
->Accurately ripped (v1+v2, confidence 9+8/29)
Statistics
Read error : 0
Jitter error (maybe fixed) : 0
Retry sector count : 0
Damaged sector count : 0

Track 10
Filename : /Volumes/El Segundo/Rips/Sarah Vaughan - Ballads (2002) [FLAC]/10 Guess I'll Hang My Tears Out to Dry.flac
Pre-gap length : 00:01:70

Track gain : -3.78 dB
Peak : 0.782990
CRC32 hash (test run) : F57F28F8
CRC32 hash : F57F28F8
CRC32 hash (skip zero) : 4625D805
AccurateRip v1 signature : 0EA2F77F
AccurateRip v2 signature : 435A41AB
->Accurately ripped (v1+v2, confidence 9+9/30)
Statistics
Read error : 0
Jitter error (maybe fixed) : 0
Retry sector count : 0
Damaged sector count : 0

Track 11
Filename : /Volumes/El Segundo/Rips/Sarah Vaughan - Ballads (2002) [FLAC]/11 Solitude.flac
Pre-gap length : 00:02:33

Track gain : -4.14 dB
Peak : 0.887390
CRC32 hash (test run) : E04EE28B
CRC32 hash : E04EE28B
CRC32 hash (skip zero) : 611AA380
AccurateRip v1 signature : 25CD4E6D
AccurateRip v2 signature : EA0A6ED0
->Accurately ripped (v1+v2, confidence 9+9/30)
Statistics
Read error : 0
Jitter error (maybe fixed) : 0
Retry sector count : 0
Damaged sector count : 0

Track 12
Filename : /Volumes/El Segundo/Rips/Sarah Vaughan - Ballads (2002) [FLAC]/12 I Fall in Love Too Easily.flac
Pre-gap length : 00:02:20

Track gain : -3.62 dB
Peak : 0.869537
CRC32 hash (test run) : B3050507
CRC32 hash : B3050507
CRC32 hash (skip zero) : 407AC319
AccurateRip v1 signature : 725F6843
AccurateRip v2 signature : 09C3063D
->Accurately ripped (v1+v2, confidence 9+9/30)
Statistics
Read error : 0
Jitter error (maybe fixed) : 0
Retry sector count : 0
Damaged sector count : 0

Track 13
Filename : /Volumes/El Segundo/Rips/Sarah Vaughan - Ballads (2002) [FLAC]/13 If I Had You.flac
Pre-gap length : 00:03:00

Track gain : -3.57 dB
Peak : 0.870789
CRC32 hash (test run) : 8D2A0E23
CRC32 hash : 8D2A0E23
CRC32 hash (skip zero) : C799DD8C
AccurateRip v1 signature : 8E2CF560
AccurateRip v2 signature : 1C5C03BB
->Accurately ripped (v1+v2, confidence 9+9/30)
Statistics
Read error : 0
Jitter error (maybe fixed) : 0
Retry sector count : 0
Damaged sector count : 0

No errors occurred

End of status report

––-BEGIN XLD SIGNATURE––-
pcBZLHKLQbGKwPwRitn2t_0EYmFloc_ufcY6pi6E7oUKALa2.YOUCzwbID6CJNH3uvGkRKcxVoHIfqOkZfRlIR4P9E4hBgt2.G6YAjq
––-END XLD SIGNATURE––-