Tags
Language
Tags
September 2022
Su Mo Tu We Th Fr Sa
28 29 30 31 1 2 3
4 5 6 7 8 9 10
11 12 13 14 15 16 17
18 19 20 21 22 23 24
25 26 27 28 29 30 1

Rod Stewart - If We Fall in Love Tonight (1996)

Posted By: v3122
Rod Stewart - If We Fall in Love Tonight (1996)

Rod Stewart - If We Fall in Love Tonight (1996)
EAC | Flac(Image) + Cue + Log & MP3 CBR 320Kbps
Warner Bros. CDW 46452 | Canada | ~ 439 or 263 Mb | Scans(jpg) -> 4.92 Mb
Classic Rock / Soft Rock

[quoteTaking its cue from Madonna's ballad collection Something to Remember, Rod Stewart's If We Fall in Love Tonight combines several of his biggest ballads with three new songs. If We Fall in Love Tonight is targeted directly toward an older, adult contemporary audience who no longer wants to hear Stewart's harder-edged material. Which means that not only is "Maggie May" not included, but neither is "This Old Heart of Mine," since both are a bit too uptempo for this collection. Instead, the album is nothing but ballads, going back as far as "Tonight's the Night," "The First Cut Is the Deepest," "I Don't Want to Talk About It," and "You're in My Heart," but concentrating on '80s and '90s hits like "Downtown Train," "All for Love," "My Heart Can't Tell You No," "Have I Told You Lately," and "Broken Arrow." The compilation also contains rarities like the Sting and Bryan Adams collaboration "All for Love" and the Carole King cover "So Far Away," a new version of "Forever Young," a cover of Leo Sayer's "When I Need You," the James Newton Howard song "For the First Time," and the Jimmy Jam and Terry Lewis collaboration "If We Fall in Love Tonight." The new songs are good adult contemporary radio fodder, yet they pale next to his classic '70s cuts. Nevertheless, If We Fall in Love Tonight is a very enjoyable soft rock collection. It may not draw an accurate portrait of Stewart's career, but it does offer a good overview of his soft rock hits.

by Stephen Thomas Erlewine, allmusic

Rod Stewart - If We Fall in Love Tonight (1996)


Rod Stewart - If We Fall in Love Tonight (1996):

Rod Stewart - If We Fall in Love Tonight (1996)

Tracklist:

01. If We Fall In Love Tonight (Jimmy Jam & Terry Lewis) 05:41
02. For The First Time (Allen Rich, James Newton-Howard, Jud Friedman) 04:02
03. When I Need You (Albert Hammond, Carol Bayer Sager) 04:51
04. So Far Away (Carole King) 04:20
05. Have I Told You Lately (Studio Version Remix) (Van Morrison) 03:58
06. My Heart Can't Tell You No (Dennis Morgan, Simon Climie) 05:10
07. You're In My Heart (Rod Stewart) 04:28
08. First Cut Is The Deepest (Cat Stevens) 03:50
09. I Don't Want To Talk About It (Danny Whiltern) 04:50
10. Tonight's The Night (Gonna Be Alright) (Rod Stewart) 03:33
11. Sometimes When We Touch (Barry Mann, Dan Hill) 04:25
12. Downtown Train (Tom Waits) 04:37
13. Broken Arrow (Robbie Robertson) 04:21
14. Forever Young (1996) (Jim Creagan, Rod Stewart) 04:53
15. All For Love (Bryan Adams, Michael Kamen, Robert John "Mutt" Lange) 04:42

Exact Audio Copy V1.3 from 2. September 2016

EAC extraction logfile from 11. October 2017, 19:43

Rod Stewart / If We Fall in Love Tonight

Used drive : Optiarc DVD RW AD-7260S Adapter: 1 ID: 2

Read mode : Secure
Utilize accurate stream : Yes
Defeat audio cache : Yes
Make use of C2 pointers : No

Read offset correction : 48
Overread into Lead-In and Lead-Out : No
Fill up missing offset samples with silence : Yes
Delete leading and trailing silent blocks : No
Null samples used in CRC calculations : Yes
Used interface : Native Win32 interface for Win NT & 2000

Used output format : User Defined Encoder
Selected bitrate : 128 kBit/s
Quality : High
Add ID3 tag : No
Command line compressor : C:\Program Files\Exact Audio Copy\Flac\flac.exe
Additional command line options : -V -8 -T "Date=%year%" -T "Genre=%genre%" %source%


TOC of the extracted CD

Track | Start | Length | Start sector | End sector
––––––––––––––––––––––––––––-
1 | 0:00.00 | 5:40.52 | 0 | 25551
2 | 5:40.52 | 4:01.48 | 25552 | 43674
3 | 9:42.25 | 4:50.42 | 43675 | 65466
4 | 14:32.67 | 4:20.10 | 65467 | 84976
5 | 18:53.02 | 3:58.25 | 84977 | 102851
6 | 22:51.27 | 5:10.28 | 102852 | 126129
7 | 28:01.55 | 4:27.67 | 126130 | 146221
8 | 32:29.47 | 3:49.40 | 146222 | 163436
9 | 36:19.12 | 4:50.00 | 163437 | 185186
10 | 41:09.12 | 3:32.68 | 185187 | 201154
11 | 44:42.05 | 4:25.05 | 201155 | 221034
12 | 49:07.10 | 4:37.32 | 221035 | 241841
13 | 53:44.42 | 4:21.25 | 241842 | 261441
14 | 58:05.67 | 4:52.38 | 261442 | 283379
15 | 62:58.30 | 4:41.40 | 283380 | 304494


Range status and errors

Selected range

Filename M:\Новая папка\IWFiLT 1996 CAN\Rod Stewart - If We Fall in Love Tonight.wav

Peak level 96.1 %
Extraction speed 3.5 X
Range quality 100.0 %
Test CRC 7A65DA96
Copy CRC 7A65DA96
Copy OK

No errors occurred


AccurateRip summary

Track 1 accurately ripped (confidence 24) [ACE7CF4D] (AR v2)
Track 2 accurately ripped (confidence 23) [11255223] (AR v2)
Track 3 accurately ripped (confidence 23) [041904DB] (AR v2)
Track 4 accurately ripped (confidence 24) [5EDA414F] (AR v2)
Track 5 accurately ripped (confidence 24) [DDC64F3E] (AR v2)
Track 6 accurately ripped (confidence 24) [07DE4C63] (AR v2)
Track 7 accurately ripped (confidence 24) [82395861] (AR v2)
Track 8 accurately ripped (confidence 24) [9C8D5ECD] (AR v2)
Track 9 accurately ripped (confidence 24) [47057878] (AR v2)
Track 10 accurately ripped (confidence 24) [468E7D24] (AR v2)
Track 11 accurately ripped (confidence 24) [966F9AC1] (AR v2)
Track 12 accurately ripped (confidence 24) [357AC152] (AR v2)
Track 13 accurately ripped (confidence 24) [A5D2ACB9] (AR v2)
Track 14 accurately ripped (confidence 24) [6AC13620] (AR v2)
Track 15 accurately ripped (confidence 22) [52FB8946] (AR v2)

All tracks accurately ripped

End of status report

–– CUETools DB Plugin V2.1.6

[CTDB TOCID: w41RFt5f92mKIy1zJ.S5JfQyKZ0-] found
Submit result: w41RFt5f92mKIy1zJ.S5JfQyKZ0- has been confirmed
Track | CTDB Status
1 | (45/47) Accurately ripped
2 | (46/47) Accurately ripped
3 | (46/47) Accurately ripped
4 | (45/47) Accurately ripped
5 | (46/47) Accurately ripped
6 | (46/47) Accurately ripped
7 | (44/47) Accurately ripped
8 | (46/47) Accurately ripped
9 | (46/47) Accurately ripped
10 | (46/47) Accurately ripped
11 | (46/47) Accurately ripped
12 | (46/47) Accurately ripped
13 | (46/47) Accurately ripped
14 | (44/47) Accurately ripped
15 | (46/47) Accurately ripped


==== Log checksum 705FFFA4E28EC024445F59CE3194477DDCD44D2AD10279B2AE7C38304DEFA3B2 ====



[CUETools log; Date: 01.11.2017 12:34:27; Version: 2.1.5]
[CTDB TOCID: w41RFt5f92mKIy1zJ.S5JfQyKZ0-] found.
Track | CTDB Status
1 | (47/49) Accurately ripped
2 | (48/49) Accurately ripped
3 | (48/49) Accurately ripped
4 | (47/49) Accurately ripped
5 | (48/49) Accurately ripped
6 | (48/49) Accurately ripped
7 | (46/49) Accurately ripped
8 | (48/49) Accurately ripped
9 | (48/49) Accurately ripped
10 | (48/49) Accurately ripped
11 | (48/49) Accurately ripped
12 | (48/49) Accurately ripped
13 | (48/49) Accurately ripped
14 | (46/49) Accurately ripped
15 | (48/49) Accurately ripped
[AccurateRip ID: 00257d10-01a5f4f3-e40fdb0f] found.
Track [ CRC | V2 ] Status
01 [aeef018f|ace7cf4d] (29+24/55) Accurately ripped
02 [88864d53|11255223] (29+23/54) Accurately ripped
03 [6f23a24a|041904db] (29+23/54) Accurately ripped
04 [ca4b1c5f|5eda414f] (29+24/55) Accurately ripped
05 [504ae81d|ddc64f3e] (29+24/55) Accurately ripped
06 [6904c299|07de4c63] (28+24/54) Accurately ripped
07 [8c7e55e7|82395861] (29+24/55) Accurately ripped
08 [60dca375|9c8d5ecd] (29+24/55) Accurately ripped
09 [33cbf614|47057878] (29+24/55) Accurately ripped
10 [6985ee78|468e7d24] (29+24/55) Accurately ripped
11 [0bd326e6|966f9ac1] (29+24/55) Accurately ripped
12 [123df1c8|357ac152] (29+24/55) Accurately ripped
13 [bcd180f2|a5d2acb9] (29+24/55) Accurately ripped
14 [a2e103f3|6ac13620] (29+24/55) Accurately ripped
15 [f4ad4226|52fb8946] (27+22/51) Accurately ripped
Offsetted by 12:
01 [f0fb3f46] (00/55) No match (V2 was not tested)
02 [65dc37f0] (00/54) No match (V2 was not tested)
03 [ed44dd24] (00/54) No match (V2 was not tested)
04 [305a08c2] (00/55) No match (V2 was not tested)
05 [298b8f5a] (00/55) No match (V2 was not tested)
06 [44ec17b0] (00/54) No match (V2 was not tested)
07 [287724e6] (00/55) No match (V2 was not tested)
08 [deb2e625] (00/55) No match (V2 was not tested)
09 [9f62005f] (00/55) No match (V2 was not tested)
10 [82c03bb5] (00/55) No match (V2 was not tested)
11 [8ad94e7c] (00/55) No match (V2 was not tested)
12 [d568f829] (00/55) No match (V2 was not tested)
13 [c3646724] (00/55) No match (V2 was not tested)
14 [619fe505] (00/55) No match (V2 was not tested)
15 [2a28e4bf] (00/51) No match (V2 was not tested)

Track Peak [ CRC32 ] [W/O NULL] [ LOG ]
– 96,1 [7A65DA96] [46C92243] CRC32
01 85,7 [441FB977] [7B7092A3]
02 85,7 [53F8F7F2] [23BC2CF8]
03 96,1 [AA953AB8] [AFD50543]
04 68,0 [790C658B] [F753FD07]
05 85,7 [46923CCD] [8224C32B]
06 76,3 [F9DE5B88] [35450588]
07 96,1 [BA422A1B] [82F1226D]
08 96,1 [12027149] [045B7627]
09 85,7 [99906141] [7E7B1F71]
10 96,1 [EFC20A33] [A2F9DFAE]
11 96,1 [B590806C] [88FA91A5]
12 90,8 [6CA18C6F] [EEE38DE0]
13 96,1 [E8511E68] [EE5B3ABF]
14 96,1 [F04796E3] [A3BB0FF2]
15 70,9 [63DB10E6] [C3F44FB3]


Rod Stewart - If We Fall in Love Tonight (1996)

All thanks go to Slava Z

Rod Stewart in my Blog

Download Rod Stewart - If We Fall in Love Tonight (1996):