Tags
Language
Tags

Nikolaj Znaider, Riccardo Chailly, Gewandhausorchester - Beethoven, Mendelssohn: Violin Concertos (2015) [Blu-Ray]

Posted By: Vilboa
Nikolaj Znaider, Riccardo Chailly, Gewandhausorchester - Beethoven, Mendelssohn: Violin Concertos  (2015) [Blu-Ray]

Nikolaj Znaider, Riccardo Chailly, Gewandhausorchester - Beethoven, Mendelssohn: Violin Concertos (2015) [Blu-Ray]
BluRay | BDMV | MPEG-4 AVC Video / 22969 kbps / 1080i / 29,970 fps | 84 min | 21,9 Gb
Audio1: LPCM Audio / 2.0 / 24-bit | Audio2: DTS-HD Master Audio / 5.1 / 48 kHz / 4161 kbps / 24-bit
––––––
BluRay-rip1 | MKV 1920x1080 / 5000 kbps / 29,970 fps | 84 min | 5,23 Gb
BluRay-rip2 | MKV 1280x720 / 1989 kbps / 29,970 fps | 84 min | 3,44 Gb
Audio: PCM / 2ch / 48.0 KHz / 24 bits | DTS / 6ch / 48.0 KHz / 24 bits
Classical | Accentus Music

The Daily Telegraph describes Nikolaj Znaider as "the most stimulating young musician playing today, drawing on musical intelligence, perception and dynamism to give performances of rare intensity." This release presents one of the world's foremost violinists playing two landmark concertos, accompanied by the Leipzig Gewandhausorchester "one of Europe's finest orchestras" (The Guardian) under the baton of its music director Riccardo Chailly.
It was the Gewandhausorchester that, in 1845, first performed Mendelssohn's Concerto for Violin and Orchestra in E minor. Mendelssohn himself had conducted Beethoven's Violin Concerto in D major several times and helped this milestone in the history of music to its great breakthrough.

Cast:
Nikolaj Znaider, violin
Gewandhausorchester Leipzig
Riccardo Chailly, conductor

Track List:
01. Opening
Ludwig van Beethoven - Concerto for Violin and Orchestra in D major, Op. 61:
02. I Allegro ma non troppo
03. II Larghetto
04. III Rondo. Allegro
Johann Sebastian Bach - Partita No.1 in B minor:
05. Sarabande
Felix Mendelssohn Bartholdy - Concerto for Violin and Orchestra in E minor, Op. 64:
06. I Allegro molto apassionato
07. II Andante
08. III Allegretto non troppo - Allegro mollo vivace
Johann Sebastian Bach - Partita No.2 in D minor:
09. Sarabande
10. Credits


Disc Title: NIKOLAJ ZNAIDER PLAYS BEETHOVEN AND MENDELSSOHN
Disc Size: 23 550 838 375 bytes
Protection: AACS
BD-Java: Yes
Playlist: 00003.MPLS
Size: 19 786 945 920 bytes
Length: 1:24:49.484
Total Bitrate: 31,10 Mbps
Video: MPEG-4 AVC Video / 22969 kbps / 1080i / 29,970 fps / 16:9 / High Profile 4.1
Audio: German / DTS-HD Master Audio / 5.1 / 48 kHz / 4161 kbps / 24-bit (DTS Core: 5.1 / 48 kHz / 1509 kbps / 24-bit)
Audio: German / LPCM Audio / 2.0 / 48 kHz / 2304 kbps / 24-bit


General
Unique ID : 182536108065974412787286441372467974795 (0x89532CF71C725EDDA50D4A5B76D9D28B)
Complete name : C:\Beethoven_and_Mendelssohn.mkv
Format : Matroska
Format version : Version 2
File size : 5.23 GiB
Duration : 1h 24mn
Overall bit rate : 8 834 Kbps
Movie name : Beethoven_and_Mendelssohn
Encoded date : UTC 2022-06-17 20:47:04
Writing application : DVDFab 9.1.6.8
Writing library : libebml v0.7.8 + libmatroska v0.8.1

Video
ID : 1
Format : AVC
Format/Info : Advanced Video Codec
Format profile : High@L4.1
Format settings, CABAC : Yes
Format settings, ReFrames : 2 frames
Codec ID : V_MPEG4/ISO/AVC
Duration : 1h 24mn
Nominal bit rate : 5 000 Kbps
Width : 1 920 pixels
Height : 1 080 pixels
Display aspect ratio : 16:9
Frame rate mode : Constant
Frame rate : 29.970 fps
Color space : YUV
Chroma subsampling : 4:2:0
Bit depth : 8 bits
Scan type : Progressive
Bits/(Pixel*Frame) : 0.080
Writing library : x264 core 142
Encoding settings : cabac=1 / ref=1 / deblock=1:-1:-1 / analyse=0x3:0 / me=hex / subme=5 / psy=0 / mixed_ref=0 / me_range=16 / chroma_me=1 / trellis=0 / 8x8dct=1 / cqm=0 / deadzone=21,11 / fast_pskip=1 / chroma_qp_offset=0 / threads=8 / lookahead_threads=2 / sliced_threads=0 / nr=0 / decimate=1 / interlaced=0 / bluray_compat=0 / constrained_intra=0 / bframes=2 / b_pyramid=0 / b_adapt=1 / b_bias=0 / direct=1 / weightb=1 / open_gop=0 / weightp=0 / keyint=24 / keyint_min=13 / scenecut=40 / intra_refresh=0 / rc=abr / mbtree=0 / bitrate=5000 / ratetol=1.0 / qcomp=0.60 / qpmin=0 / qpmax=69 / qpstep=4 / ip_ratio=1.40 / pb_ratio=1.30 / aq=1:1.00
Default : Yes
Forced : No
Color primaries : BT.709
Transfer characteristics : BT.709
Matrix coefficients : BT.709
Color range : Limited

Audio #1
ID : 2
Format : DTS
Format/Info : Digital Theater Systems
Mode : 16
Format settings, Endianness : Big
Codec ID : A_DTS
Duration : 1h 24mn
Bit rate mode : Constant
Bit rate : 1 509 Kbps
Channel(s) : 6 channels
Channel positions : Front: L C R, Side: L R, LFE
Sampling rate : 48.0 KHz
Bit depth : 24 bits
Compression mode : Lossy
Stream size : 915 MiB (17%)
Language : German
Default : Yes
Forced : No

Audio #2
ID : 3
Format : PCM
Codec ID : A_PCM/INT/LIT
Duration : 1h 24mn
Bit rate mode : Constant
Channel(s) : 2 channels
Sampling rate : 48.0 KHz
Bit depth : 24 bits
Language : German
Default : No
Forced : No

Menu
00:00:00.000 : en:Chapter 01
00:01:15.308 : en:Chapter 02
00:25:05.637 : en:Chapter 03
00:34:02.907 : en:Chapter 04
00:45:28.292 : en:Chapter 05
00:50:12.909 : en:Chapter 06
01:03:10.353 : en:Chapter 07
01:10:44.406 : en:Chapter 08
01:18:51.727 : en:Chapter 09
01:23:30.205 : en:Chapter 10
–––––––––––––––––––––––––––––––––––
General
Unique ID : 245279070556156238866220793674860056093 (0xB88707DA17569CB3B7A7E9B823B7CE1D)
Complete name : C:\Beethoven_and_Mendelssohn.mkv
Format : Matroska
Format version : Version 2
File size : 3.44 GiB
Duration : 1h 24mn
Overall bit rate : 5 814 Kbps
Movie name : Beethoven_and_Mendelssohn
Encoded date : UTC 2022-06-17 20:02:11
Writing application : DVDFab 9.1.6.8
Writing library : libebml v0.7.8 + libmatroska v0.8.1

Video
ID : 1
Format : AVC
Format/Info : Advanced Video Codec
Format profile : High@L4.1
Format settings, CABAC : Yes
Format settings, ReFrames : 2 frames
Codec ID : V_MPEG4/ISO/AVC
Duration : 1h 24mn
Nominal bit rate : 1 989 Kbps
Width : 1 280 pixels
Height : 720 pixels
Display aspect ratio : 16:9
Frame rate mode : Constant
Frame rate : 29.970 fps
Color space : YUV
Chroma subsampling : 4:2:0
Bit depth : 8 bits
Scan type : Progressive
Bits/(Pixel*Frame) : 0.072
Writing library : x264 core 142
Encoding settings : cabac=1 / ref=1 / deblock=1:-1:-1 / analyse=0x3:0 / me=hex / subme=5 / psy=0 / mixed_ref=0 / me_range=16 / chroma_me=1 / trellis=0 / 8x8dct=1 / cqm=0 / deadzone=21,11 / fast_pskip=1 / chroma_qp_offset=0 / threads=8 / lookahead_threads=2 / sliced_threads=0 / nr=0 / decimate=1 / interlaced=0 / bluray_compat=0 / constrained_intra=0 / bframes=2 / b_pyramid=0 / b_adapt=1 / b_bias=0 / direct=1 / weightb=1 / open_gop=0 / weightp=0 / keyint=24 / keyint_min=13 / scenecut=40 / intra_refresh=0 / rc=abr / mbtree=0 / bitrate=1989 / ratetol=1.0 / qcomp=0.60 / qpmin=0 / qpmax=69 / qpstep=4 / ip_ratio=1.40 / pb_ratio=1.30 / aq=1:1.00
Default : Yes
Forced : No
Color primaries : BT.709
Transfer characteristics : BT.709
Matrix coefficients : BT.709
Color range : Limited

Audio #1
ID : 2
Format : DTS
Format/Info : Digital Theater Systems
Mode : 16
Format settings, Endianness : Big
Codec ID : A_DTS
Duration : 1h 24mn
Bit rate mode : Constant
Bit rate : 1 509 Kbps
Channel(s) : 6 channels
Channel positions : Front: L C R, Side: L R, LFE
Sampling rate : 48.0 KHz
Bit depth : 24 bits
Compression mode : Lossy
Stream size : 915 MiB (26%)
Language : German
Default : Yes
Forced : No

Audio #2
ID : 3
Format : PCM
Codec ID : A_PCM/INT/LIT
Duration : 1h 24mn
Bit rate mode : Constant
Channel(s) : 2 channels
Sampling rate : 48.0 KHz
Bit depth : 24 bits
Language : German
Default : No
Forced : No

Menu
00:00:00.000 : en:Chapter 01
00:01:15.308 : en:Chapter 02
00:25:05.637 : en:Chapter 03
00:34:02.907 : en:Chapter 04
00:45:28.292 : en:Chapter 05
00:50:12.909 : en:Chapter 06
01:03:10.353 : en:Chapter 07
01:10:44.406 : en:Chapter 08
01:18:51.727 : en:Chapter 09
01:23:30.205 : en:Chapter 10

All screenshots taken from BDRip

Nikolaj Znaider, Riccardo Chailly, Gewandhausorchester - Beethoven, Mendelssohn: Violin Concertos  (2015) [Blu-Ray]