Tags
Language
Tags
July 2024
Su Mo Tu We Th Fr Sa
30 1 2 3 4 5 6
7 8 9 10 11 12 13
14 15 16 17 18 19 20
21 22 23 24 25 26 27
28 29 30 31 1 2 3

VA - Repo Man (Music From The Original Motion Picture Soundtrack) (1984)

Posted By: Rtax
VA - Repo Man (Music From The Original Motion Picture Soundtrack) (1984)

VA - Repo Man (Music From The Original Motion Picture Soundtrack) (1984)
EAC Rip | FLAC (tracks, cue, log, scans) - 232 MB | MP3 CBR 320 kbps - 103 MB
37:48 | Rock, Stage & Screen, Soundtrack, Punk | Label: MCA

Repo Man Review by Stephen Cook
As a backdrop to his fast-paced and cartoon-like debut chronicling the wayward life of Los Angles repo men, punk auteur Alex Cox did well to use music from the city's early-'80s hardcore punk scene; the tongue-in-cheek histrionics of Fear and the Circle Jerks (who appear in the movie as a punk band-turned-lounge act) fit flush with the film's mix of displaced suburban youth, gruff, and wizened repo veterans, Mexican hoods, industrial-skid row scenery, and irradiated UFO conspiracy theorists. Along with tracks by punk godfathers Iggy Pop ("Repo Man") and Jonathan Richman (writer of "Pablo Picasso"), the album's additional L.A. hardcore highlights include Black Flag's "TV Party," Suicidal Tendencies's "Institutionalized," and the Plugz's "Hombre Secreto (Secret Agent Man)." The Plugz's noir-ish, punk en espanol tracks, in fact, formed the trademark sound of the film. One of the first soundtracks to use pre-existing band cuts in lieu of an original score, Repo Man is a fine, if not terribly thorough document of L.A.'s punk heyday.

Tracklist
1 Iggy Pop– Repo Man 5:09
2 Black Flag– T.V. Party 3:44
3 Suicidal Tendencies– Institutionalized 3:48
4 Circle Jerks– Coup D'Etat 2:58
5 The Plugz– El Clavo Y La Cruz 2:55
6 Burning Sensations– Pablo Picasso 3:58
7 Fear – Let's Have A War 2:17
8 Circle Jerks– When The Shit Hits The Fan 3:10
9 The Plugz– Hombre Secreto (Secret Agent Man) 1:53
10 Juicy Bananas– Bad Man 4:24
11 The Plugz– Reel Ten 3:09
Exact Audio Copy V1.0 beta 4 from 7. December 2014

EAC extraction logfile from 23. February 2022, 14:57

- / Repo Man (Soundtrack)

Used drive : PIONEER BD-RW BDR-XD05 Adapter: 1 ID: 0

Read mode : Secure
Utilize accurate stream : Yes
Defeat audio cache : Yes
Make use of C2 pointers : No

Read offset correction : 667
Overread into Lead-In and Lead-Out : No
Fill up missing offset samples with silence : Yes
Delete leading and trailing silent blocks : No
Null samples used in CRC calculations : Yes
Used interface : Native Win32 interface for Win NT & 2000
Gap handling : Appended to previous track

Used output format : User Defined Encoder
Selected bitrate : 1024 kBit/s
Quality : High
Add ID3 tag : No
Command line compressor : C:\Program Files (x86)\Exact Audio Copy\Flac\flac.exe
Additional command line options : -8 -V -T "ARTIST=%artist%" -T "TITLE=%title%" -T "ALBUM=%albumtitle%" -T "DATE=%year%" -T "TRACKNUMBER=%tracknr%" -T "GENRE=%genre%" -T "PERFORMER=%albuminterpret%" -T "COMPOSER=%composer%" %haslyrics%–tag-from-file=LYRICS="%lyricsfile%"%haslyrics% -T "ALBUMARTIST=%albumartist%" -T "DISCNUMBER=%cdnumber%" -T "TOTALDISCS=%totalcds%" -T "TOTALTRACKS=%numtracks%" -T "COMMENT=%comment%" %source% -o %dest%


TOC of the extracted CD

Track | Start | Length | Start sector | End sector
––––––––––––––––––––––––––––-
1 | 0:00.00 | 5:13.10 | 0 | 23484
2 | 5:13.10 | 3:52.57 | 23485 | 40941
3 | 9:05.67 | 3:50.45 | 40942 | 58236
4 | 12:56.37 | 2:02.15 | 58237 | 67401
5 | 14:58.52 | 2:58.02 | 67402 | 80753
6 | 17:56.54 | 4:03.23 | 80754 | 99001
7 | 22:00.02 | 2:30.58 | 99002 | 110309
8 | 24:30.60 | 3:13.25 | 110310 | 124809
9 | 27:44.10 | 1:48.42 | 124810 | 132951
10 | 29:32.52 | 5:03.53 | 132952 | 155729
11 | 34:36.30 | 3:11.20 | 155730 | 170074


Track 1

Filename D:\~15-2022\Soundtrack-Repo Man-F\Iggy Pop-01-Repo Man.wav

Pre-gap length 0:00:02.00

Peak level 99.0 %
Extraction speed 3.1 X
Track quality 100.0 %
Test CRC F6A163F5
Copy CRC F6A163F5
Accurately ripped (confidence 5) [D76C483F] (AR v1)
Copy OK

Track 2

Filename D:\~15-2022\Soundtrack-Repo Man-F\Black Flag-02-TV Party.wav

Pre-gap length 0:00:01.77

Peak level 77.1 %
Extraction speed 3.0 X
Track quality 99.9 %
Test CRC 862A1210
Copy CRC 862A1210
Accurately ripped (confidence 5) [0F6C6260] (AR v1)
Copy OK

Track 3

Filename D:\~15-2022\Soundtrack-Repo Man-F\Suicidal Tendencies-03-Institutionalized.wav

Pre-gap length 0:00:01.73

Peak level 80.6 %
Extraction speed 3.6 X
Track quality 100.0 %
Test CRC 79F52114
Copy CRC 79F52114
Accurately ripped (confidence 5) [A2CD6DA8] (AR v1)
Copy OK

Track 4

Filename D:\~15-2022\Soundtrack-Repo Man-F\Circle Jerks-04-Coup d'État.wav

Pre-gap length 0:00:01.26

Peak level 72.3 %
Extraction speed 3.3 X
Track quality 100.0 %
Test CRC 1AEA4054
Copy CRC 1AEA4054
Accurately ripped (confidence 5) [0062622D] (AR v1)
Copy OK

Track 5

Filename D:\~15-2022\Soundtrack-Repo Man-F\The Plugz-05-El Clavo y la Cruz.wav

Pre-gap length 0:00:02.36

Peak level 72.9 %
Extraction speed 3.8 X
Track quality 100.0 %
Test CRC 3FD53A99
Copy CRC 3FD53A99
Accurately ripped (confidence 5) [C7274E50] (AR v1)
Copy OK

Track 6

Filename D:\~15-2022\Soundtrack-Repo Man-F\Burning Sensations-06-Pablo Picasso.wav

Pre-gap length 0:00:01.65

Peak level 92.7 %
Extraction speed 4.2 X
Track quality 100.0 %
Test CRC 8070FF94
Copy CRC 8070FF94
Accurately ripped (confidence 5) [C59D0DEE] (AR v1)
Copy OK

Track 7

Filename D:\~15-2022\Soundtrack-Repo Man-F\Fear-07-Let's Have a War.wav

Pre-gap length 0:00:01.86

Peak level 84.3 %
Extraction speed 4.0 X
Track quality 100.0 %
Test CRC EA1CEEB9
Copy CRC EA1CEEB9
Accurately ripped (confidence 5) [81C9299E] (AR v1)
Copy OK

Track 8

Filename D:\~15-2022\Soundtrack-Repo Man-F\Circle Jerks-08-When the Shit Hits the Fan.wav

Pre-gap length 0:00:01.46

Peak level 84.7 %
Extraction speed 4.3 X
Track quality 100.0 %
Test CRC 945C065C
Copy CRC 945C065C
Accurately ripped (confidence 5) [B102127E] (AR v1)
Copy OK

Track 9

Filename D:\~15-2022\Soundtrack-Repo Man-F\The Plugz-09-Hombre Secreto (Secret Agent Man).wav

Pre-gap length 0:00:01.64

Peak level 76.5 %
Extraction speed 3.2 X
Track quality 99.9 %
Test CRC 859FCF90
Copy CRC 859FCF90
Accurately ripped (confidence 6) [843C8DD3] (AR v1)
Copy OK

Track 10

Filename D:\~15-2022\Soundtrack-Repo Man-F\Juicy Bananas-10-Bad Man.wav

Pre-gap length 0:00:01.56

Peak level 96.3 %
Extraction speed 4.9 X
Track quality 100.0 %
Test CRC 102EFD0F
Copy CRC 102EFD0F
Accurately ripped (confidence 5) [037FC2F5] (AR v1)
Copy OK

Track 11

Filename D:\~15-2022\Soundtrack-Repo Man-F\The Plugz-11-Reel Ten.wav

Pre-gap length 0:00:03.33

Peak level 74.8 %
Extraction speed 4.1 X
Track quality 99.9 %
Test CRC F1792ACE
Copy CRC F1792ACE
Accurately ripped (confidence 6) [2A8D929C] (AR v1)
Copy OK


All tracks accurately ripped

No errors occurred

End of status report

–– CUETools DB Plugin V2.1.4

[CTDB TOCID: vIOBWkJLeXXFIqarw4hgQE2QXzU-] found
Submit result: vIOBWkJLeXXFIqarw4hgQE2QXzU- has been confirmed
Track | CTDB Status
1 | (83/87) Accurately ripped
2 | (84/87) Accurately ripped
3 | (85/87) Accurately ripped
4 | (86/87) Accurately ripped
5 | (85/87) Accurately ripped
6 | (86/87) Accurately ripped
7 | (85/87) Accurately ripped
8 | (84/87) Accurately ripped
9 | (86/87) Accurately ripped
10 | (86/87) Accurately ripped
11 | (86/87) Accurately ripped


==== Log checksum 1597D81B9C96F122EABFE8EB0FC01B885194D68CBAD69B7F6003F50958F60BF3 ====