Tags
Language
Tags
July 2024
Su Mo Tu We Th Fr Sa
30 1 2 3 4 5 6
7 8 9 10 11 12 13
14 15 16 17 18 19 20
21 22 23 24 25 26 27
28 29 30 31 1 2 3

Alcatrazz - Take No Prisoners (2023)

Posted By: popsakov
Alcatrazz - Take No Prisoners (2023)

Alcatrazz - Take No Prisoners (2023)
EAC Rip | FLAC (Img) + Cue + Log ~ 452 Mb | MP3 CBR320 ~ 192 Mb
Full Scans | 00:47:24 | RAR 5% Recovery
Hard Rock, Heavy Metal | Silver Lining Music #SLM121P01

Alcatrazz are determined to make up for lost time, roaring forwards at warp factor 10 to deliver Take No Prisoners, their sixth studio album and the third in three years. Comprising of ten cracking, charismatic tracks, with each containing the unique fusion of classic American rock with the full grain hard-rocking attitude of British metal, Take No Prisoners sees Alcatrazz energetically soaring and exploring melodic progression with road-warrior riffs. Lead single and video "Don't Get Mad… Get Even" sees the band collaborating with the legendary Girlschool in a full-force, head-banging fist-pumper, while "Little Viper" rides a scything guitar into a thunderous, Dio-like assault. The band also show their calmer, more expansive side with the epic "Strangers", but when an album finishes at the burn point of "Bring On The Rawk", there can be no question that Alcatrazz's collective boot is repeatedly kicking serious ass!!! Comprised of Doogie White (vocals), Joe Stump (guitars), Jimmy Waldo (keyboards), Gary Shea (bass) and Larry Paterson (drums), and with Giles Lavery and Waldo producing, Take No Prisoners is a loudly, and proudly classic rock album which draws on the Alcatrazz traditions of technically excellent screaming guitars, thunderous rhythm and the sort of vocals and overall aura that evoke prime Dio and Rainbow. And, of course, a primed and fully-tuned up Alcatrazz, whose career is fast taking on Benjamin Button proportions.

***************

Track List:

01. Little Viper [4:40]
02. Dont Get Mad…Get Even [3:58]
03. Battlelines [3:59]
04. Strangers [5:41]
05. Gates Of Destiny [5:03]
06. Alcatrazz [4:15]
07. Holy Roller (Love's Temple) [4:09]
08. Power In Numbers [5:28]
09. Salute The Colours [5:38]
10. Bring On The Rawk [4:38]

Exact Audio Copy V1.1 from 23. June 2015

EAC extraction logfile from 25. May 2023, 22:41

Alcatrazz / Take No Prisoners

Used drive : MATSHITADVD+-RW SW830 Adapter: 1 ID: 0

Read mode : Secure
Utilize accurate stream : Yes
Defeat audio cache : Yes
Make use of C2 pointers : No

Read offset correction : 6
Overread into Lead-In and Lead-Out : No
Fill up missing offset samples with silence : Yes
Delete leading and trailing silent blocks : No
Null samples used in CRC calculations : Yes
Used interface : Native Win32 interface for Win NT & 2000

Used output format : User Defined Encoder
Selected bitrate : 768 kBit/s
Quality : High
Add ID3 tag : No
Command line compressor : C:\Program Files (x86)\Exact Audio Copy\FLAC\FLAC.EXE
Additional command line options : -6 -V -T "ARTIST=%artist%" -T "TITLE=%title%" -T "ALBUM=%albumtitle%" -T "DATE=%year%" -T "TRACKNUMBER=%tracknr%" -T "GENRE=%genre%" -T "COMMENT=%comment%" -T "BAND=%albuminterpret%" -T "ALBUMARTIST=%albuminterpret%" -T "COMPOSER=%composer%" %haslyrics%–tag-from-file=LYRICS="%lyricsfile%"%haslyrics% -T "DISCNUMBER=%cdnumber%" -T "TOTALDISCS=%totalcds%" -T "TOTALTRACKS=%numtracks%" %hascover%–picture="%coverfile%"%hascover% %source% -o %dest%


TOC of the extracted CD

Track | Start | Length | Start sector | End sector
––––––––––––––––––––––––––––-
1 | 0:00.00 | 4:39.65 | 0 | 20989
2 | 4:39.65 | 3:57.12 | 20990 | 38776
3 | 8:37.02 | 3:58.47 | 38777 | 56673
4 | 12:35.49 | 5:40.44 | 56674 | 82217
5 | 18:16.18 | 5:02.24 | 82218 | 104891
6 | 23:18.42 | 4:14.54 | 104892 | 123995
7 | 27:33.21 | 4:08.24 | 123996 | 142619
8 | 31:41.45 | 5:27.31 | 142620 | 167175
9 | 37:09.01 | 5:37.05 | 167176 | 192455
10 | 42:46.06 | 4:37.35 | 192456 | 213265


Range status and errors

Selected range

Filename C:\Users\Boris\Desktop\lossless\lctrzz23\Alcatrazz - Take No Prisoners.wav

Peak level 100.0 %
Extraction speed 6.7 X
Range quality 99.9 %
Test CRC 48924500
Copy CRC 48924500
Copy OK

No errors occurred


AccurateRip summary

Track 1 not present in database
Track 2 not present in database
Track 3 not present in database
Track 4 not present in database
Track 5 not present in database
Track 6 not present in database
Track 7 not present in database
Track 8 not present in database
Track 9 not present in database
Track 10 not present in database

None of the tracks are present in the AccurateRip database

End of status report

–– CUETools DB Plugin V2.1.6

[CTDB TOCID: 6kefMHWynCTRjqZo1jo7RNNHbww-] found
Submit result: 6kefMHWynCTRjqZo1jo7RNNHbww- has been confirmed
Track | CTDB Status
1 | (2/2) Accurately ripped
2 | (2/2) Accurately ripped
3 | (2/2) Accurately ripped
4 | (2/2) Accurately ripped
5 | (2/2) Accurately ripped
6 | (2/2) Accurately ripped
7 | (2/2) Accurately ripped
8 | (2/2) Accurately ripped
9 | (2/2) Accurately ripped
10 | (2/2) Accurately ripped


==== Log checksum 6E86AAC8DD3434989E8058864C86659437F9942715DC6F7313896CF3EE50DBA0 ====

All thanks go to Boris1

>>> Alcatrazz in my Blog <<<

DOWNLOAD: