Tags
Language
Tags
February 2024
Su Mo Tu We Th Fr Sa
28 29 30 31 1 2 3
4 5 6 7 8 9 10
11 12 13 14 15 16 17
18 19 20 21 22 23 24
25 26 27 28 29 1 2
Attention❗ To save your time, in order to download anything on this site, you must be registered 👉 HERE. If you do not have a registration yet, it is better to do it right away. ✌

( • )( • ) ( ͡⚆ ͜ʖ ͡⚆ ) (‿ˠ‿)
SpicyMags.xyz

VA - Sounds of Pamoja (2021) [Official Digital Download]

Posted By: delpotro
VA - Sounds of Pamoja (2021) [Official Digital Download]

VA - Sounds of Pamoja (2021)
FLAC (tracks) 24-bit/44,1 kHz | Front Cover | Time - 79:08 minutes | 1,01 GB
Electronic, World, Afrofuturism | Label: Nyege Nyege Tapes, Official Digital Download

"Sounds of Pamoja" is Nyege Nyege Tapes' latest foray into the world of Tanzanian Singeli, the breakneck dance strain that's quickly moved from Dar es Salaam throughout the world. Following "Sounds of Sisso", a compilation that focused mostly on the Tanzanian capital's Sisso Studios, this set highlights recordings from Duke's Pamoja Records. And while its predecessor brought attention to the producers, "Sounds of Pamoja" showcases the wide variety of MC talent under the Pamoja Records umbrella, with production mostly handled by Duke.

Tanzania is a country of young people - almost half of its population is under 15 years old - and singeli is a young genre. Duke started making music when he was 13 years old, and by the time he was 18 he had opened the Pamoja Records studio. He's joined on the compilation by a talented cast of young local talent: 20 year old Pirato MC, 19 year old Dogo Kibo, 20 year old MC Kuke, Dogo Lizzy, MC Dinho, MC Kidene and MCZO, the versatile rapper who accompanied Duke on a selection of global tour dates.

The music is fresh and unpredictable, switching beats every few bars and rattling through hyper-local dance styles with jagged, joyful ease. But it's the MCs that push "Sounds of Pamoja" to the next level, capitalizing on the vitality of Dar es Salaam's musical landscape as they trade bars, switch flows and somehow keep up with Duke's lightning-fast productions. It's breathtakingly unique dance music that recalls the youthful spirit of Detroit techno or footwork, with rapid body movement, social combustion and tongue-twisting lyrical one-upmanship guiding the rudder.

Tracklist:
1.01 - Dogo Kibo - Pigo La Moyo (8:17)
1.02 - Dogo Lizzy - Nakupenda (7:56)
1.03 - Dogo Lizzy - Angekuwepo (6:19)
1.04 - Mc Dinho - Kamatia Chini (6:21)
1.05 - MC Kono - Il Jini Song Wapi (9:20)
1.06 - MC Kuke - Kwa Ajiri Yao (5:53)
1.07 - MC Kuke - Sherehe (5:04)
1.08 - MC Pilato, McZo - Ganja (8:15)
1.09 - MC Pilato - Mama Ashura (5:48)
1.10 - MC Pilato - Wamenichoma (7:07)
1.11 - McZo - Ushauri Wa Bure (8:50)

foobar2000 1.4.1 / Dynamic Range Meter 1.1.1
log date: 2023-12-03 18:40:36

––––––––––––––––––––––––––––––––––––––––
Analyzed: Dogo Kibo / Sounds of Pamoja (1)
Dogo Lizzy / Sounds of Pamoja (2-3)
MC Dinho / Sounds of Pamoja (4)
MC Kono / Sounds of Pamoja (5)
MC Kuke / Sounds of Pamoja (6-7)
MC Pilato / Sounds of Pamoja (8-10)
McZo / Sounds of Pamoja (11)
––––––––––––––––––––––––––––––––––––––––

DR Peak RMS Duration Track
––––––––––––––––––––––––––––––––––––––––
DR6 -0.30 dB -7.12 dB 8:17 01-Pigo La Moyo
DR5 -0.30 dB -6.93 dB 7:56 02-Nakupenda
DR5 -0.30 dB -6.88 dB 6:19 03-Angekuwepo
DR6 -0.30 dB -7.65 dB 6:21 04-Kamatia Chini
DR6 -0.30 dB -6.98 dB 9:20 05-Il Jini Song Wapi
DR5 -0.30 dB -6.62 dB 5:53 06-Kwa Ajiri Yao
DR6 -0.30 dB -6.99 dB 5:04 07-Sherehe
DR6 -0.30 dB -7.70 dB 8:15 08-Ganja
DR7 -0.30 dB -7.83 dB 5:48 09-Mama Ashura
DR5 -0.30 dB -6.64 dB 7:07 10-Wamenichoma
DR4 -0.30 dB -6.25 dB 8:50 11-Ushauri Wa Bure
––––––––––––––––––––––––––––––––––––––––

Number of tracks: 11
Official DR value: DR6

Samplerate: 44100 Hz
Channels: 2
Bits per sample: 24
Bitrate: 1786 kbps
Codec: FLAC
================================================================================


Thanks to the Original customer!