Tags
Language
Tags

Maggie Rogers - Notes From The Archive: Recordings 2011-2016 (With Commentary) (2020) [Official Digital Download 24/96]

Posted By: delpotro
Maggie Rogers - Notes From The Archive: Recordings 2011-2016 (With Commentary) (2020) [Official Digital Download 24/96]

Maggie Rogers - Notes From The Archive: Recordings 2011-2016 (With Commentary) (2020)
FLAC (tracks) 24-bit/96 kHz | Front Cover | Time - 87:25 minutes | 1,51 GB
Indie Folk, Singer-Songwriter, Female Vocal | Label: Debay Sounds, Official Digital Download

Grammy Award-nominated singer and songwriter Maggie Rogers will be releasing a 16-track retrospective project titled Notes from the Archive: Recordings 2011 – 2016 on December 18 via her own record label Debay Sounds via Caroline.

The project is said to be a close documentation of Rogers’ artistic evolution leading up to the creation of her Capitol Records debut Heard It In A Past Life. She explains the influence and intention behind Notes from the Archive in a 3-minute self-narrated visual introducing the retrospective.

“I started writing songs as a way to process and document my life. A few years later, music production became a way for me to hear those songs alive and in full form in the world,” she says. “This record is about looking back on those 10 years of work. It’s about looking to the future by honoring the past.”

Spanning four sections of her life, Notes from the Archive explores Rogers’ 2016 Lower East Side band at the end of her time at NYU, her 2014 independent record Blood Ballet, her first-ever band Del Water Gap and her 2012 debut record The Echo.

It will feature newly remastered recordings of “Blood Ballet,” “Resonant Body,” “Symmetry,” “Little Joys,” “On The Page,” “James,” “Anybody,” “Kids Like Us,” “Wolves,” and “Satellite.”

The remainder of the tracklist is made up of songs that have never been previously released. They include: “Celadon & Gold,” “Together,” “Steady Now,” “One More Afternoon,” “(Does It Feel Slow?),” and “New Song.”

“So much of this record is about the process,” says Rogers. “It’s about honoring the time it takes to come to a full form…I wanted to give you the chance to hear me grow and hear me make mistakes, hear me change – because all of those pieces are really beautiful parts of my present, and I don’t feel complete without them in the world.”

Tracklist:
1. Maggie Rogers – Intro – Notes from the Archive: Recordings 2011-2016 (Commentary) (03:10)
2. Maggie Rogers – Part I – Rock EP: 2016 (Commentary) (06:10)
3. Maggie Rogers – Celadon & Gold (03:11)
4. Maggie Rogers – Together (03:22)
5. Maggie Rogers – Steady Now (03:50)
6. Maggie Rogers – One More Afternoon (04:38)
7. Maggie Rogers – Part II – Blood Ballet: 2012-2015 (Commentary) (03:56)
8. Maggie Rogers – Blood Ballet (04:22)
9. Maggie Rogers – Resonant Body (03:21)
10. Maggie Rogers – Symmetry (02:52)
11. Maggie Rogers – Little Joys (03:55)
12. Maggie Rogers – On The Page (03:19)
13. Maggie Rogers – James (04:29)
14. Maggie Rogers – Part III – Del Water Gap: 2012-2013 (Commentary) (03:50)
15. Maggie Rogers & Del Water Gap – (Does It Feel Slow?) (00:17)
16. Maggie Rogers & Del Water Gap – New Song (06:22)
17. Maggie Rogers – Part IV – The Echo: 2011-2012 (Commentary) (04:06)
18. Maggie Rogers – Anybody (03:16)
19. Maggie Rogers – Kids Like Us (04:03)
20. Maggie Rogers – Wolves (03:57)
21. Maggie Rogers – Satellite (07:07)
22. Maggie Rogers – Outro – Notes from the Archive: Recordings 2011-2016 (Commentary) (03:41)

foobar2000 1.4.1 / Dynamic Range Meter 1.1.1
log date: 2022-08-06 18:04:26

––––––––––––––––––––––––––––––––––––––––
Analyzed: Maggie Rogers / Notes from the Archive: Recordings 2011-2016 (with commentary)
––––––––––––––––––––––––––––––––––––––––

DR Peak RMS Duration Track
––––––––––––––––––––––––––––––––––––––––
DR15 -3.31 dB -21.51 dB 3:10 01-Intro – Notes from the Archive: Recordings 2011-2016 (Commentary)
DR17 -0.92 dB -20.71 dB 6:11 02-Part I – Rock EP: 2016 (Commentary)
DR6 -0.40 dB -7.15 dB 3:11 03-Celadon & Gold
DR6 -0.40 dB -7.67 dB 3:22 04-Together
DR6 -0.54 dB -7.95 dB 3:51 05-Steady Now
DR6 -0.54 dB -9.34 dB 4:39 06-One More Afternoon
DR16 -0.40 dB -19.08 dB 3:56 07-Part II – Blood Ballet: 2012-2015 (Commentary)
DR10 -0.40 dB -13.67 dB 4:23 08-Blood Ballet
DR8 -0.54 dB -10.25 dB 3:22 09-Resonant Body
DR10 -0.54 dB -13.08 dB 2:53 10-Symmetry
DR8 -0.40 dB -10.66 dB 3:55 11-Little Joys
DR11 -0.54 dB -15.55 dB 3:20 12-On The Page
DR8 -0.40 dB -10.30 dB 4:29 13-James
DR14 -1.76 dB -19.32 dB 3:51 14-Part III – Del Water Gap: 2012-2013 (Commentary)
DR14 -4.34 dB -21.03 dB 0:17 15-(Does It Feel Slow?)
DR6 -0.54 dB -10.93 dB 6:23 16-New Song
DR15 -1.51 dB -18.94 dB 4:07 17-Part IV – The Echo: 2011-2012 (Commentary)
DR5 -0.36 dB -8.40 dB 3:17 18-Anybody
DR8 -0.40 dB -12.05 dB 4:03 19-Kids Like Us
DR7 -0.54 dB -10.38 dB 3:57 20-Wolves
DR6 -0.54 dB -10.61 dB 7:08 21-Satellite
DR16 -2.44 dB -20.78 dB 3:41 22-Outro – Notes from the Archive: Recordings 2011-2016 (Commentary)
––––––––––––––––––––––––––––––––––––––––

Number of tracks: 22
Official DR value: DR10

Samplerate: 96000 Hz
Channels: 2
Bits per sample: 24
Bitrate: 1912 kbps
Codec: FLAC
================================================================================


Thanks to the Original customer!