Tags
Language
Tags
November 2022
Su Mo Tu We Th Fr Sa
30 31 1 2 3 4 5
6 7 8 9 10 11 12
13 14 15 16 17 18 19
20 21 22 23 24 25 26
27 28 29 30 1 2 3

VA - Singers & Songwriters 1972-1973 (2000) 2CDs, Reissue 2010 [Re-Up]

Posted By: Designol
VA - Singers & Songwriters 1972-1973 (2000) 2CDs, Reissue 2010 [Re-Up]

VA - Singers & Songwriters 1972-1973 (2000) 2CDs, Reissue 2010
EAC | FLAC | Image (Cue&Log) ~ 569 Mb | Scans included
Label: Time-Life Music/Rhino | # 25913-D OPCD-2779B | Time: 01:38:37
Classic Rock, Folk Rock, Soft Rock, Pop Rock, Psychedelic, Soul, Folk

The two-year interval covered in this volume of Time-Life Music's Singers & Songwriters series was one of consolidation for the many singer/songwriters who had emerged in the early '70s. Carole King followed up Tapestry, the album that established her as a performer after years as a songwriter, with Music, which spawned the hit "Sweet Seasons." James Taylor was on his second follow-up to his commercial breakthrough Sweet Baby James with One Man Dog, which produced "Don't Let Me Be Lonely Tonight." His new wife Carly Simon released her third album, No Secrets, which gave Simon her biggest hit yet with "You're So Vain." John Denver, too, hit new sales peaks with Rocky Mountain High and its title single. And Cat Stevens had followed the success of Tea for the Tillerman with Teaser and the Firecat and its second single "Morning Has Broken." Meanwhile, several new singer/songwriters were crowding the field, among them Don McLean with the epic allegory "American Pie," America with its Neil Young sound-alike "A Horse With No Name," and Seals & Crofts with the lilting "Summer Breeze." But the biggest breakthrough of the period was also the most tragic. Jim Croce had become known for honky tonk novelties like "You Don't Mess Around With Jim," but the ballad "I Got a Name," the theme from the movie The Last American Hero, was released as a single just before his death in a plane crash, and his record company quickly followed it with the old album track "Time in a Bottle"; its lyric now unintentionally poignant, it shot to number one. All of these songs are included on this compilation, which is not to say that the series is devoted exclusively to singer/songwriter music. Rather, it features soft rock hits of the era, many of which happen to fall into the singer/songwriter category. Also featured are ballad hits by major pop stars like Elton John and Paul McCartney, as well as a couple of ringers that technically fall into the time period, the Moody Blues' 1968 song "Nights in White Satin" (heard here in its full-length, seven-and-a-half-minute version, complete with orchestral passages and recitation), which belatedly became a U.S. hit in 1972, and Todd Rundgren's re-recording of "Hello It's Me," a song he first cut with his old band the Nazz, also in 1968. Though the compilers have managed to license tracks from all five major labels and some other companies besides, coupling restrictions seem to have prevented the inclusion of such key hits of the era as Neil Young's "Heart of Gold" and Jackson Browne's "Doctor My Eyes" that clearly belong on the collection. Still, this is a good selection of the soft rock hits of 1972-1973 that will please those who remember and enlighten those who don't.

Review by William Ruhlmann, Allmusic.com

VA - Singers & Songwriters 1972-1973 (2000) 2CDs, Reissue 2010 [Re-Up]


Tracklist:

CD1:

01. Roberta Flack - The First Time Ever I Saw Your Face (5:23)
02. Johnny Nash - I Can See Clearly Now (2:44)
03. Don McLean - American Pie (8:35)
04. Jim Croce - I Got A Name (3:14)
05. Bill Withers - Lean On Me (4:20)
06. Carly Simon - You're So Vain (4:19)
07. America - A Horse With No Name (4:10)
08. The Moody Blues - Nights In White Satin (7:26)
09. Todd Rundgren - Hello It's Me (4:45)
10. Seals & Crofts - Summer Breeze (3:26)
11. John Denver - Rocky Mountain High (4:46)
12. Arlo Guthrie - The City Of New Orleans (4:29)

CD2:

01. Paul McCartney - My Love (4:10)
02. Jim Croce - Time In A Bottle (2:29)
03. Paul Simon - Kodachrome (3:35)
04. Elton John - Daniel (3:54)
05. Anne Murray - Danny's Song (3:07)
06. Nilsson - Without You (3:21)
07. Chicago - Just You 'N' Me (3:44)
08. Cat Stevens - Morning Has Broken (3:20)
09. Art Garfunkel - All I Know (3:46)
10. Carole King - Sweet Seasons (3:16)
11. Bread - Guitar Man (3:46)
12. James Taylor - Don't Let Me Be Lonely Tonight (2:34)


Exact Audio Copy V1.2 from 12. August 2016

EAC extraction logfile from 1. April 2017, 11:52

Various Artists / Singers&Songwriters 1972-1973 Disc 1

Used drive : ASUS SDRW-08D1S-U Adapter: 1 ID: 2

Read mode : Secure
Utilize accurate stream : Yes
Defeat audio cache : Yes
Make use of C2 pointers : No

Read offset correction : 667
Overread into Lead-In and Lead-Out : No
Fill up missing offset samples with silence : Yes
Delete leading and trailing silent blocks : No
Null samples used in CRC calculations : Yes
Used interface : Native Win32 interface for Win NT & 2000

Used output format : User Defined Encoder
Selected bitrate : 128 kBit/s
Quality : High
Add ID3 tag : No
Command line compressor : C:\Program Files (x86)\Exact Audio Copy\Flac\flac.exe
Additional command line options : -V -8 -T "Date=%year%" -T "Genre=%genre%" %source%


TOC of the extracted CD

Track | Start | Length | Start sector | End sector
––––––––––––––––––––––––––––-
1 | 0:00.00 | 5:23.32 | 0 | 24256
2 | 5:23.32 | 2:43.48 | 24257 | 36529
3 | 8:07.05 | 8:35.07 | 36530 | 75161
4 | 16:42.12 | 3:13.50 | 75162 | 89686
5 | 19:55.62 | 4:20.00 | 89687 | 109186
6 | 24:15.62 | 4:18.38 | 109187 | 128574
7 | 28:34.25 | 4:09.47 | 128575 | 147296
8 | 32:43.72 | 7:25.70 | 147297 | 180741
9 | 40:09.67 | 4:45.20 | 180742 | 202136
10 | 44:55.12 | 3:25.48 | 202137 | 217559
11 | 48:20.60 | 4:45.40 | 217560 | 238974
12 | 53:06.25 | 4:29.02 | 238975 | 259151


Range status and errors

Selected range

Filename C:\Users\Олег\Desktop\1972-1973\Various Artists - Singers&Songwriters 1972-1973 Disc 1.wav

Peak level 100.0 %
Extraction speed 3.1 X
Range quality 100.0 %
Test CRC 0D942008
Copy CRC 0D942008
Copy OK

No errors occurred


AccurateRip summary

Track 1 cannot be verified as accurate (confidence 45) [A52B46AA], AccurateRip returned [784178B9] (AR v2)
Track 2 cannot be verified as accurate (confidence 44) [673A24BB], AccurateRip returned [C9920945] (AR v2)
Track 3 cannot be verified as accurate (confidence 44) [D2FC3D7E], AccurateRip returned [DE5233C9] (AR v2)
Track 4 cannot be verified as accurate (confidence 46) [EB7E7D64], AccurateRip returned [23B5B2D3] (AR v2)
Track 5 cannot be verified as accurate (confidence 46) [EFD96D10], AccurateRip returned [2BE42BE4] (AR v2)
Track 6 cannot be verified as accurate (confidence 47) [84F28453], AccurateRip returned [3F2DF77C] (AR v2)
Track 7 cannot be verified as accurate (confidence 46) [55553905], AccurateRip returned [B7D60414] (AR v2)
Track 8 cannot be verified as accurate (confidence 46) [52C0B081], AccurateRip returned [29F77C46] (AR v2)
Track 9 cannot be verified as accurate (confidence 45) [C313759C], AccurateRip returned [6C3466C7] (AR v2)
Track 10 cannot be verified as accurate (confidence 45) [0B47EB2D], AccurateRip returned [D76E562B] (AR v2)
Track 11 cannot be verified as accurate (confidence 45) [18B65883], AccurateRip returned [681D345C] (AR v2)
Track 12 cannot be verified as accurate (confidence 45) [BEB65EB5], AccurateRip returned [F3995425] (AR v2)

No tracks could be verified as accurate
You may have a different pressing from the one(s) in the database

End of status report

–– CUETools DB Plugin V2.1.6

[CTDB TOCID: jSu9ofyMFWFgsLgbNzDD0m0qM.s-] found
Submit result: jSu9ofyMFWFgsLgbNzDD0m0qM.s- has been confirmed
Track | CTDB Status
1 | (73/75) Accurately ripped
2 | (74/75) Accurately ripped
3 | (74/75) Accurately ripped
4 | (74/75) Accurately ripped
5 | (73/75) Accurately ripped
6 | (74/75) Accurately ripped
7 | (74/75) Accurately ripped
8 | (73/75) Accurately ripped
9 | (73/75) Accurately ripped
10 | (74/75) Accurately ripped
11 | (73/75) Accurately ripped
12 | (74/75) Accurately ripped


==== Log checksum D105F34776B855A986A2CB7DE8848DA8608969BEBC7738CECC1399BFC40F978C ====

foobar2000 1.2 / Dynamic Range Meter 1.1.1
log date: 2017-04-03 15:01:58

––––––––––––––––––––––––––––––––––––––––
Analyzed: America / Singers&Songwriters 1972-1973 Disc 1 (1)
Arlo Guthrie / Singers&Songwriters 1972-1973 Disc 1 (2)
––––––––––––––––––––––––––––––––––––––––

DR Peak RMS Duration Track
––––––––––––––––––––––––––––––––––––––––
DR12 -0.37 dB -16.12 dB 4:10 07-A Horse With No Name
DR13 -0.06 dB -16.45 dB 4:29 12-The City Of New Orleans
––––––––––––––––––––––––––––––––––––––––

Number of tracks: 2
Official DR value: DR13

Samplerate: 44100 Hz
Channels: 2
Bits per sample: 16
Bitrate: 785 kbps
Codec: FLAC
================================================================================

––––––––––––––––––––––––––––––––––––––––
Analyzed: Bill Withers / Singers&Songwriters 1972-1973 Disc 1 (1)
Carly Simon / Singers&Songwriters 1972-1973 Disc 1 (2)
––––––––––––––––––––––––––––––––––––––––

DR Peak RMS Duration Track
––––––––––––––––––––––––––––––––––––––––
DR12 -2.00 dB -17.12 dB 4:20 05-Lean On Me
DR14 0.00 dB -16.06 dB 4:19 06-You're So Vain
––––––––––––––––––––––––––––––––––––––––

Number of tracks: 2
Official DR value: DR13

Samplerate: 44100 Hz
Channels: 2
Bits per sample: 16
Bitrate: 785 kbps
Codec: FLAC
================================================================================

––––––––––––––––––––––––––––––––––––––––
Analyzed: Don McLean / Singers&Songwriters 1972-1973 Disc 1 (1)
Jim Croce / Singers&Songwriters 1972-1973 Disc 1 (2)
John Denver / Singers&Songwriters 1972-1973 Disc 1 (3)
––––––––––––––––––––––––––––––––––––––––

DR Peak RMS Duration Track
––––––––––––––––––––––––––––––––––––––––
DR11 -1.28 dB -16.18 dB 8:35 03-American Pie
DR11 -1.83 dB -15.06 dB 3:14 04-I Got A Name
DR11 -1.47 dB -14.92 dB 4:46 11-Rocky Mountain High
––––––––––––––––––––––––––––––––––––––––

Number of tracks: 3
Official DR value: DR11

Samplerate: 44100 Hz
Channels: 2
Bits per sample: 16
Bitrate: 785 kbps
Codec: FLAC
================================================================================

––––––––––––––––––––––––––––––––––––––––
Statistics for: 02-I Can See Clearly Now
Number of samples: 7216524
Duration: 2:44
––––––––––––––––––––––––––––––––––––––––

Left Right

Peak Value: -1.92 dB –- -2.49 dB
Avg RMS: -17.42 dB –- -17.94 dB
DR channel: 12.30 dB –- 12.74 dB
––––––––––––––––––––––––––––––––––––––––

Official DR Value: DR13

Samplerate: 44100 Hz
Channels: 2
Bits per sample: 16
Bitrate: 785 kbps
Codec: FLAC
================================================================================
––––––––––––––––––––––––––––––––––––––––
Analyzed: Roberta Flack / Singers&Songwriters 1972-1973 Disc 1 (1)
Seals & Crofts / Singers&Songwriters 1972-1973 Disc 1 (2)
––––––––––––––––––––––––––––––––––––––––

DR Peak RMS Duration Track
––––––––––––––––––––––––––––––––––––––––
DR12 -1.50 dB -17.57 dB 5:23 01-The First Time Ever I Saw Your Face
DR11 -1.98 dB -15.45 dB 3:26 10-Summer Breeze
––––––––––––––––––––––––––––––––––––––––

Number of tracks: 2
Official DR value: DR12

Samplerate: 44100 Hz
Channels: 2
Bits per sample: 16
Bitrate: 785 kbps
Codec: FLAC
================================================================================

––––––––––––––––––––––––––––––––––––––––
Analyzed: The Moody Blues / Singers&Songwriters 1972-1973 Disc 1 (1)
Todd Rundgren / Singers&Songwriters 1972-1973 Disc 1 (2)
––––––––––––––––––––––––––––––––––––––––

DR Peak RMS Duration Track
––––––––––––––––––––––––––––––––––––––––
DR11 -0.80 dB -16.19 dB 7:26 08-Nights In White Satin
DR13 -1.00 dB -15.67 dB 4:45 09-Hello It's Me
––––––––––––––––––––––––––––––––––––––––

Number of tracks: 2
Official DR value: DR12

Samplerate: 44100 Hz
Channels: 2
Bits per sample: 16
Bitrate: 785 kbps
Codec: FLAC
================================================================================


Exact Audio Copy V1.2 from 12. August 2016

EAC extraction logfile from 1. April 2017, 12:32

Various Artists / Singers&Songwriters 1972-1973 Disc 2

Used drive : ASUS SDRW-08D1S-U Adapter: 1 ID: 2

Read mode : Secure
Utilize accurate stream : Yes
Defeat audio cache : Yes
Make use of C2 pointers : No

Read offset correction : 667
Overread into Lead-In and Lead-Out : No
Fill up missing offset samples with silence : Yes
Delete leading and trailing silent blocks : No
Null samples used in CRC calculations : Yes
Used interface : Native Win32 interface for Win NT & 2000

Used output format : User Defined Encoder
Selected bitrate : 128 kBit/s
Quality : High
Add ID3 tag : No
Command line compressor : C:\Program Files (x86)\Exact Audio Copy\Flac\flac.exe
Additional command line options : -V -8 -T "Date=%year%" -T "Genre=%genre%" %source%


TOC of the extracted CD

Track | Start | Length | Start sector | End sector
––––––––––––––––––––––––––––-
1 | 0:00.00 | 4:09.57 | 0 | 18731
2 | 4:09.57 | 2:28.55 | 18732 | 29886
3 | 6:38.37 | 3:35.08 | 29887 | 46019
4 | 10:13.45 | 3:53.47 | 46020 | 63541
5 | 14:07.17 | 3:07.25 | 63542 | 77591
6 | 17:14.42 | 3:20.58 | 77592 | 92649
7 | 20:35.25 | 3:44.22 | 92650 | 109471
8 | 24:19.47 | 3:20.33 | 109472 | 124504
9 | 27:40.05 | 3:45.67 | 124505 | 141446
10 | 31:25.72 | 3:16.33 | 141447 | 156179
11 | 34:42.30 | 3:45.40 | 156180 | 173094
12 | 38:27.70 | 2:34.07 | 173095 | 184651


Range status and errors

Selected range

Filename C:\Users\Олег\Desktop\1972-1973\CD 2\Various Artists - Singers&Songwriters 1972-1973 Disc 2.wav

Peak level 100.0 %
Extraction speed 3.0 X
Range quality 100.0 %
Test CRC FF92F061
Copy CRC FF92F061
Copy OK

No errors occurred


AccurateRip summary

Track 1 accurately ripped (confidence 2) [89E66328] (AR v2)
Track 2 accurately ripped (confidence 2) [9443B417] (AR v2)
Track 3 accurately ripped (confidence 2) [4E7F5685] (AR v2)
Track 4 accurately ripped (confidence 2) [2A58F045] (AR v2)
Track 5 accurately ripped (confidence 2) [AAFBB410] (AR v2)
Track 6 accurately ripped (confidence 2) [37C1AA98] (AR v2)
Track 7 accurately ripped (confidence 2) [4FC396C1] (AR v2)
Track 8 accurately ripped (confidence 2) [6D03A056] (AR v2)
Track 9 accurately ripped (confidence 2) [92594F64] (AR v2)
Track 10 accurately ripped (confidence 2) [3F4F3EF4] (AR v2)
Track 11 accurately ripped (confidence 2) [6F79C3A0] (AR v2)
Track 12 accurately ripped (confidence 2) [403769F4] (AR v2)

All tracks accurately ripped

End of status report

–– CUETools DB Plugin V2.1.6

[CTDB TOCID: IcXqIqmuvJV6JuycMDuUAeNIrRg-] found
Submit result: IcXqIqmuvJV6JuycMDuUAeNIrRg- has been confirmed
Track | CTDB Status
1 | (69/71) Accurately ripped
2 | (70/71) Accurately ripped
3 | (70/71) Accurately ripped
4 | (70/71) Accurately ripped
5 | (70/71) Accurately ripped
6 | (70/71) Accurately ripped
7 | (70/71) Accurately ripped
8 | (70/71) Accurately ripped
9 | (70/71) Accurately ripped
10 | (70/71) Accurately ripped
11 | (70/71) Accurately ripped
12 | (70/71) Accurately ripped


==== Log checksum 115A78A3A6284872BC722C6F645642FEAA2A8A7F2A92EAA6DE15F18049F55D7D ====

foobar2000 1.2 / Dynamic Range Meter 1.1.1
log date: 2017-04-03 15:02:20

––––––––––––––––––––––––––––––––––––––––
Analyzed: Anne Murray / Singers&Songwriters 1972-1973 Disc 2 (1)
Art Garfunkel / Singers&Songwriters 1972-1973 Disc 2 (2)
Bread / Singers&Songwriters 1972-1973 Disc 2 (3)
––––––––––––––––––––––––––––––––––––––––

DR Peak RMS Duration Track
––––––––––––––––––––––––––––––––––––––––
DR9 -3.20 dB -15.12 dB 3:07 05-Danny's Song
DR11 -1.06 dB -15.39 dB 3:46 09-All I Know
DR10 -2.11 dB -14.42 dB 3:46 11-Guitar Man
––––––––––––––––––––––––––––––––––––––––

Number of tracks: 3
Official DR value: DR10

Samplerate: 44100 Hz
Channels: 2
Bits per sample: 16
Bitrate: 776 kbps
Codec: FLAC
================================================================================

––––––––––––––––––––––––––––––––––––––––
Statistics for: 10-Sweet Seasons
Number of samples: 8663004
Duration: 3:16
––––––––––––––––––––––––––––––––––––––––

Left Right

Peak Value: -0.49 dB –- 0.00 dB
Avg RMS: -14.93 dB –- -15.28 dB
DR channel: 12.47 dB –- 13.45 dB
––––––––––––––––––––––––––––––––––––––––

Official DR Value: DR13

Samplerate: 44100 Hz
Channels: 2
Bits per sample: 16
Bitrate: 776 kbps
Codec: FLAC
================================================================================
––––––––––––––––––––––––––––––––––––––––
Statistics for: 08-Morning Has Broken
Number of samples: 8839404
Duration: 3:20
––––––––––––––––––––––––––––––––––––––––

Left Right

Peak Value: -3.00 dB –- -3.00 dB
Avg RMS: -18.28 dB –- -18.28 dB
DR channel: 12.55 dB –- 12.50 dB
––––––––––––––––––––––––––––––––––––––––

Official DR Value: DR13

Samplerate: 44100 Hz
Channels: 2
Bits per sample: 16
Bitrate: 776 kbps
Codec: FLAC
================================================================================
––––––––––––––––––––––––––––––––––––––––
Statistics for: 07-Just You 'N' Me
Number of samples: 9891336
Duration: 3:44
––––––––––––––––––––––––––––––––––––––––

Left Right

Peak Value: -1.22 dB –- -1.00 dB
Avg RMS: -16.35 dB –- -15.94 dB
DR channel: 12.41 dB –- 12.58 dB
––––––––––––––––––––––––––––––––––––––––

Official DR Value: DR12

Samplerate: 44100 Hz
Channels: 2
Bits per sample: 16
Bitrate: 776 kbps
Codec: FLAC
================================================================================
––––––––––––––––––––––––––––––––––––––––
Analyzed: Elton John / Singers&Songwriters 1972-1973 Disc 2 (1)
James Taylor / Singers&Songwriters 1972-1973 Disc 2 (2)
––––––––––––––––––––––––––––––––––––––––

DR Peak RMS Duration Track
––––––––––––––––––––––––––––––––––––––––
DR12 -0.84 dB -14.48 dB 3:54 04-Daniel
DR14 -0.20 dB -16.34 dB 2:34 12-Don't Let Me Be Lonely Tonight
––––––––––––––––––––––––––––––––––––––––

Number of tracks: 2
Official DR value: DR13

Samplerate: 44100 Hz
Channels: 2
Bits per sample: 16
Bitrate: 776 kbps
Codec: FLAC
================================================================================

––––––––––––––––––––––––––––––––––––––––
Analyzed: Jim Croce / Singers&Songwriters 1972-1973 Disc 2 (1)
Nilsson / Singers&Songwriters 1972-1973 Disc 2 (2)
––––––––––––––––––––––––––––––––––––––––

DR Peak RMS Duration Track
––––––––––––––––––––––––––––––––––––––––
DR11 -2.37 dB -17.67 dB 2:29 02-Time In A Bottle
DR13 -0.12 dB -16.59 dB 3:21 06-Without You
––––––––––––––––––––––––––––––––––––––––

Number of tracks: 2
Official DR value: DR12

Samplerate: 44100 Hz
Channels: 2
Bits per sample: 16
Bitrate: 776 kbps
Codec: FLAC
================================================================================

––––––––––––––––––––––––––––––––––––––––
Analyzed: Paul McCartney / Singers&Songwriters 1972-1973 Disc 2 (1)
Paul Simon / Singers&Songwriters 1972-1973 Disc 2 (2)
––––––––––––––––––––––––––––––––––––––––

DR Peak RMS Duration Track
––––––––––––––––––––––––––––––––––––––––
DR11 -0.60 dB -15.06 dB 4:10 01-My Love
DR13 0.00 dB -15.51 dB 3:35 03-Kodachrome
––––––––––––––––––––––––––––––––––––––––

Number of tracks: 2
Official DR value: DR12

Samplerate: 44100 Hz
Channels: 2
Bits per sample: 16
Bitrate: 776 kbps
Codec: FLAC
================================================================================

VA - Singers & Songwriters 1972-1973 (2000) 2CDs, Reissue 2010 [Re-Up]

VA - Singers & Songwriters 1972-1973 (2000) 2CDs, Reissue 2010 [Re-Up]