Tags
Language
Tags
July 2024
Su Mo Tu We Th Fr Sa
30 1 2 3 4 5 6
7 8 9 10 11 12 13
14 15 16 17 18 19 20
21 22 23 24 25 26 27
28 29 30 31 1 2 3

The Gun Club - The Las Vegas Story (Remastered Expanded Edition) (1984/2009)

Posted By: Rtax
The Gun Club - The Las Vegas Story (Remastered Expanded Edition) (1984/2009)

The Gun Club - The Las Vegas Story (Remastered Expanded Edition) (1984/2009)
EAC Rip | FLAC (tracks, cue, log) - 667 MB | MP3 CBR 320 kbps - 235 MB
1:42:27 | Alternative Rock, Garage Rock, Indie Rock | Label: Cooking Vinyl

Digitally remastered and expanded edition of this 1984 album from the tribal Psychobilly Blues band fronted by Jeffrey Lee Pierce, including a bonus live CD. The Las Vegas Story was possibly the most complete and unrushed Gun Club LP. Produced by Jeff Eyrich, this LP saw the band experiment more with covering show tunes like Gershwin's 'My Man's Gone Now' and a killer take on Pharaoh Sanders' 'The Creator Has A Master Plan'. Yet another raved about LP in the press, The Las Vegas Story was the icing on the cake in the Gun Clubs early carrier. This release features the album in all its glory plus a bonus CD featuring a complete live show of the band from 1984. Cooking Vinyl. 2009.

Tracklist
Disc: 1
1 The Las Vegas Story/Walkin' With The Beast
2 Eternally Is Here
3 The Stranger In Our Town
4 My Dreams
5 The Master Plan
6 My Man's Gone Now
7 Bad America
8 Moonlight Model
9 Give Up The Sun
10 Secret Fires

Disc: 2
1 Walkin' With The Beast
2 Run Through The Jungle
3 Moonlight Motel
4 The Lie
5 John Hardy
6 Bad America
7 The Stranger In Our Town
8 Death Party
9 Fire Of Love
10 Sexbeat
11 Jack On Fire
12 Louie Louie
13 Do The Twist
14 The House On Highland Avenue
Exact Audio Copy V1.0 beta 3 from 29. August 2011

EAC extraction logfile from 2. May 2015, 20:14

The Gun Club / The Las Vegas Story (2009 Reissue Edition)

Used drive : HL-DT-STDVDRAM GH22NS50 Adapter: 4 ID: 0

Read mode : Secure
Utilize accurate stream : Yes
Defeat audio cache : Yes
Make use of C2 pointers : No

Read offset correction : 667
Overread into Lead-In and Lead-Out : No
Fill up missing offset samples with silence : Yes
Delete leading and trailing silent blocks : No
Null samples used in CRC calculations : Yes
Used interface : Installed external ASPI interface
Gap handling : Appended to previous track

Used output format : User Defined Encoder
Selected bitrate : 1024 kBit/s
Quality : High
Add ID3 tag : No
Command line compressor : C:\Program Files (x86)\Exact Audio Copy\FLAC\FLAC.EXE
Additional command line options : -8 -V -T "ARTIST=%artist%" -T "TITLE=%title%" -T "ALBUM=%albumtitle%" -T "DATE=%year%" -T "TRACKNUMBER=%tracknr%" -T "GENRE=%genre%" -T "PERFORMER=%albuminterpret%" -T "COMPOSER=%composer%" %haslyrics%–tag-from-file=LYRICS="%lyricsfile%"%haslyrics% -T "ALBUMARTIST=%albumartist%" -T "DISCNUMBER=%cdnumber%" -T "TOTALDISCS=%totalcds%" -T "TOTALTRACKS=%numtracks%" -T "COMMENT=%comment%" %source% -o %dest%


TOC of the extracted CD

Track | Start | Length | Start sector | End sector
––––––––––––––––––––––––––––-
1 | 0:00.00 | 4:51.67 | 0 | 21891
2 | 4:51.67 | 2:58.09 | 21892 | 35250
3 | 7:50.01 | 5:09.50 | 35251 | 58475
4 | 12:59.51 | 3:57.21 | 58476 | 76271
5 | 16:56.72 | 1:48.48 | 76272 | 84419
6 | 18:45.45 | 3:16.01 | 84420 | 99120
7 | 22:01.46 | 4:55.63 | 99121 | 121308
8 | 26:57.34 | 3:09.43 | 121309 | 135526
9 | 30:07.02 | 6:04.19 | 135527 | 162845
10 | 36:11.21 | 2:37.27 | 162846 | 174647


Track 1

Filename K:\Uploads\The Gun Club - The Las Vegas Story (2009 Reissue Edition)\Disc 1\01 The Las Vegas Story , Walkin' With The Beast.wav

Pre-gap length 0:00:02.00

Peak level 86.8 %
Extraction speed 1.2 X
Track quality 100.0 %
Test CRC 7E6977EC
Copy CRC 7E6977EC
Accurately ripped (confidence 14) [AD688DD1] (AR v2)
Copy OK

Track 2

Filename K:\Uploads\The Gun Club - The Las Vegas Story (2009 Reissue Edition)\Disc 1\02 Eternally Is Here.wav

Peak level 83.9 %
Extraction speed 1.3 X
Track quality 100.0 %
Test CRC 76029D98
Copy CRC 76029D98
Accurately ripped (confidence 15) [0C3DCD3E] (AR v2)
Copy OK

Track 3

Filename K:\Uploads\The Gun Club - The Las Vegas Story (2009 Reissue Edition)\Disc 1\03 The Stranger In Our Town.wav

Peak level 85.3 %
Extraction speed 1.5 X
Track quality 100.0 %
Test CRC A5EEDA49
Copy CRC A5EEDA49
Accurately ripped (confidence 14) [ED99EC18] (AR v2)
Copy OK

Track 4

Filename K:\Uploads\The Gun Club - The Las Vegas Story (2009 Reissue Edition)\Disc 1\04 My Dreams.wav

Peak level 82.4 %
Extraction speed 1.6 X
Track quality 100.0 %
Test CRC 62D3587F
Copy CRC 62D3587F
Accurately ripped (confidence 15) [A6C575C6] (AR v2)
Copy OK

Track 5

Filename K:\Uploads\The Gun Club - The Las Vegas Story (2009 Reissue Edition)\Disc 1\05 The Master Plan.wav

Peak level 82.2 %
Extraction speed 1.4 X
Track quality 100.0 %
Test CRC CDE1ACD5
Copy CRC CDE1ACD5
Accurately ripped (confidence 15) [D59BFDB3] (AR v2)
Copy OK

Track 6

Filename K:\Uploads\The Gun Club - The Las Vegas Story (2009 Reissue Edition)\Disc 1\06 My Man's Gone Now.wav

Peak level 83.3 %
Extraction speed 1.7 X
Track quality 100.0 %
Test CRC 535940CA
Copy CRC 535940CA
Accurately ripped (confidence 15) [025BE7CB] (AR v2)
Copy OK

Track 7

Filename K:\Uploads\The Gun Club - The Las Vegas Story (2009 Reissue Edition)\Disc 1\07 Bad America.wav

Peak level 83.9 %
Extraction speed 1.9 X
Track quality 100.0 %
Test CRC 654D6E60
Copy CRC 654D6E60
Accurately ripped (confidence 15) [3147D540] (AR v2)
Copy OK

Track 8

Filename K:\Uploads\The Gun Club - The Las Vegas Story (2009 Reissue Edition)\Disc 1\08 Moonlight Motel.wav

Peak level 83.5 %
Extraction speed 1.6 X
Track quality 99.9 %
Test CRC 68841B76
Copy CRC 68841B76
Accurately ripped (confidence 15) [376F1000] (AR v2)
Copy OK

Track 9

Filename K:\Uploads\The Gun Club - The Las Vegas Story (2009 Reissue Edition)\Disc 1\09 Give Up The Sun.wav

Peak level 84.2 %
Extraction speed 2.2 X
Track quality 100.0 %
Test CRC 9516D220
Copy CRC 9516D220
Accurately ripped (confidence 15) [90C39241] (AR v2)
Copy OK

Track 10

Filename K:\Uploads\The Gun Club - The Las Vegas Story (2009 Reissue Edition)\Disc 1\10 Secret Fires.wav

Pre-gap length 0:00:01.00

Peak level 82.2 %
Extraction speed 1.7 X
Track quality 99.9 %
Test CRC 2E3030A7
Copy CRC 2E3030A7
Accurately ripped (confidence 15) [C17C412C] (AR v2)
Copy OK


All tracks accurately ripped

No errors occurred

End of status report

–– CUETools DB Plugin V2.1.3

[CTDB TOCID: iQcLf40ParWd4LnJl0QoDsY4vNg-] found, Submit result: iQcLf40ParWd4LnJl0QoDsY4vNg- has been confirmed
[f1af9255] (12/12) Accurately ripped


==== Log checksum B80E215CE9C9A5AFCC09D9871912ABFECCF340A0D43A137083728D55F61C0EA5 ====


Exact Audio Copy V1.0 beta 3 from 29. August 2011

EAC extraction logfile from 2. May 2015, 21:51

The Gun Club / The Las Vegas Story (2009 Reissue Edition) Disc 2

Used drive : HL-DT-STDVDRAM GH22NS50 Adapter: 4 ID: 0

Read mode : Secure
Utilize accurate stream : Yes
Defeat audio cache : Yes
Make use of C2 pointers : No

Read offset correction : 667
Overread into Lead-In and Lead-Out : No
Fill up missing offset samples with silence : Yes
Delete leading and trailing silent blocks : No
Null samples used in CRC calculations : Yes
Used interface : Installed external ASPI interface
Gap handling : Appended to previous track

Used output format : User Defined Encoder
Selected bitrate : 1024 kBit/s
Quality : High
Add ID3 tag : No
Command line compressor : C:\Program Files (x86)\Exact Audio Copy\FLAC\FLAC.EXE
Additional command line options : -8 -V -T "ARTIST=%artist%" -T "TITLE=%title%" -T "ALBUM=%albumtitle%" -T "DATE=%year%" -T "TRACKNUMBER=%tracknr%" -T "GENRE=%genre%" -T "PERFORMER=%albuminterpret%" -T "COMPOSER=%composer%" %haslyrics%–tag-from-file=LYRICS="%lyricsfile%"%haslyrics% -T "ALBUMARTIST=%albumartist%" -T "DISCNUMBER=%cdnumber%" -T "TOTALDISCS=%totalcds%" -T "TOTALTRACKS=%numtracks%" -T "COMMENT=%comment%" %source% -o %dest%


TOC of the extracted CD

Track | Start | Length | Start sector | End sector
––––––––––––––––––––––––––––-
1 | 0:00.00 | 5:32.08 | 0 | 24907
2 | 5:32.08 | 5:26.51 | 24908 | 49408
3 | 10:58.59 | 3:36.45 | 49409 | 65653
4 | 14:35.29 | 3:24.45 | 65654 | 80998
5 | 17:59.74 | 3:33.24 | 80999 | 96997
6 | 21:33.23 | 5:10.72 | 96998 | 120319
7 | 26:44.20 | 6:00.68 | 120320 | 147387
8 | 32:45.13 | 7:03.57 | 147388 | 179169
9 | 39:48.70 | 2:13.28 | 179170 | 189172
10 | 42:02.23 | 3:15.23 | 189173 | 203820
11 | 45:17.46 | 6:41.05 | 203821 | 233900
12 | 51:58.51 | 4:10.72 | 233901 | 252722
13 | 56:09.48 | 3:23.74 | 252723 | 268021
14 | 59:33.47 | 4:03.61 | 268022 | 286307


Track 1

Filename K:\Uploads\The Gun Club - The Las Vegas Story (2009 Reissue Edition)\Disc 2\01 Walkin' With The Beast.wav

Pre-gap length 0:00:02.00

Peak level 91.2 %
Extraction speed 1.3 X
Track quality 100.0 %
Test CRC E33A30E4
Copy CRC E33A30E4
Accurately ripped (confidence 14) [2E15FA07] (AR v2)
Copy OK

Track 2

Filename K:\Uploads\The Gun Club - The Las Vegas Story (2009 Reissue Edition)\Disc 2\02 Run Through The Jungle.wav

Peak level 91.2 %
Extraction speed 1.3 X
Track quality 99.9 %
Test CRC EDB33D8B
Copy CRC EDB33D8B
Accurately ripped (confidence 14) [59B0E7A9] (AR v2)
Copy OK

Track 3

Filename K:\Uploads\The Gun Club - The Las Vegas Story (2009 Reissue Edition)\Disc 2\03 Moonlight Motel.wav

Peak level 91.2 %
Extraction speed 1.5 X
Track quality 100.0 %
Test CRC 3A3E1AB5
Copy CRC 3A3E1AB5
Accurately ripped (confidence 14) [579CC2D3] (AR v2)
Copy OK

Track 4

Filename K:\Uploads\The Gun Club - The Las Vegas Story (2009 Reissue Edition)\Disc 2\04 The Lie.wav

Peak level 91.2 %
Extraction speed 1.6 X
Track quality 100.0 %
Test CRC 36139252
Copy CRC 36139252
Accurately ripped (confidence 14) [360CA141] (AR v2)
Copy OK

Track 5

Filename K:\Uploads\The Gun Club - The Las Vegas Story (2009 Reissue Edition)\Disc 2\05 John Hardy.wav

Peak level 91.2 %
Extraction speed 1.6 X
Track quality 100.0 %
Test CRC 8A48BE85
Copy CRC 8A48BE85
Accurately ripped (confidence 14) [E929BE8B] (AR v2)
Copy OK

Track 6

Filename K:\Uploads\The Gun Club - The Las Vegas Story (2009 Reissue Edition)\Disc 2\06 Bad America.wav

Peak level 91.2 %
Extraction speed 1.9 X
Track quality 100.0 %
Test CRC 4F4420E3
Copy CRC 4F4420E3
Accurately ripped (confidence 14) [E0AA7467] (AR v2)
Copy OK

Track 7

Filename K:\Uploads\The Gun Club - The Las Vegas Story (2009 Reissue Edition)\Disc 2\07 The Stranger In Our Town.wav

Peak level 91.2 %
Extraction speed 2.0 X
Track quality 100.0 %
Test CRC 22AC1888
Copy CRC 22AC1888
Accurately ripped (confidence 14) [34D01085] (AR v2)
Copy OK

Track 8

Filename K:\Uploads\The Gun Club - The Las Vegas Story (2009 Reissue Edition)\Disc 2\08 Death Party.wav

Peak level 91.2 %
Extraction speed 2.2 X
Track quality 100.0 %
Test CRC E46F9B58
Copy CRC E46F9B58
Accurately ripped (confidence 14) [424EA550] (AR v2)
Copy OK

Track 9

Filename K:\Uploads\The Gun Club - The Las Vegas Story (2009 Reissue Edition)\Disc 2\09 Fire Of Love.wav

Peak level 91.2 %
Extraction speed 1.9 X
Track quality 100.0 %
Test CRC 0B403F06
Copy CRC 0B403F06
Accurately ripped (confidence 14) [DDB2855A] (AR v2)
Copy OK

Track 10

Filename K:\Uploads\The Gun Club - The Las Vegas Story (2009 Reissue Edition)\Disc 2\10 Sexbeat.wav

Peak level 91.2 %
Extraction speed 2.2 X
Track quality 100.0 %
Test CRC 93D1445C
Copy CRC 93D1445C
Accurately ripped (confidence 14) [DD305EA2] (AR v2)
Copy OK

Track 11

Filename K:\Uploads\The Gun Club - The Las Vegas Story (2009 Reissue Edition)\Disc 2\11 Jack On Fire.wav

Peak level 91.2 %
Extraction speed 2.2 X
Track quality 99.9 %
Test CRC 84C95D2F
Copy CRC 84C95D2F
Accurately ripped (confidence 14) [43A26098] (AR v2)
Copy OK

Track 12

Filename K:\Uploads\The Gun Club - The Las Vegas Story (2009 Reissue Edition)\Disc 2\12 Louie Louie.wav

Peak level 91.2 %
Extraction speed 2.1 X
Track quality 99.9 %
Test CRC E2B39BE6
Copy CRC E2B39BE6
Accurately ripped (confidence 14) [50545D1D] (AR v2)
Copy OK

Track 13

Filename K:\Uploads\The Gun Club - The Las Vegas Story (2009 Reissue Edition)\Disc 2\13 Do The Twist.wav

Peak level 91.2 %
Extraction speed 2.4 X
Track quality 100.0 %
Test CRC 3983F50F
Copy CRC 3983F50F
Accurately ripped (confidence 14) [BE6EDDD2] (AR v2)
Copy OK

Track 14

Filename K:\Uploads\The Gun Club - The Las Vegas Story (2009 Reissue Edition)\Disc 2\14 The House On Highland Avenue.wav

Peak level 91.2 %
Extraction speed 2.6 X
Track quality 100.0 %
Test CRC 766A68B2
Copy CRC 766A68B2
Accurately ripped (confidence 14) [EF23F87E] (AR v2)
Copy OK


All tracks accurately ripped

No errors occurred

End of status report

–– CUETools DB Plugin V2.1.3

[CTDB TOCID: CZ1QAyIzD2aaEzi68Z.cfjlI2G4-] found, Submit result: CZ1QAyIzD2aaEzi68Z.cfjlI2G4- has been confirmed
[4bc596ad] (10/10) Accurately ripped


==== Log checksum FF3DCE36E3C5E26DAC605657AA75A8877C2C5E0264CED50ABCB88F3A934FECE0 ====