Tags
Language
Tags
July 2024
Su Mo Tu We Th Fr Sa
30 1 2 3 4 5 6
7 8 9 10 11 12 13
14 15 16 17 18 19 20
21 22 23 24 25 26 27
28 29 30 31 1 2 3

The Flight of Sleipnir - Eventide (2021)

Posted By: gribovar
The Flight of Sleipnir - Eventide (2021)

The Flight of Sleipnir - Eventide (2021)
EAC Rip | FLAC (image+.cue+log) - 308 MB | MP3 CBR 320 kbps (LAME 3.93) - 104 MB | Covers - 47 MB
Genre: Stoner/Doom Metal, Post-Black Metal | RAR 3% Rec. | Label: Eisenwald (EISEN176)

Formed in Colorado in 2007, The Flight of Sleipnir have been plugging away with their blend of doom, folk and stoner metal ever since.
The Night breeze sending a gray wraith of smoke up the slopes as The Flight of Sleipnir return with their 7th album. "Eventide" is an audial rumination on the vast mysteries of nighttime intertwined by the roaring fireytones of Doom, Prog, Black Metal, Folk, and Post-Rock.
Tracklist:
01. Voland
02. January
03. Thaw
04. Bathe the Stone in Blood
05. Harvest
06. Servitude

Total time: 44:24

Exact Audio Copy V1.6 from 23. October 2020

EAC extraction logfile from 17. October 2021, 14:39

The Flight of Sleipnir / Eventide

Used drive : TSSTcorpBDDVDW SE-506CB Adapter: 1 ID: 1

Read mode : Secure
Utilize accurate stream : Yes
Defeat audio cache : Yes
Make use of C2 pointers : No

Read offset correction : 6
Overread into Lead-In and Lead-Out : No
Fill up missing offset samples with silence : Yes
Delete leading and trailing silent blocks : No
Null samples used in CRC calculations : Yes
Used interface : Native Win32 interface for Win NT & 2000

Used output format : User Defined Encoder
Selected bitrate : 1024 kBit/s
Quality : High
Add ID3 tag : No
Command line compressor : C:\Program Files (x86)\Exact Audio Copy\Flac\flac.exe
Additional command line options : -V -8 -T "Date=%year%" -T "Genre=%genre%" %source%


TOC of the extracted CD

Track | Start | Length | Start sector | End sector
––––––––––––––––––––––––––––-
1 | 0:00.00 | 7:32.39 | 0 | 33938
2 | 7:32.39 | 6:44.13 | 33939 | 64251
3 | 14:16.52 | 6:28.50 | 64252 | 93401
4 | 20:45.27 | 8:06.28 | 93402 | 129879
5 | 28:51.55 | 7:54.48 | 129880 | 165477
6 | 36:46.28 | 7:37.17 | 165478 | 199769


Range status and errors

Selected range

Filename C:\EAC\ungern666\The Flight of Sleipnir - Eventide.wav

Peak level 97.6 %
Extraction speed 1.9 X
Range quality 99.9 %
Test CRC 103528D3
Copy CRC 103528D3
Copy OK

No errors occurred


AccurateRip summary

Track 1 not present in database
Track 2 not present in database
Track 3 not present in database
Track 4 not present in database
Track 5 not present in database
Track 6 not present in database

None of the tracks are present in the AccurateRip database

End of status report

–– AcoustID Plugin V1.2.0

Total fingerprints: 6


–– CUETools DB Plugin V2.1.6

[CTDB TOCID: 2RLyBS1c8NUZfGaY_dk_X.WQcRU-] found
Submit result: 2RLyBS1c8NUZfGaY_dk_X.WQcRU- has been confirmed
Track | CTDB Status
1 | (4/4) Accurately ripped
2 | (4/4) Accurately ripped
3 | (4/4) Accurately ripped
4 | (4/4) Accurately ripped
5 | (4/4) Accurately ripped
6 | (4/4) Accurately ripped


==== Log checksum DABC8EFB9EB071D9D83A8ABBC2411C616919893EC911F74B93484492012C9A27 ====

[CUETools log; Date: 24.09.2023 21:18:30; Version: 2.1.4]
[CTDB TOCID: 2RLyBS1c8NUZfGaY_dk_X.WQcRU-] found.
Track | CTDB Status
1 | (6/6) Accurately ripped
2 | (6/6) Accurately ripped
3 | (6/6) Accurately ripped
4 | (6/6) Accurately ripped
5 | (6/6) Accurately ripped
6 | (6/6) Accurately ripped
[AccurateRip ID: 000a7a81-00381315-4c0a6706] disk not present in database.

Track Peak [ CRC32 ] [W/O NULL] [ LOG ]
– 97,6 [103528D3] [804E68DD] CRC32
01 97,6 [F683283C] [5DD88F68]
02 97,0 [03AAF80D] [266B8853]
03 96,9 [3DB33E54] [ECC01B12]
04 96,9 [9FFFE561] [6477EC63]
05 97,3 [6FA89312] [9F75F0CF]
06 97,1 [A4472C37] [50008D5D]

Thanks to ungern666

See also:
The Flight Of Sleipnir - Algiz + Berkanan (2009)
The Flight Of Sleipnir - Lore (2010)
The Flight Of Sleipnir - Essence Of Nine (2011)
The Flight Of Sleipnir - Ascension (2012)
The Flight Of Sleipnir - Saga (2013)