Tags
Language
Tags
July 2024
Su Mo Tu We Th Fr Sa
30 1 2 3 4 5 6
7 8 9 10 11 12 13
14 15 16 17 18 19 20
21 22 23 24 25 26 27
28 29 30 31 1 2 3

Sarah Vaughan - Original Album Series (2015)

Posted By: Rtax
Sarah Vaughan - Original Album Series (2015)

Sarah Vaughan - Original Album Series (2015)
EAC Rip | FLAC (tracks, cue, log) - 949 MB | MP3 CBR 320 kbps - 405 MB
2:57:05 | Jazz | Label: Parlophone

Excellent five CD set containing a quintet of albums from the Jazz great packaged in mini LP sleeves and housed in a slipcase. Includes the albums Dreamy (1960), The Divine One (1961), Count Basie/Sarah Vaughan (1961), After Hours (1961) and You're Mine You (1962).

Tracklist
CD1: Dreamy (1960)
01. Dreamy (1998 Remaster) [02:58]
02. Hands Across the Table [02:55]
03. The More I See You [03:09]
04. I'll Be Seeing You [02:55]
05. Star Eyes [03:01]
06. You've Changed [03:41]
07. Trees [03:02]
08. Why Was I Born? [02:32]
09. My Ideal [02:59]
10. Crazy He Calls Me [03:08]
11. Stormy Weather (with Jimmie Jones and Orchestra) [03:29]
12. Moon over Miami [02:33]

CD2: The Divine One (1961)
01. Have You Met Miss Jones? (2007 Remaster) [02:21]
02. Ain't No Use (2007 Remaster) [03:53]
03. Every Time I See You (2007 Remaster) [03:01]
04. You Stepped out of a Dream (2007 Remaster) [02:20]
05. Gloomy Sunday (2007 Remaster) [03:26]
06. What Do You See in Her? (2007 Remaster) [02:51]
07. Jump for Joy (2007 Remaster) [02:27]
08. When Your Lover Has Gone (2007 Remaster) [02:18]
09. I'm Gonna Laugh You out of My Life (2007 Remaster) [02:50]
10. Wrap Your Troubles in Dreams (2007 Remaster) [02:33]
11. Somebody Else's Dream (2007 Remaster) [02:24]
12. Trouble Is a Man (2007 Remaster) [03:18]

CD3: Count Basie & Sarah Vaughan (1962)
01. Perdido (2002 Remaster) [02:11]
02. Lover Man (2002 Remaster) [03:57]
03. I Cried for You (2002 Remaster) [02:56]
04. Alone (2002 Remaster) [03:56]
05. There Are Such Things (2002 Remaster) [03:11]
06. Mean to Me (2002 Remaster) [02:52]
07. The Gentleman Is a Dope (2002 Remaster) [02:46]
08. You Go to My Head (2002 Remaster) [04:53]
09. Until I Met You (2002 Remaster) [03:10]
10. You Turned the Tables on Me (2002 Remaster) [03:24]
11. Little Man You've Had a Busy Day (2002 Remaster) [04:53]

CD4: After Hours (1961)
01. My Favourite Things [02:47]
02. Ev'ry Time We Say Goodbye [02:27]
03. Wonder Why [04:19]
04. Easy to Love [02:12]
05. Sophisticated Lady [03:53]
06. Great Day [02:17]
07. Ill Wind [03:13]
08. If Love Is Good to Me [02:12]
09. In a Sentimental Mood [04:05]
10. Vanity [04:18]

CD5: You're Mine You (1962)
01. You're Mine You (1997 Remaster) [04:03]
02. The Best Is yet to Come (1997 Remaster) [03:02]
03. Witchcraft (1997 Remaster) [02:58]
04. So Long (1997 Remaster) [02:55]
05. The Second Time Around (1997 Remaster) [03:43]
06. I Could Write a Book (1997 Remaster) [02:24]
07. Maria (1997 Remaster) [03:13]
08. Baubles, Bangles and Beads (1997 Remaster) [03:41]
09. Fly Me to the Moon (In Other Words) (1997 Remaster) [02:56]
10. Moonglow (1997 Remaster) [02:30]
11. Invitation (1997 Remaster) [02:18]
12. On Green Dolphin Street (Remix; 1997 Remaster) [03:04]
Exact Audio Copy V1.6 from 23. October 2020

EAC extraction logfile from 25. June 2023, 15:35

Sarah Vaughan / Dreamy

Used drive : HL-DT-STDVDRAM GP65NB60 Adapter: 1 ID: 0

Read mode : Secure
Utilize accurate stream : Yes
Defeat audio cache : Yes
Make use of C2 pointers : No

Read offset correction : 6
Overread into Lead-In and Lead-Out : No
Fill up missing offset samples with silence : Yes
Delete leading and trailing silent blocks : No
Null samples used in CRC calculations : Yes
Used interface : Native Win32 interface for Win NT & 2000
Gap handling : Appended to previous track

Used output format : User Defined Encoder
Selected bitrate : 1024 kBit/s
Quality : High
Add ID3 tag : No
Command line compressor : C:\Program Files (x86)\FLAC Frontend\tools\flac.exe
Additional command line options : -8 -V -T "ARTIST=%artist%" -T "TITLE=%title%" -T "ALBUM=%albumtitle%" -T "DATE=%year%" -T "TRACKNUMBER=%tracknr%" -T "GENRE=%genre%" -T "PERFORMER=%albuminterpret%" -T "COMPOSER=%composer%" -T "ALBUMARTIST=%albumartist%" -T "DISCNUMBER=%cdnumber%" -T "TOTALDISCS=%totalcds%" -T "TOTALTRACKS=%numtracks%" -T "COMMENT=%comment%" %source% -o %dest%


TOC of the extracted CD

Track | Start | Length | Start sector | End sector
––––––––––––––––––––––––––––-
1 | 0:00.00 | 2:58.54 | 0 | 13403
2 | 2:58.54 | 2:55.23 | 13404 | 26551
3 | 5:54.02 | 3:09.20 | 26552 | 40746
4 | 9:03.22 | 2:55.38 | 40747 | 53909
5 | 11:58.60 | 3:01.17 | 53910 | 67501
6 | 15:00.02 | 3:41.28 | 67502 | 84104
7 | 18:41.30 | 3:03.71 | 84105 | 97900
8 | 21:45.26 | 2:32.12 | 97901 | 109312
9 | 24:17.38 | 2:59.16 | 109313 | 122753
10 | 27:16.54 | 3:08.23 | 122754 | 136876
11 | 30:25.02 | 3:31.68 | 136877 | 152769
12 | 33:56.70 | 2:33.01 | 152770 | 164245


Track 1

Filename D:\Rips\Sarah Vaughan - Original Album Series (2015) {0825646179787} [CD FLAC]\CD1 - Dreamy\01 - Dreamy.wav

Pre-gap length 0:00:02.00

Peak level 91.1 %
Extraction speed 1.0 X
Track quality 100.0 %
Test CRC B6410764
Copy CRC B6410764
Accurately ripped (confidence 12) [A43F8122] (AR v2)
Copy OK

Track 2

Filename D:\Rips\Sarah Vaughan - Original Album Series (2015) {0825646179787} [CD FLAC]\CD1 - Dreamy\02 - Hands Across The Table.wav

Peak level 85.2 %
Extraction speed 0.9 X
Track quality 99.9 %
Test CRC E164D7E0
Copy CRC E164D7E0
Accurately ripped (confidence 12) [AE757690] (AR v2)
Copy OK

Track 3

Filename D:\Rips\Sarah Vaughan - Original Album Series (2015) {0825646179787} [CD FLAC]\CD1 - Dreamy\03 - The More I See You.wav

Peak level 97.7 %
Extraction speed 1.2 X
Track quality 100.0 %
Test CRC 3FA7A6EC
Copy CRC 3FA7A6EC
Accurately ripped (confidence 12) [E810CABE] (AR v2)
Copy OK

Track 4

Filename D:\Rips\Sarah Vaughan - Original Album Series (2015) {0825646179787} [CD FLAC]\CD1 - Dreamy\04 - I'll Be Seeing You.wav

Peak level 78.6 %
Extraction speed 1.3 X
Track quality 100.0 %
Test CRC B326AC2A
Copy CRC B326AC2A
Accurately ripped (confidence 12) [240F583E] (AR v2)
Copy OK

Track 5

Filename D:\Rips\Sarah Vaughan - Original Album Series (2015) {0825646179787} [CD FLAC]\CD1 - Dreamy\05 - Star Eyes.wav

Peak level 97.7 %
Extraction speed 1.2 X
Track quality 99.9 %
Test CRC 92D7C97B
Copy CRC 92D7C97B
Accurately ripped (confidence 12) [DB87A426] (AR v2)
Copy OK

Track 6

Filename D:\Rips\Sarah Vaughan - Original Album Series (2015) {0825646179787} [CD FLAC]\CD1 - Dreamy\06 - You've Changed.wav

Peak level 77.1 %
Extraction speed 1.4 X
Track quality 100.0 %
Test CRC F8BD8630
Copy CRC F8BD8630
Accurately ripped (confidence 12) [390E36A0] (AR v2)
Copy OK

Track 7

Filename D:\Rips\Sarah Vaughan - Original Album Series (2015) {0825646179787} [CD FLAC]\CD1 - Dreamy\07 - Trees.wav

Peak level 84.8 %
Extraction speed 1.2 X
Track quality 99.9 %
Test CRC 2CC224A3
Copy CRC 2CC224A3
Accurately ripped (confidence 12) [F0CFF415] (AR v2)
Copy OK

Track 8

Filename D:\Rips\Sarah Vaughan - Original Album Series (2015) {0825646179787} [CD FLAC]\CD1 - Dreamy\08 - Why Was I Born.wav

Peak level 77.6 %
Extraction speed 1.4 X
Track quality 100.0 %
Test CRC 179D466B
Copy CRC 179D466B
Accurately ripped (confidence 12) [14360645] (AR v2)
Copy OK

Track 9

Filename D:\Rips\Sarah Vaughan - Original Album Series (2015) {0825646179787} [CD FLAC]\CD1 - Dreamy\09 - My Ideal.wav

Peak level 81.6 %
Extraction speed 1.5 X
Track quality 100.0 %
Test CRC 47A3B51E
Copy CRC 47A3B51E
Accurately ripped (confidence 12) [E7B61C9F] (AR v2)
Copy OK

Track 10

Filename D:\Rips\Sarah Vaughan - Original Album Series (2015) {0825646179787} [CD FLAC]\CD1 - Dreamy\10 - Crazy He Calls Me.wav

Peak level 86.5 %
Extraction speed 1.5 X
Track quality 100.0 %
Test CRC 05CAE856
Copy CRC 05CAE856
Accurately ripped (confidence 12) [1AFBC0A3] (AR v2)
Copy OK

Track 11

Filename D:\Rips\Sarah Vaughan - Original Album Series (2015) {0825646179787} [CD FLAC]\CD1 - Dreamy\11 - Stormy Weather.wav

Peak level 80.9 %
Extraction speed 1.6 X
Track quality 100.0 %
Test CRC 85C6A60E
Copy CRC 85C6A60E
Accurately ripped (confidence 12) [FAAD9DFC] (AR v2)
Copy OK

Track 12

Filename D:\Rips\Sarah Vaughan - Original Album Series (2015) {0825646179787} [CD FLAC]\CD1 - Dreamy\12 - Moon Over Miami.wav

Peak level 96.3 %
Extraction speed 1.4 X
Track quality 100.0 %
Test CRC 0B4A82A7
Copy CRC 0B4A82A7
Accurately ripped (confidence 12) [FD7E987F] (AR v2)
Copy OK


All tracks accurately ripped

No errors occurred

End of status report

–– CUETools DB Plugin V2.2.3

[CTDB TOCID: w9ejKLTqi2FaCjaPXMCpV.2bzGE-] found
Submit result: w9ejKLTqi2FaCjaPXMCpV.2bzGE- has been confirmed
Track | CTDB Status
1 | (27/27) Accurately ripped
2 | (27/27) Accurately ripped
3 | (27/27) Accurately ripped
4 | (27/27) Accurately ripped
5 | (27/27) Accurately ripped
6 | (27/27) Accurately ripped
7 | (27/27) Accurately ripped
8 | (27/27) Accurately ripped
9 | (27/27) Accurately ripped
10 | (27/27) Accurately ripped
11 | (27/27) Accurately ripped
12 | (27/27) Accurately ripped


==== Log checksum 2C7326F9A3BD78CF5245E8A3BE4C961228B9B0443BB4B551C9460C4A9D48B381 ====


Exact Audio Copy V1.6 from 23. October 2020

EAC extraction logfile from 25. June 2023, 18:11

Sarah Vaughan / The Divine One

Used drive : HL-DT-STDVDRAM GP65NB60 Adapter: 1 ID: 0

Read mode : Secure
Utilize accurate stream : Yes
Defeat audio cache : Yes
Make use of C2 pointers : No

Read offset correction : 6
Overread into Lead-In and Lead-Out : No
Fill up missing offset samples with silence : Yes
Delete leading and trailing silent blocks : No
Null samples used in CRC calculations : Yes
Used interface : Native Win32 interface for Win NT & 2000
Gap handling : Appended to previous track

Used output format : User Defined Encoder
Selected bitrate : 1024 kBit/s
Quality : High
Add ID3 tag : No
Command line compressor : C:\Program Files (x86)\FLAC Frontend\tools\flac.exe
Additional command line options : -8 -V -T "ARTIST=%artist%" -T "TITLE=%title%" -T "ALBUM=%albumtitle%" -T "DATE=%year%" -T "TRACKNUMBER=%tracknr%" -T "GENRE=%genre%" -T "PERFORMER=%albuminterpret%" -T "COMPOSER=%composer%" -T "ALBUMARTIST=%albumartist%" -T "DISCNUMBER=%cdnumber%" -T "TOTALDISCS=%totalcds%" -T "TOTALTRACKS=%numtracks%" -T "COMMENT=%comment%" %source% -o %dest%


TOC of the extracted CD

Track | Start | Length | Start sector | End sector
––––––––––––––––––––––––––––-
1 | 0:00.00 | 2:21.52 | 0 | 10626
2 | 2:21.52 | 3:53.54 | 10627 | 28155
3 | 6:15.31 | 3:01.20 | 28156 | 41750
4 | 9:16.51 | 2:20.13 | 41751 | 52263
5 | 11:36.64 | 3:26.08 | 52264 | 67721
6 | 15:02.72 | 2:51.22 | 67722 | 80568
7 | 17:54.19 | 2:27.42 | 80569 | 91635
8 | 20:21.61 | 2:18.41 | 91636 | 102026
9 | 22:40.27 | 2:50.52 | 102027 | 114828
10 | 25:31.04 | 2:33.35 | 114829 | 126338
11 | 28:04.39 | 2:24.65 | 126339 | 137203
12 | 30:29.29 | 3:18.32 | 137204 | 152085


Track 1

Filename D:\Rips\Sarah Vaughan - Original Album Series (2015) {0825646179787} [CD FLAC]\CD2 - The Divine One\01 - Have You Met Miss Jones.wav

Pre-gap length 0:00:02.00

Peak level 100.0 %
Extraction speed 2.2 X
Track quality 100.0 %
Test CRC EEA7303D
Copy CRC EEA7303D
Accurately ripped (confidence 13) [4806407F] (AR v2)
Copy OK

Track 2

Filename D:\Rips\Sarah Vaughan - Original Album Series (2015) {0825646179787} [CD FLAC]\CD2 - The Divine One\02 - Ain’t No Use.wav

Peak level 99.8 %
Extraction speed 2.3 X
Track quality 99.9 %
Test CRC A40A81AE
Copy CRC A40A81AE
Accurately ripped (confidence 13) [FCA0DE1F] (AR v2)
Copy OK

Track 3

Filename D:\Rips\Sarah Vaughan - Original Album Series (2015) {0825646179787} [CD FLAC]\CD2 - The Divine One\03 - Every Time I See You.wav

Peak level 99.6 %
Extraction speed 2.3 X
Track quality 99.9 %
Test CRC 028B286F
Copy CRC 028B286F
Accurately ripped (confidence 13) [A09CA319] (AR v2)
Copy OK

Track 4

Filename D:\Rips\Sarah Vaughan - Original Album Series (2015) {0825646179787} [CD FLAC]\CD2 - The Divine One\04 - You Stepped Out of a Dream.wav

Peak level 99.8 %
Extraction speed 2.8 X
Track quality 100.0 %
Test CRC B6B5281B
Copy CRC B6B5281B
Accurately ripped (confidence 13) [CF579B0E] (AR v2)
Copy OK

Track 5

Filename D:\Rips\Sarah Vaughan - Original Album Series (2015) {0825646179787} [CD FLAC]\CD2 - The Divine One\05 - Gloomy Sunday.wav

Peak level 99.7 %
Extraction speed 3.2 X
Track quality 100.0 %
Test CRC 52EEAA4A
Copy CRC 52EEAA4A
Accurately ripped (confidence 13) [5BB34358] (AR v2)
Copy OK

Track 6

Filename D:\Rips\Sarah Vaughan - Original Album Series (2015) {0825646179787} [CD FLAC]\CD2 - The Divine One\06 - What Do You See in Her.wav

Peak level 99.8 %
Extraction speed 2.7 X
Track quality 99.9 %
Test CRC AFED4B59
Copy CRC AFED4B59
Accurately ripped (confidence 13) [324DA762] (AR v2)
Copy OK

Track 7

Filename D:\Rips\Sarah Vaughan - Original Album Series (2015) {0825646179787} [CD FLAC]\CD2 - The Divine One\07 - Jump for Joy.wav

Peak level 100.0 %
Extraction speed 3.3 X
Track quality 100.0 %
Test CRC 002CD18B
Copy CRC 002CD18B
Accurately ripped (confidence 13) [89E12137] (AR v2)
Copy OK

Track 8

Filename D:\Rips\Sarah Vaughan - Original Album Series (2015) {0825646179787} [CD FLAC]\CD2 - The Divine One\08 - When Your Lover Has Gone.wav

Peak level 100.0 %
Extraction speed 3.4 X
Track quality 100.0 %
Test CRC CA3D5ED2
Copy CRC CA3D5ED2
Accurately ripped (confidence 13) [F05FF25B] (AR v2)
Copy OK

Track 9

Filename D:\Rips\Sarah Vaughan - Original Album Series (2015) {0825646179787} [CD FLAC]\CD2 - The Divine One\09 - I’m Gonna Laugh You Out of My Life.wav

Peak level 100.0 %
Extraction speed 3.6 X
Track quality 100.0 %
Test CRC 2F521DF7
Copy CRC 2F521DF7
Accurately ripped (confidence 13) [213F6B73] (AR v2)
Copy OK

Track 10

Filename D:\Rips\Sarah Vaughan - Original Album Series (2015) {0825646179787} [CD FLAC]\CD2 - The Divine One\10 - Wrap Your Troubles in Dream.wav

Peak level 99.7 %
Extraction speed 3.6 X
Track quality 100.0 %
Test CRC D84C94BE
Copy CRC D84C94BE
Accurately ripped (confidence 13) [87F4BE26] (AR v2)
Copy OK

Track 11

Filename D:\Rips\Sarah Vaughan - Original Album Series (2015) {0825646179787} [CD FLAC]\CD2 - The Divine One\11 - Somebody Else’s Dream.wav

Peak level 99.9 %
Extraction speed 3.7 X
Track quality 100.0 %
Test CRC 29975F1F
Copy CRC 29975F1F
Accurately ripped (confidence 13) [C7C04B3C] (AR v2)
Copy OK

Track 12

Filename D:\Rips\Sarah Vaughan - Original Album Series (2015) {0825646179787} [CD FLAC]\CD2 - The Divine One\12 - Trouble Is a Man.wav

Peak level 99.7 %
Extraction speed 4.0 X
Track quality 100.0 %
Test CRC 6998EAE4
Copy CRC 6998EAE4
Accurately ripped (confidence 13) [89A5C209] (AR v2)
Copy OK


All tracks accurately ripped

No errors occurred

End of status report

–– CUETools DB Plugin V2.2.3

[CTDB TOCID: 6OVdTCq0N3vjrhGPZz0ChiqhccA-] found
Submit result: 6OVdTCq0N3vjrhGPZz0ChiqhccA- has been confirmed
Track | CTDB Status
1 | (27/27) Accurately ripped
2 | (27/27) Accurately ripped
3 | (27/27) Accurately ripped
4 | (27/27) Accurately ripped
5 | (27/27) Accurately ripped
6 | (27/27) Accurately ripped
7 | (27/27) Accurately ripped
8 | (27/27) Accurately ripped
9 | (27/27) Accurately ripped
10 | (27/27) Accurately ripped
11 | (27/27) Accurately ripped
12 | (27/27) Accurately ripped


==== Log checksum 0D6C5D9B658AD5AFD4D7173EC8786AFBAF2CCBF661015E724E2D0636F7677A96 ====


Exact Audio Copy V1.6 from 23. October 2020

EAC extraction logfile from 25. June 2023, 17:19

Count Basie & Sarah Vaughn / Count Basie & Sarah Vaughn

Used drive : HL-DT-STDVDRAM GP65NB60 Adapter: 1 ID: 0

Read mode : Secure
Utilize accurate stream : Yes
Defeat audio cache : Yes
Make use of C2 pointers : No

Read offset correction : 6
Overread into Lead-In and Lead-Out : No
Fill up missing offset samples with silence : Yes
Delete leading and trailing silent blocks : No
Null samples used in CRC calculations : Yes
Used interface : Native Win32 interface for Win NT & 2000
Gap handling : Appended to previous track

Used output format : User Defined Encoder
Selected bitrate : 1024 kBit/s
Quality : High
Add ID3 tag : No
Command line compressor : C:\Program Files (x86)\FLAC Frontend\tools\flac.exe
Additional command line options : -8 -V -T "ARTIST=%artist%" -T "TITLE=%title%" -T "ALBUM=%albumtitle%" -T "DATE=%year%" -T "TRACKNUMBER=%tracknr%" -T "GENRE=%genre%" -T "PERFORMER=%albuminterpret%" -T "COMPOSER=%composer%" -T "ALBUMARTIST=%albumartist%" -T "DISCNUMBER=%cdnumber%" -T "TOTALDISCS=%totalcds%" -T "TOTALTRACKS=%numtracks%" -T "COMMENT=%comment%" %source% -o %dest%


TOC of the extracted CD

Track | Start | Length | Start sector | End sector
––––––––––––––––––––––––––––-
1 | 0:00.00 | 2:12.72 | 0 | 9971
2 | 2:12.72 | 3:59.08 | 9972 | 27904
3 | 6:12.05 | 2:56.07 | 27905 | 41111
4 | 9:08.12 | 3:56.13 | 41112 | 58824
5 | 13:04.25 | 3:12.20 | 58825 | 73244
6 | 16:16.45 | 2:51.50 | 73245 | 86119
7 | 19:08.20 | 2:46.40 | 86120 | 98609
8 | 21:54.60 | 4:53.17 | 98610 | 120601
9 | 26:48.02 | 3:10.28 | 120602 | 134879
10 | 29:58.30 | 3:24.42 | 134880 | 150221
11 | 33:22.72 | 4:51.03 | 150222 | 172049


Track 1

Filename D:\Rips\Sarah Vaughan - Original Album Series (2015) {0825646179787} [CD FLAC]\CD3 - Count Basie & Sarah Vaughan\01 - Perdido.wav

Pre-gap length 0:00:02.00

Peak level 100.0 %
Extraction speed 0.9 X
Track quality 100.0 %
Test CRC D3103E65
Copy CRC D3103E65
Accurately ripped (confidence 12) [9850130B] (AR v2)
Copy OK

Track 2

Filename D:\Rips\Sarah Vaughan - Original Album Series (2015) {0825646179787} [CD FLAC]\CD3 - Count Basie & Sarah Vaughan\02 - Lover Man.wav

Pre-gap length 0:00:02.40

Peak level 100.0 %
Extraction speed 1.2 X
Track quality 100.0 %
Test CRC 42F873A5
Copy CRC 42F873A5
Accurately ripped (confidence 12) [D8BB50C8] (AR v2)
Copy OK

Track 3

Filename D:\Rips\Sarah Vaughan - Original Album Series (2015) {0825646179787} [CD FLAC]\CD3 - Count Basie & Sarah Vaughan\03 - I Cried For You.wav

Pre-gap length 0:00:02.44

Peak level 100.0 %
Extraction speed 1.2 X
Track quality 100.0 %
Test CRC 9B8D156D
Copy CRC 9B8D156D
Accurately ripped (confidence 12) [9BB032F1] (AR v2)
Copy OK

Track 4

Filename D:\Rips\Sarah Vaughan - Original Album Series (2015) {0825646179787} [CD FLAC]\CD3 - Count Basie & Sarah Vaughan\04 - Alone.wav

Pre-gap length 0:00:02.53

Peak level 92.7 %
Extraction speed 1.4 X
Track quality 100.0 %
Test CRC AD966C23
Copy CRC AD966C23
Accurately ripped (confidence 12) [021F8A9A] (AR v2)
Copy OK

Track 5

Filename D:\Rips\Sarah Vaughan - Original Album Series (2015) {0825646179787} [CD FLAC]\CD3 - Count Basie & Sarah Vaughan\05 - There Are Such Things.wav

Pre-gap length 0:00:02.24

Peak level 92.6 %
Extraction speed 1.4 X
Track quality 100.0 %
Test CRC 249FCBCA
Copy CRC 249FCBCA
Accurately ripped (confidence 12) [785CF259] (AR v2)
Copy OK

Track 6

Filename D:\Rips\Sarah Vaughan - Original Album Series (2015) {0825646179787} [CD FLAC]\CD3 - Count Basie & Sarah Vaughan\06 - Mean To Me.wav

Pre-gap length 0:00:02.80

Peak level 100.0 %
Extraction speed 1.2 X
Track quality 99.9 %
Test CRC 459452EE
Copy CRC 459452EE
Accurately ripped (confidence 12) [545FB03D] (AR v2)
Copy OK

Track 7

Filename D:\Rips\Sarah Vaughan - Original Album Series (2015) {0825646179787} [CD FLAC]\CD3 - Count Basie & Sarah Vaughan\07 - The Gentleman Is A Dope.wav

Pre-gap length 0:00:02.37

Peak level 100.0 %
Extraction speed 1.5 X
Track quality 100.0 %
Test CRC 11AAD72E
Copy CRC 11AAD72E
Accurately ripped (confidence 12) [39F74E33] (AR v2)
Copy OK

Track 8

Filename D:\Rips\Sarah Vaughan - Original Album Series (2015) {0825646179787} [CD FLAC]\CD3 - Count Basie & Sarah Vaughan\08 - You Go To My Head.wav

Pre-gap length 0:00:02.57

Peak level 99.2 %
Extraction speed 1.7 X
Track quality 100.0 %
Test CRC 30A7123C
Copy CRC 30A7123C
Accurately ripped (confidence 12) [41875C6C] (AR v2)
Copy OK

Track 9

Filename D:\Rips\Sarah Vaughan - Original Album Series (2015) {0825646179787} [CD FLAC]\CD3 - Count Basie & Sarah Vaughan\09 - Until I Met You.wav

Pre-gap length 0:00:02.53

Peak level 90.6 %
Extraction speed 1.7 X
Track quality 100.0 %
Test CRC 15B0C555
Copy CRC 15B0C555
Accurately ripped (confidence 12) [EB84D112] (AR v2)
Copy OK

Track 10

Filename D:\Rips\Sarah Vaughan - Original Album Series (2015) {0825646179787} [CD FLAC]\CD3 - Count Basie & Sarah Vaughan\10 - You Turned The Tables On Me.wav

Pre-gap length 0:00:02.20

Peak level 100.0 %
Extraction speed 1.8 X
Track quality 100.0 %
Test CRC E7B6BD7B
Copy CRC E7B6BD7B
Accurately ripped (confidence 12) [D87DEEC8] (AR v2)
Copy OK

Track 11

Filename D:\Rips\Sarah Vaughan - Original Album Series (2015) {0825646179787} [CD FLAC]\CD3 - Count Basie & Sarah Vaughan\11 - Little Man (You've Had A Busy Day).wav

Pre-gap length 0:00:02.42

Peak level 100.0 %
Extraction speed 1.9 X
Track quality 100.0 %
Test CRC EF0A7AAE
Copy CRC EF0A7AAE
Accurately ripped (confidence 12) [6D485CD2] (AR v2)
Copy OK


All tracks accurately ripped

No errors occurred

End of status report

–– CUETools DB Plugin V2.2.3

[CTDB TOCID: MX3Yr_3.8opK7bYxSBQCaj.uHyE-] found
Submit result: MX3Yr_3.8opK7bYxSBQCaj.uHyE- has been confirmed
Track | CTDB Status
1 | (25/25) Accurately ripped
2 | (25/25) Accurately ripped
3 | (25/25) Accurately ripped
4 | (25/25) Accurately ripped
5 | (25/25) Accurately ripped
6 | (25/25) Accurately ripped
7 | (25/25) Accurately ripped
8 | (25/25) Accurately ripped
9 | (25/25) Accurately ripped
10 | (25/25) Accurately ripped
11 | (25/25) Accurately ripped


==== Log checksum 894FC81EBAED222303D6E4FA4091665CC084578C02D5CDE20F258E4F6F23CC25 ====


Exact Audio Copy V1.6 from 23. October 2020

EAC extraction logfile from 25. June 2023, 23:34

Sarah Vaughan / You're Mine You

Used drive : HL-DT-STDVDRAM GP65NB60 Adapter: 1 ID: 0

Read mode : Secure
Utilize accurate stream : Yes
Defeat audio cache : Yes
Make use of C2 pointers : No

Read offset correction : 6
Overread into Lead-In and Lead-Out : No
Fill up missing offset samples with silence : Yes
Delete leading and trailing silent blocks : No
Null samples used in CRC calculations : Yes
Used interface : Native Win32 interface for Win NT & 2000
Gap handling : Appended to previous track

Used output format : User Defined Encoder
Selected bitrate : 1024 kBit/s
Quality : High
Add ID3 tag : No
Command line compressor : C:\Program Files (x86)\FLAC Frontend\tools\flac.exe
Additional command line options : -8 -V -T "ARTIST=%artist%" -T "TITLE=%title%" -T "ALBUM=%albumtitle%" -T "DATE=%year%" -T "TRACKNUMBER=%tracknr%" -T "GENRE=%genre%" -T "PERFORMER=%albuminterpret%" -T "COMPOSER=%composer%" -T "ALBUMARTIST=%albumartist%" -T "DISCNUMBER=%cdnumber%" -T "TOTALDISCS=%totalcds%" -T "TOTALTRACKS=%numtracks%" -T "COMMENT=%comment%" %source% -o %dest%


TOC of the extracted CD

Track | Start | Length | Start sector | End sector
––––––––––––––––––––––––––––-
1 | 0:00.00 | 4:03.05 | 0 | 18229
2 | 4:03.05 | 3:02.57 | 18230 | 31936
3 | 7:05.62 | 2:58.08 | 31937 | 45294
4 | 10:03.70 | 2:55.22 | 45295 | 58441
5 | 12:59.17 | 3:43.35 | 58442 | 75201
6 | 16:42.52 | 2:24.02 | 75202 | 86003
7 | 19:06.54 | 3:13.55 | 86004 | 100533
8 | 22:20.34 | 3:41.48 | 100534 | 117156
9 | 26:02.07 | 2:56.27 | 117157 | 130383
10 | 28:58.34 | 2:30.30 | 130384 | 141663
11 | 31:28.64 | 2:18.28 | 141664 | 152041
12 | 33:47.17 | 3:04.28 | 152042 | 165869


Track 1

Filename D:\Rips\Sarah Vaughan - Original Album Series (2015) {0825646179787} [CD FLAC]\CD5 - You're Mine You\01 - You're Mine You.wav

Pre-gap length 0:00:02.00

Peak level 95.3 %
Extraction speed 1.1 X
Track quality 100.0 %
Test CRC 0186780C
Copy CRC 0186780C
Accurately ripped (confidence 14) [B40A7422] (AR v2)
Copy OK

Track 2

Filename D:\Rips\Sarah Vaughan - Original Album Series (2015) {0825646179787} [CD FLAC]\CD5 - You're Mine You\02 - The Best Is yet to Come.wav

Peak level 98.2 %
Extraction speed 1.2 X
Track quality 100.0 %
Test CRC DC04B980
Copy CRC DC04B980
Accurately ripped (confidence 14) [F86E9220] (AR v2)
Copy OK

Track 3

Filename D:\Rips\Sarah Vaughan - Original Album Series (2015) {0825646179787} [CD FLAC]\CD5 - You're Mine You\03 - Witchcraft.wav

Peak level 99.3 %
Extraction speed 1.2 X
Track quality 100.0 %
Test CRC 67596D5E
Copy CRC 67596D5E
Accurately ripped (confidence 14) [EAAF0404] (AR v2)
Copy OK

Track 4

Filename D:\Rips\Sarah Vaughan - Original Album Series (2015) {0825646179787} [CD FLAC]\CD5 - You're Mine You\04 - So Long.wav

Peak level 94.3 %
Extraction speed 1.1 X
Track quality 99.9 %
Test CRC C7E6776E
Copy CRC C7E6776E
Accurately ripped (confidence 14) [5C7E9F1F] (AR v2)
Copy OK

Track 5

Filename D:\Rips\Sarah Vaughan - Original Album Series (2015) {0825646179787} [CD FLAC]\CD5 - You're Mine You\05 - Second Time Around.wav

Peak level 87.4 %
Extraction speed 1.4 X
Track quality 100.0 %
Test CRC C04B37D1
Copy CRC C04B37D1
Accurately ripped (confidence 14) [52DDAD65] (AR v2)
Copy OK

Track 6

Filename D:\Rips\Sarah Vaughan - Original Album Series (2015) {0825646179787} [CD FLAC]\CD5 - You're Mine You\06 - I Could Write a Book.wav

Peak level 100.0 %
Extraction speed 1.4 X
Track quality 100.0 %
Test CRC 016805D8
Copy CRC 016805D8
Accurately ripped (confidence 14) [9DE43D95] (AR v2)
Copy OK

Track 7

Filename D:\Rips\Sarah Vaughan - Original Album Series (2015) {0825646179787} [CD FLAC]\CD5 - You're Mine You\07 - Maria.wav

Peak level 99.9 %
Extraction speed 1.5 X
Track quality 100.0 %
Test CRC 8A44C260
Copy CRC 8A44C260
Accurately ripped (confidence 14) [43B2FD91] (AR v2)
Copy OK

Track 8

Filename D:\Rips\Sarah Vaughan - Original Album Series (2015) {0825646179787} [CD FLAC]\CD5 - You're Mine You\08 - Baubles Bangles and Beads.wav

Peak level 100.0 %
Extraction speed 1.7 X
Track quality 100.0 %
Test CRC BBE5C854
Copy CRC BBE5C854
Accurately ripped (confidence 14) [D909F393] (AR v2)
Copy OK

Track 9

Filename D:\Rips\Sarah Vaughan - Original Album Series (2015) {0825646179787} [CD FLAC]\CD5 - You're Mine You\09 - Fly Me to the Moon -In Other Words.wav

Peak level 98.6 %
Extraction speed 1.6 X
Track quality 100.0 %
Test CRC 63BD3788
Copy CRC 63BD3788
Accurately ripped (confidence 14) [D6F30F65] (AR v2)
Copy OK

Track 10

Filename D:\Rips\Sarah Vaughan - Original Album Series (2015) {0825646179787} [CD FLAC]\CD5 - You're Mine You\10 - Moonglow.wav

Peak level 100.0 %
Extraction speed 1.4 X
Track quality 99.9 %
Test CRC 5B65AA4B
Copy CRC 5B65AA4B
Accurately ripped (confidence 14) [86698F08] (AR v2)
Copy OK

Track 11

Filename D:\Rips\Sarah Vaughan - Original Album Series (2015) {0825646179787} [CD FLAC]\CD5 - You're Mine You\11 - Invitation.wav

Peak level 99.6 %
Extraction speed 1.7 X
Track quality 100.0 %
Test CRC 6C4675EE
Copy CRC 6C4675EE
Accurately ripped (confidence 14) [F6787A04] (AR v2)
Copy OK

Track 12

Filename D:\Rips\Sarah Vaughan - Original Album Series (2015) {0825646179787} [CD FLAC]\CD5 - You're Mine You\12 - On Green Dolphin Street.wav

Peak level 99.9 %
Extraction speed 1.8 X
Track quality 100.0 %
Test CRC 10E3511B
Copy CRC 10E3511B
Accurately ripped (confidence 14) [50C36A66] (AR v2)
Copy OK


All tracks accurately ripped

No errors occurred

End of status report

–– CUETools DB Plugin V2.2.3

[CTDB TOCID: judvXdrrvnX6zv6vf_e69xL30qM-] found
Submit result: judvXdrrvnX6zv6vf_e69xL30qM- has been confirmed
Track | CTDB Status
1 | (27/27) Accurately ripped
2 | (27/27) Accurately ripped
3 | (27/27) Accurately ripped
4 | (27/27) Accurately ripped
5 | (27/27) Accurately ripped
6 | (27/27) Accurately ripped
7 | (27/27) Accurately ripped
8 | (27/27) Accurately ripped
9 | (27/27) Accurately ripped
10 | (27/27) Accurately ripped
11 | (27/27) Accurately ripped
12 | (27/27) Accurately ripped


==== Log checksum 98CCC274B5D10FF181C8711B506D237C10D38DC61B7F8BE0825335658A3FEBC6 ====