Tags
Language
Tags
July 2024
Su Mo Tu We Th Fr Sa
30 1 2 3 4 5 6
7 8 9 10 11 12 13
14 15 16 17 18 19 20
21 22 23 24 25 26 27
28 29 30 31 1 2 3

Sarah Vaughan - A Time In My Life (1971) {1987, MFSL, Remastered}

Posted By: popsakov
Sarah Vaughan - A Time In My Life (1971) {1987, MFSL, Remastered}

Sarah Vaughan - A Time In My Life (1971) {1987, MFSL, Remastered}
XLD Rip | FLAC (Tracks) + Cue + m3u + Log ~ 209 Mb | MP3 CBR320 ~ 92 Mb
Full Scans | 00:36:11 | RAR 5% Recovery
Vocal Jazz, Standards | Mobile Fidelity Sound Lab #MFCD 855

Sarah Vaughan brings an almost chameleon-like presence to this album, which encompasses a decidedly – almost defiantly – contemporary repertory. Her gospel approach to "Imagine" could only have delighted John Lennon at the time, while for "Inner City Blues" she embraces a fiercely soulful jazz approach, the horn accompaniment in particular romping over the tune as much as she does. And on "Sweet Gingerbread Man" she turns in the purest pop vocal performance. And so it goes, across a wide range of songs, climaxing with an amazingly intense and dramatic rendition of Bob Dylan's "If Not for You." The accompaniments may almost be too busy for what the songs themselves can bear, but Vaughan always keeps up regardless of the settings and arrangements. This record is never going to be considered a major part of her legacy, and was never going to comprise a key part of her repertory, though it's clear she embraced this material better than, say, Muddy Waters did the music on Electric Mud (a rough analog to this record), and some of it clearly registered deeply with her. On that basis alone, it's a lot more than a mere curio in her output from this period.

~ Bruce Eder, All Music

***************

Sarah Vaughan - A Time In My Life (1971) {1987, MFSL, Remastered}

Sarah Vaughan - A Time In My Life (1971) {1987, MFSL, Remastered}

Track List:

01. Imagine [4:39]
02. On Thinking It Over [3:29]
03. Inner City Blues (Make Me Wanna Holler) [4:11]
04. Sweet Gingerbread Man [3:04]
05. Magical Connection [2:39]
06. That's the Way I've Always Heard It Should Be [4:57]
07. Tomorrow City [3:14]
08. Universal Prisoner [4:08]
09. Trouble [3:00]
10. If Not for You [2:50]

X Lossless Decoder version 20181019 (151.1)

XLD extraction logfile from 2019-03-28 19:20:53 -0400

Sarah Vaughan / A Time In My Life

Used drive : MATSHITA DVD-R UJ-898 (revision HE13)
Media type : Pressed CD

Ripper mode : XLD Secure Ripper
Disable audio cache : OK for the drive with a cache less than 1375KiB
Make use of C2 pointers : NO
Read offset correction : 102
Max retry count : 100
Gap status : Analyzed, Appended (except HTOA)

TOC of the extracted CD
Track | Start | Length | Start sector | End sector
––––––––––––––––––––––––––––-
1 | 00:00:00 | 04:41:18 | 0 | 21092
2 | 04:41:18 | 03:30:50 | 21093 | 36892
3 | 08:11:68 | 04:12:55 | 36893 | 55847
4 | 12:24:48 | 03:05:52 | 55848 | 69774
5 | 15:30:25 | 02:39:68 | 69775 | 81767
6 | 18:10:18 | 05:00:35 | 81768 | 104302
7 | 23:10:53 | 03:16:12 | 104303 | 119014
8 | 26:26:65 | 04:11:00 | 119015 | 137839
9 | 30:37:65 | 03:01:53 | 137840 | 151467
10 | 33:39:43 | 02:50:27 | 151468 | 164244

AccurateRip Summary (DiscID: 000e60a8-0071d44d-89088d0a)
Track 01 : OK (v1+v2, confidence 24/24)
Track 02 : OK (v1+v2, confidence 24/24)
Track 03 : OK (v1+v2, confidence 24/24)
Track 04 : OK (v1+v2, confidence 24/24)
Track 05 : OK (v1+v2, confidence 24/24)
Track 06 : OK (v1+v2, confidence 24/24)
Track 07 : OK (v1+v2, confidence 24/24)
Track 08 : OK (v1+v2, confidence 24/24)
Track 09 : OK (v1+v2, confidence 24/24)
Track 10 : OK (v1+v2, confidence 23/23)
->All tracks accurately ripped.

All Tracks
Album gain : 0.62 dB
Peak : 0.792877
Statistics
Read error : 0
Jitter error (maybe fixed) : 0
Retry sector count : 0
Damaged sector count : 0

Track 01
Filename : /Users/Rips/Sarah Vaughan - A Time In My Life (1971) [FLAC]/01 Imagine.flac
Pre-gap length : 00:02:00

Track gain : 3.72 dB
Peak : 0.539001
CRC32 hash (test run) : 6E0D76F6
CRC32 hash : 6E0D76F6
CRC32 hash (skip zero) : E2C1A12C
AccurateRip v1 signature : 79C8C8FD
AccurateRip v2 signature : D9D2ACAF
->Accurately ripped (v1+v2, confidence 5+19/24)
Statistics
Read error : 0
Jitter error (maybe fixed) : 0
Retry sector count : 0
Damaged sector count : 0

Track 02
Filename : /Users/Rips/Sarah Vaughan - A Time In My Life (1971) [FLAC]/02 On Thinking It Over.flac
Pre-gap length : 00:01:60

Track gain : 2.72 dB
Peak : 0.571503
CRC32 hash (test run) : E39AC1C6
CRC32 hash : E39AC1C6
CRC32 hash (skip zero) : 35E18521
AccurateRip v1 signature : BCBC0ED6
AccurateRip v2 signature : 81B16CBA
->Accurately ripped (v1+v2, confidence 5+19/24)
Statistics
Read error : 0
Jitter error (maybe fixed) : 0
Retry sector count : 0
Damaged sector count : 0

Track 03
Filename : /Users/Rips/Sarah Vaughan - A Time In My Life (1971) [FLAC]/03 Inner City Blues.flac
Pre-gap length : 00:01:73

Track gain : -1.90 dB
Peak : 0.773010
CRC32 hash (test run) : 8AFFCFCB
CRC32 hash : 8AFFCFCB
CRC32 hash (skip zero) : 8F8011D2
AccurateRip v1 signature : 013C4FA2
AccurateRip v2 signature : 5F1FE3B4
->Accurately ripped (v1+v2, confidence 5+19/24)
Statistics
Read error : 0
Jitter error (maybe fixed) : 0
Retry sector count : 0
Damaged sector count : 0

Track 04
Filename : /Users/Rips/Sarah Vaughan - A Time In My Life (1971) [FLAC]/04 Sweet Gingerbread Man.flac
Pre-gap length : 00:01:53

Track gain : -0.54 dB
Peak : 0.731628
CRC32 hash (test run) : A5384787
CRC32 hash : A5384787
CRC32 hash (skip zero) : F6DD6D7B
AccurateRip v1 signature : 67FC8420
AccurateRip v2 signature : A55F5212
->Accurately ripped (v1+v2, confidence 5+19/24)
Statistics
Read error : 0
Jitter error (maybe fixed) : 0
Retry sector count : 0
Damaged sector count : 0

Track 05
Filename : /Users/Rips/Sarah Vaughan - A Time In My Life (1971) [FLAC]/05 Magical Connection.flac
Pre-gap length : 00:01:30

Track gain : 2.00 dB
Peak : 0.645660
CRC32 hash (test run) : AA765021
CRC32 hash : AA765021
CRC32 hash (skip zero) : CAC1C8B9
AccurateRip v1 signature : 05BCE4B3
AccurateRip v2 signature : 86B4ACCB
->Accurately ripped (v1+v2, confidence 5+19/24)
Statistics
Read error : 0
Jitter error (maybe fixed) : 0
Retry sector count : 0
Damaged sector count : 0

Track 06
Filename : /Users/Rips/Sarah Vaughan - A Time In My Life (1971) [FLAC]/06 That's The Way I've Always Heard It Should Be.flac
Pre-gap length : 00:01:23

Track gain : 2.50 dB
Peak : 0.611969
CRC32 hash (test run) : A81D7740
CRC32 hash : A81D7740
CRC32 hash (skip zero) : 6D01E791
AccurateRip v1 signature : 2E1D05AD
AccurateRip v2 signature : 8AB86867
->Accurately ripped (v1+v2, confidence 5+19/24)
Statistics
Read error : 0
Jitter error (maybe fixed) : 0
Retry sector count : 0
Damaged sector count : 0

Track 07
Filename : /Users/Rips/Sarah Vaughan - A Time In My Life (1971) [FLAC]/07 Tomorrow City.flac
Pre-gap length : 00:03:58

Track gain : 2.50 dB
Peak : 0.528687
CRC32 hash (test run) : 832F0137
CRC32 hash : 832F0137
CRC32 hash (skip zero) : D8CA8B0B
AccurateRip v1 signature : 1BC6F1D2
AccurateRip v2 signature : E04CA5EA
->Accurately ripped (v1+v2, confidence 5+19/24)
Statistics
Read error : 0
Jitter error (maybe fixed) : 0
Retry sector count : 0
Damaged sector count : 0

Track 08
Filename : /Users/Rips/Sarah Vaughan - A Time In My Life (1971) [FLAC]/08 Universal Prisoner.flac
Pre-gap length : 00:01:70

Track gain : 2.01 dB
Peak : 0.515381
CRC32 hash (test run) : F38A1849
CRC32 hash : F38A1849
CRC32 hash (skip zero) : 67BEEE62
AccurateRip v1 signature : A75ECC0A
AccurateRip v2 signature : 4B14EF37
->Accurately ripped (v1+v2, confidence 5+19/24)
Statistics
Read error : 0
Jitter error (maybe fixed) : 0
Retry sector count : 0
Damaged sector count : 0

Track 09
Filename : /Users/Rips/Sarah Vaughan - A Time In My Life (1971) [FLAC]/09 Trouble.flac
Pre-gap length : 00:02:70

Track gain : -2.05 dB
Peak : 0.792877
CRC32 hash (test run) : 03357961
CRC32 hash : 03357961
CRC32 hash (skip zero) : 10E06E3E
AccurateRip v1 signature : 3CD45297
AccurateRip v2 signature : 5ECD3A4F
->Accurately ripped (v1+v2, confidence 5+19/24)
Statistics
Read error : 0
Jitter error (maybe fixed) : 0
Retry sector count : 0
Damaged sector count : 0

Track 10
Filename : /Users/Rips/Sarah Vaughan - A Time In My Life (1971) [FLAC]/10 If Not For You.flac
Pre-gap length : 00:01:48

Track gain : -0.85 dB
Peak : 0.662262
CRC32 hash (test run) : B9CE8987
CRC32 hash : B9CE8987
CRC32 hash (skip zero) : 3E213B8E
AccurateRip v1 signature : C8B12642
AccurateRip v2 signature : D59FB6A5
->Accurately ripped (v1+v2, confidence 5+18/23)
Statistics
Read error : 0
Jitter error (maybe fixed) : 0
Retry sector count : 0
Damaged sector count : 0

No errors occurred

End of status report

––-BEGIN XLD SIGNATURE––-
9hj8Pk7qQA_pa4QYLGmdcO5DfUKq1mWqsJW.vMySM3xtV8qg33pUqK801ySdHZjO1jgkzcquQ5b.aVlCvOnLfYeyKf1Weimpj.qIQRC
––-END XLD SIGNATURE––-

[CUETools log; Date: 11.04.2019 9:23:26; Version: 2.1.6]
[CTDB TOCID: YRi3PNLArGn8leqtCaUeYCcMjYk-] found.
Track | CTDB Status
1 | (12/15) Accurately ripped
2 | (14/15) Accurately ripped
3 | (14/15) Accurately ripped
4 | (14/15) Accurately ripped
5 | (15/15) Accurately ripped
6 | (13/15) Accurately ripped
7 | (14/15) Accurately ripped
8 | (14/15) Accurately ripped
9 | (14/15) Accurately ripped
10 | (13/15) Accurately ripped
[AccurateRip ID: 000e60a8-0071d44d-89088d0a] found.
Track [ CRC | V2 ] Status
01 [79c8c8fd|d9d2acaf] (05+19/24) Accurately ripped
02 [bcbc0ed6|81b16cba] (05+19/24) Accurately ripped
03 [013c4fa2|5f1fe3b4] (05+19/24) Accurately ripped
04 [67fc8420|a55f5212] (05+19/24) Accurately ripped
05 [05bce4b3|86b4accb] (05+19/24) Accurately ripped
06 [2e1d05ad|8ab86867] (05+19/24) Accurately ripped
07 [1bc6f1d2|e04ca5ea] (05+19/24) Accurately ripped
08 [a75ecc0a|4b14ef37] (05+19/24) Accurately ripped
09 [3cd45297|5ecd3a4f] (05+19/24) Accurately ripped
10 [c8b12642|d59fb6a5] (05+18/23) Accurately ripped

Track Peak [ CRC32 ] [W/O NULL]
– 79,2 [821E508F] [6EC9DBEF]
01 53,9 [6E0D76F6] [E2C1A12C]
02 57,1 [E39AC1C6] [35E18521]
03 77,3 [8AFFCFCB] [8F8011D2]
04 73,1 [A5384787] [F6DD6D7B]
05 64,5 [AA765021] [CAC1C8B9]
06 61,1 [A81D7740] [6D01E791]
07 52,8 [832F0137] [D8CA8B0B]
08 51,5 [F38A1849] [67BEEE62]
09 79,2 [03357961] [10E06E3E]
10 66,2 [B9CE8987] [3E213B8E]

Sarah Vaughan - A Time In My Life (1971) {1987, MFSL, Remastered}


All thanks go to the original ripper(s) …

>>> Sarah Vaughan in my Blog <<<

DOWNLOAD: