Tags
Language
Tags
February 2024
Su Mo Tu We Th Fr Sa
28 29 30 31 1 2 3
4 5 6 7 8 9 10
11 12 13 14 15 16 17
18 19 20 21 22 23 24
25 26 27 28 29 1 2
Attention❗ To save your time, in order to download anything on this site, you must be registered 👉 HERE. If you do not have a registration yet, it is better to do it right away. ✌

( • )( • ) ( ͡⚆ ͜ʖ ͡⚆ ) (‿ˠ‿)
SpicyMags.xyz

Romeo's Daughter - Rapture (2012) {2022, Reissue}

Posted By: popsakov
Romeo's Daughter - Rapture (2012) {2022, Reissue}

Romeo's Daughter - Rapture (2012) {2022, Reissue}
XLD Rip | FLAC (Img) + Cue + Log ~ 344 Mb | MP3 CBR320 ~ 125 Mb
Full Scans | 00:43:40 | RAR 5% Recovery
Pop Rock, Power Pop, Hard Rock | RD Records #ROMEOCD2

'Rapture', released in 2012, is the band's third long awaited album. It captures all of Romeos Daughters' style and verve and is full of superbly crafted songs. With a gap of the best part of 20 years between Rapture and Delectable, this album firmly brings Romeo's Daughter into the 21st century. It was written in the most by guitarist Craig Joiner and co produced with Ed Poole, the band's bass player. The album has received critical acclaim, with the first single released from it, 'Bittersweet', reaching Classic Rock Magazine's 'Top songs of 2012' chart.

***************

Track List:

01. Trippin' Out [4:24]
02. Bittersweet [4:25]
03. Cannot Be The One [4:04]
04. Keep Walking [2:50]
05. Lightning [3:25]
06. Alive [3:51]
07. Fly Away [2:57]
08. Make My Dreams Come True [4:14]
09. Precious Thing [3:31]
10. Talking Love [4:23]
11. He's Mine [2:32]
12. Will Be [3:09]

X Lossless Decoder version 20230627 (156.1)

XLD extraction logfile from 2023-12-02 14:22:27 +1000

Romeo's Daughter / Rapture

Used drive : HL-DT-ST DVDRW GX50N (revision RR06)
Media type : Pressed CD

Ripper mode : XLD Secure Ripper
Disable audio cache : OK for the drive with a cache less than 1375KiB
Make use of C2 pointers : NO
Read offset correction : 6
Max retry count : 100
Gap status : Analyzed, Appended

TOC of the extracted CD
Track | Start | Length | Start sector | End sector
––––––––––––––––––––––––––––-
1 | 00:00:00 | 04:23:72 | 0 | 19796
2 | 04:23:72 | 04:24:25 | 19797 | 39621
3 | 08:48:22 | 04:03:18 | 39622 | 57864
4 | 12:51:40 | 02:49:31 | 57865 | 70570
5 | 15:40:71 | 03:24:39 | 70571 | 85909
6 | 19:05:35 | 03:50:22 | 85910 | 103181
7 | 22:55:57 | 02:56:43 | 103182 | 116424
8 | 25:52:25 | 04:13:47 | 116425 | 135446
9 | 30:05:72 | 03:30:57 | 135447 | 151253
10 | 33:36:54 | 04:22:62 | 151254 | 170965
11 | 37:59:41 | 02:31:55 | 170966 | 182345
12 | 40:31:21 | 03:08:24 | 182346 | 196469

AccurateRip Summary (DiscID: 00144abf-00bb2b79-990a3b0c)
Track 01 : OK (v2, confidence 13/13)
Track 02 : OK (v2, confidence 13/13)
Track 03 : OK (v2, confidence 13/13)
Track 04 : OK (v2, confidence 13/13)
Track 05 : OK (v2, confidence 13/13)
Track 06 : OK (v2, confidence 13/13)
Track 07 : OK (v2, confidence 13/13)
Track 08 : OK (v2, confidence 13/13)
Track 09 : OK (v2, confidence 13/13)
Track 10 : OK (v2, confidence 13/13)
Track 11 : OK (v2, confidence 13/13)
Track 12 : OK (v2, confidence 13/13)
->All tracks accurately ripped.

All Tracks
Filename : /Volumes/Music/My Collection/Romeo's Daughter/2012 - Rapture/Rapture.flac
CRC32 hash (test run) : 73827645
CRC32 hash : 73827645
CRC32 hash (skip zero) : 7F508316
Statistics
Read error : 0
Jitter error (maybe fixed) : 0
Retry sector count : 0
Damaged sector count : 0

Track 01
Pre-gap length : 00:02:00

CRC32 hash (test run) : 69440270
CRC32 hash : 69440270
CRC32 hash (skip zero) : 92F3A037
AccurateRip v1 signature : EC670028
AccurateRip v2 signature : 61B4739B
->Accurately ripped (v2, confidence 13/13)
Statistics
Read error : 0
Jitter error (maybe fixed) : 0
Retry sector count : 0
Damaged sector count : 0

Track 02
Pre-gap length : 00:00:23

CRC32 hash (test run) : 7B99B410
CRC32 hash : 7B99B410
CRC32 hash (skip zero) : 863ABC68
AccurateRip v1 signature : 48D18C5F
AccurateRip v2 signature : 87093860
->Accurately ripped (v2, confidence 13/13)
Statistics
Read error : 0
Jitter error (maybe fixed) : 0
Retry sector count : 0
Damaged sector count : 0

Track 03
Pre-gap length : 00:00:36

CRC32 hash (test run) : FDEA4908
CRC32 hash : FDEA4908
CRC32 hash (skip zero) : AC911097
AccurateRip v1 signature : C18CF2BE
AccurateRip v2 signature : 15C77371
->Accurately ripped (v2, confidence 13/13)
Statistics
Read error : 0
Jitter error (maybe fixed) : 0
Retry sector count : 0
Damaged sector count : 0

Track 04
Pre-gap length : 00:00:15

CRC32 hash (test run) : F6C5A5B3
CRC32 hash : F6C5A5B3
CRC32 hash (skip zero) : 0AE2D47A
AccurateRip v1 signature : 2D625E6C
AccurateRip v2 signature : A0831A49
->Accurately ripped (v2, confidence 13/13)
Statistics
Read error : 0
Jitter error (maybe fixed) : 0
Retry sector count : 0
Damaged sector count : 0

Track 05
Pre-gap length : 00:00:65

CRC32 hash (test run) : 38354E54
CRC32 hash : 38354E54
CRC32 hash (skip zero) : E4ED13C0
AccurateRip v1 signature : 47522845
AccurateRip v2 signature : 41780FDE
->Accurately ripped (v2, confidence 13/13)
Statistics
Read error : 0
Jitter error (maybe fixed) : 0
Retry sector count : 0
Damaged sector count : 0

Track 06

CRC32 hash (test run) : 9276AA92
CRC32 hash : 9276AA92
CRC32 hash (skip zero) : 6334AD87
AccurateRip v1 signature : 72A69B41
AccurateRip v2 signature : 3547E322
->Accurately ripped (v2, confidence 13/13)
Statistics
Read error : 0
Jitter error (maybe fixed) : 0
Retry sector count : 0
Damaged sector count : 0

Track 07

CRC32 hash (test run) : E79A1EC0
CRC32 hash : E79A1EC0
CRC32 hash (skip zero) : 9AFBCF32
AccurateRip v1 signature : 4368CC6F
AccurateRip v2 signature : 47FD0161
->Accurately ripped (v2, confidence 13/13)
Statistics
Read error : 0
Jitter error (maybe fixed) : 0
Retry sector count : 0
Damaged sector count : 0

Track 08

CRC32 hash (test run) : 92C9C9E8
CRC32 hash : 92C9C9E8
CRC32 hash (skip zero) : A8C9A49E
AccurateRip v1 signature : ECBB1F8C
AccurateRip v2 signature : 3A51800F
->Accurately ripped (v2, confidence 13/13)
Statistics
Read error : 0
Jitter error (maybe fixed) : 0
Retry sector count : 0
Damaged sector count : 0

Track 09
Pre-gap length : 00:00:07

CRC32 hash (test run) : 01B8F338
CRC32 hash : 01B8F338
CRC32 hash (skip zero) : CC67F364
AccurateRip v1 signature : C664A903
AccurateRip v2 signature : 7DDFEA47
->Accurately ripped (v2, confidence 13/13)
Statistics
Read error : 0
Jitter error (maybe fixed) : 0
Retry sector count : 0
Damaged sector count : 0

Track 10

CRC32 hash (test run) : 95C8CCF2
CRC32 hash : 95C8CCF2
CRC32 hash (skip zero) : C73C5131
AccurateRip v1 signature : 9CE0A93A
AccurateRip v2 signature : CC22721F
->Accurately ripped (v2, confidence 13/13)
Statistics
Read error : 0
Jitter error (maybe fixed) : 0
Retry sector count : 0
Damaged sector count : 0

Track 11
Pre-gap length : 00:00:36

CRC32 hash (test run) : 3219E8C7
CRC32 hash : 3219E8C7
CRC32 hash (skip zero) : 3C8C13E7
AccurateRip v1 signature : 2458E7E0
AccurateRip v2 signature : F970E8A6
->Accurately ripped (v2, confidence 13/13)
Statistics
Read error : 0
Jitter error (maybe fixed) : 0
Retry sector count : 0
Damaged sector count : 0

Track 12

CRC32 hash (test run) : 112656ED
CRC32 hash : 112656ED
CRC32 hash (skip zero) : 22109665
AccurateRip v1 signature : 6E12CC06
AccurateRip v2 signature : 5F5D3BD8
->Accurately ripped (v2, confidence 13/13)
Statistics
Read error : 0
Jitter error (maybe fixed) : 0
Retry sector count : 0
Damaged sector count : 0

No errors occurred

End of status report

––-BEGIN XLD SIGNATURE––-
h0UIWWj4F007uTGC8hwaztbtuIP2wNSFeXuMLqOvRGfEo.H4wM2qKGzNUL7Px7tPdosC2FIuXsS5cm4VC9dq6L3XeuiKf4Mq037Rv7K
––-END XLD SIGNATURE––-

See also:

Romeo's Daughter - Slipstream (2023)

All thanks go to anvador

>>> My Blog <<<

DOWNLOAD: