Tags
Language
Tags
July 2024
Su Mo Tu We Th Fr Sa
30 1 2 3 4 5 6
7 8 9 10 11 12 13
14 15 16 17 18 19 20
21 22 23 24 25 26 27
28 29 30 31 1 2 3

Robert Rawson, The Harmonious Society of Tickle-Fiddle Gentlemen - Johann Christoph Pepusch: Chandos Anthems (2023)

Posted By: ArlegZ
Robert Rawson, The Harmonious Society of Tickle-Fiddle Gentlemen - Johann Christoph Pepusch: Chandos Anthems (2023)

Robert Rawson, The Harmonious Society of Tickle-Fiddle Gentlemen, The Girl Choristers of Canterbury Cathedral - Johann Christoph Pepusch: Chandos Anthems (2023)
EAC | FLAC | Image (Cue & no Log) ~ 357 Mb | Total time: 63:50 | Scans included
Classical | Label: Accent | # ACC 24397 | Recorded: 2022

The name 'Chandos anthems' is most frequently associated with Handel, but he was not the first, nor the last, composer in the extravagant household of James Brydges, the Duke of Chandos from 1719. Working concurrently with Handel at Cannons was the Berlin native, Johann Christoph Pepusch?nearly 20 years Handel's senior?who took over as Director of Music by early 1719 whereupon he adopted a distinctly Venetian approach to sacred music, in the manner of Lotti and Vivaldi.
Often remembered today for his contribution to The Beggar's Opera Pepusch was a bridge from the seventeenth to the eighteenth-century musical life in London.
After Handel's departure from Cannons in 1718 to return to the operatic world, Pepusch significantly increased the size of the ensemble at Cannons, including more string players, at least seven adult singers, a choir of trebles and, in the manner of Vivaldi, single trumpet and oboe.
Having previously demonstrated to the public Pepusch's masterful approach in several award-winning recordings, Robert Rawson and The Harmonious Society of Tickle-Fiddle Gentlemen, joined by the Girl Choristers of Canterbury Cathedral, return with a stunning and richly-scored programme for this recording of world premieres.

Performer:
Ciara Hendrick, soprano (all solos)
Alex Potter, countertenor (solo: 3, 12, 15, 22–27)
Hugh Cutting, countertenor (solo: 2, 4, 10, 17, 24)
Nicholas Mulroy, tenor (solo: 2, 4, 5, 6, 10, 12, 14, 19)
Nicholas Todd, tenor (solo: 5, 22, 27)
Vitali Rozynko, bass (solo: 2, 4, 8, 12, 17)
Edward Grint, bass (solo: 22, 24, 27)
The Girl Choristers of Canterbury Cathedral
The Harmonious Society of Tickle-Fiddle Gentlemen
Robert Rawson, artistic director

Tracklist:
Johann Christoph Pepusch (1667-1752)
Chandos Anthems
Rejoyce in the Lord (Christmas)
01. [Sinfonia]
02. Chorus: Rejoyce in the Lord o ye righteous
03. Duet: Praise the Lord with harp
04. Chorus: Sing unto the Lord a new Song
05. Duet: For faithfull is the word of God
06. Recitative: By the word of the Lord were the Heavens made
07. Chorus: The swelling floods together roll'd
08. Duet: Thy Royall seat O Lord for Ever shall remain
09. Chorus: Let Earth and all that well therein before him trembling stand
10. Chorus: O Praise the Lord and be joyfull
Magnificat
11. [Sinfonia]
12. Chorus: My soul doth magnifie the Lord
13. Aria: For he hath regarded the lowliness of his hand Maiden
14. Chorus: For behold from henceforth
15. Aria: For he that is mighty hath magnified me
16. Chorus: He hath shewed strength with his arm
17. Duet: He hath put down the mighty from their seat
18. Chorus: He hath filled the hungry with good things
19. Duet: He remembering his mercy has holpen his servant Israel
20. Chorus: Glory be to the Father and to the Son and to the holy ghost
21. Concerto per il Oboe Solo in B flat major
O Praise the Lord, laud ye the name of the Lord
22. Chorus: O Praise the Lord, laud ye the name of the Lord
23. Recit: Ye that stand in the house of the Lord
24. Trio: O Praise the Lord, for the Lord is gracious
25. Accomp. Recitative: For I know that the Lord is great
26. Aria: Thy name o Lord endureth forever
27. Chorus: Praise the Lord ye house of Israel


Exact Audio Copy V1.6 from 23. October 2020

EAC extraction logfile from 21. May 2024, 21:55

The Girl Choristers of Canterbury Cathedral, The Harmonious Society of Tickle-Fiddle Gentlemen, Robert Rawson / Pepusch - Chandos Anthems

Used drive : ASUS SDRW-08U7M-U Adapter: 1 ID: 0

Read mode : Secure
Utilize accurate stream : Yes
Defeat audio cache : Yes
Make use of C2 pointers : No

Read offset correction : 6
Overread into Lead-In and Lead-Out : No
Fill up missing offset samples with silence : Yes
Delete leading and trailing silent blocks : No
Null samples used in CRC calculations : Yes
Used interface : Native Win32 interface for Win NT & 2000

Used output format : User Defined Encoder
Selected bitrate : 1024 kBit/s
Quality : High
Add ID3 tag : No
Command line compressor : C:\Program Files (x86)\Exact Audio Copy\Flac\flac.exe
Additional command line options : -V -8 -T "Date=%year%" -T "Genre=%genre%" %source%


TOC of the extracted CD

Track | Start | Length | Start sector | End sector
––––––––––––––––––––––––––––-
1 | 0:00.00 | 2:32.56 | 0 | 11455
2 | 2:32.56 | 2:45.53 | 11456 | 23883
3 | 5:18.34 | 3:05.61 | 23884 | 37819
4 | 8:24.20 | 3:17.22 | 37820 | 52616
5 | 11:41.42 | 3:02.37 | 52617 | 66303
6 | 14:44.04 | 0:28.63 | 66304 | 68466
7 | 15:12.67 | 1:46.09 | 68467 | 76425
8 | 16:59.01 | 2:32.62 | 76426 | 87887
9 | 19:31.63 | 1:19.50 | 87888 | 93862
10 | 20:51.38 | 1:57.11 | 93863 | 102648
11 | 22:48.49 | 2:30.70 | 102649 | 113968
12 | 25:19.44 | 2:27.28 | 113969 | 125021
13 | 27:46.72 | 2:40.68 | 125022 | 137089
14 | 30:27.65 | 3:02.49 | 137090 | 150788
15 | 33:30.39 | 2:51.41 | 150789 | 163654
16 | 36:22.05 | 3:57.08 | 163655 | 181437
17 | 40:19.13 | 2:43.01 | 181438 | 193663
18 | 43:02.14 | 1:33.69 | 193664 | 200707
19 | 44:36.08 | 2:30.46 | 200708 | 212003
20 | 47:06.54 | 3:48.24 | 212004 | 229127
21 | 50:55.03 | 3:31.66 | 229128 | 245018
22 | 54:26.69 | 1:22.67 | 245019 | 251235
23 | 55:49.61 | 0:22.43 | 251236 | 252928
24 | 56:12.29 | 2:19.26 | 252929 | 263379
25 | 58:31.55 | 0:41.17 | 263380 | 266471
26 | 59:12.72 | 2:23.28 | 266472 | 277224
27 | 61:36.25 | 2:12.05 | 277225 | 287129


Range status and errors

Selected range

Filename C:\temp\Pepusch - Chandos Anthems - 2023\Pepusch - Chandos Anthems.wav

Peak level 96.7 %
Extraction speed 4.6 X
Range quality 100.0 %
Test CRC 9939ACC1
Copy CRC 9939ACC1
Copy OK

No errors occurred


AccurateRip summary

Track 1 not present in database
Track 2 not present in database
Track 3 not present in database
Track 4 not present in database
Track 5 not present in database
Track 6 not present in database
Track 7 not present in database
Track 8 not present in database
Track 9 not present in database
Track 10 not present in database
Track 11 not present in database
Track 12 not present in database
Track 13 not present in database
Track 14 not present in database
Track 15 not present in database
Track 16 not present in database
Track 17 not present in database
Track 18 not present in database
Track 19 not present in database
Track 20 not present in database
Track 21 not present in database
Track 22 not present in database
Track 23 not present in database
Track 24 not present in database
Track 25 not present in database
Track 26 not present in database
Track 27 not present in database

None of the tracks are present in the AccurateRip database

End of status report

==== Log checksum 7E0ACF3418B0CC3390ABA1CB15C7177577151E92F25DA485D0044DA3C2C01E72 ====

Robert Rawson, The Harmonious Society of Tickle-Fiddle Gentlemen - Johann Christoph Pepusch: Chandos Anthems (2023)

Thanks to the original releaser