Tags
Language
Tags
February 2024
Su Mo Tu We Th Fr Sa
28 29 30 31 1 2 3
4 5 6 7 8 9 10
11 12 13 14 15 16 17
18 19 20 21 22 23 24
25 26 27 28 29 1 2
Attention❗ To save your time, in order to download anything on this site, you must be registered 👉 HERE. If you do not have a registration yet, it is better to do it right away. ✌

( • )( • ) ( ͡⚆ ͜ʖ ͡⚆ ) (‿ˠ‿)
SpicyMags.xyz

Peter Gabriel - I/O (2023) *PROPER*

Posted By: popsakov
Peter Gabriel - I/O (2023) *PROPER*

Peter Gabriel - I/O (2023)
2CD | EAC Rip | FLAC (Tracks) + Cue + m3u + Log ~ 852 Mb | MP3 CBR320 ~ 332 Mb
Full Scans ~ 183 Mb | 01:08:36 + 01:09:04 | RAR 5% Recovery
Art Rock, Progressive Rock | Real World Records #PGCDBR21

I/O (typeset as i/o) is the tenth studio album[a] by English rock musician Peter Gabriel, released on 1 December 2023 through Real World Records. It is Gabriel's first album of new original material in over 21 years since Up (2002), marking the longest gap between two studio albums in his solo career. Additionally, I/O is his longest studio album to date. I/O had been in the works for nearly three decades, with its initial production dating back to 1995, at around the same time Gabriel began recording Up. He began planning the follow-up to Up as early as 2000 and had originally intended to release it in 2004, but the album was repeatedly delayed, reworked and re-recorded at seven recording studios (and one arena during soundchecks while on tour with Sting in 2016) before its completion in 2022. This was due to Gabriel focusing on other projects such as his two orchestral albums Scratch My Back (2010) and New Blood (2011), which contained covers of songs by other artists and rearrangements of his older material, respectively. Beginning in January 2023, Gabriel released a new single every full moon, with its alternate mix released on the following new moon, eventually culminating in the album's release at the end of the year; this replicates the 2010 double-sided single releases in promotion of And I'll Scratch Yours (2013). He has stated that he will release more songs in this format following the album's release. I/O received positive reviews from music critics, with praise being particularly directed towards Gabriel's vocals and songwriting.

More than 20 years in the making, I/o is Peter Gabriel’s first album of new material since 2002’s Up.

Whispers and rumours have speculated about its musical direction, about its songs, and about what they have to say. Not that there haven’t been tastes of what’s in store over the past few months. Since January 2023, Peter has been releasing a new song from the album on the occasion of every full moon. Being revealed roughly every four weeks, each track has been allowed to find its own time and space, to enjoy its own orbit. “It’s a little like getting a Lego piece each month,” Peter explains. Now it’s time to stand back and admire the final, completed creation.

And what a creation – 12 tracks of grace, gravity and great beauty that provide welcome confirmation of not only Peter’s ongoing ability to write stop-you-in-your-tracks songs but also of that thrilling voice, still perfectly, delightfully intact. Throughout the album the intelligent and thoughtful – often thought-provoking – songs tackle life and the universe. Our connection to the world around us – ‘I’m just a part of everything’ Peter sings on title track i/o – is a recurring motif, but so too the passing of time, mortality and grief, alongside such themes as injustice, surveillance and the roots of terrorism. But this is not a solemn record. While reflective, the mood is never despondent; i/o is musically adventurous, often joyous and ultimately full of hope, topped off as it is, by the rousingly optimistic closing song, Live and Let Live.

Peter also always looks towards pushing the boundaries that most artists are reluctant to nudge. i/o is not simply a collection of a dozen songs. All 12 tracks are subject to two stereo mixes: the Bright-Side Mix, handled by Mark ‘Spike’ Stent, and the Dark-Side Mix, as reshaped by Tchad Blake. “We have two of the greatest mixers in the world in Tchad and Spike and they definitely bring different characters to the songs. Tchad is very much a sculptor building a journey with sound and drama, Spike loves sound and assembling these pictures, so he’s more of a painter.” Both versions are included on the double-CD package, and are also available separately as double vinyl albums. And that’s not all. A third version – the In-Side Mix, in Dolby Atmos, comes courtesy of Hans-Martin Buff “doing a wonderful job generating these much more three-dimensional mixes” and is included in three-disc set, including Blu-ray.

The lengthy gestation of i/o means it has a sizeable cast list. Peter has kept his trusty inner circle of musicians close to hand, which means guitarist David Rhodes, bassist Tony Levin and drummer Manu Katché are sterling presences throughout. Several songs bear the fingerprints of long-time associate Brian Eno, whilst there are notable contributions from the likes of Richard Russell, pianist Tom Cawley, trumpeters Josh Shpak and Paolo Fresu, cellist Linnea Olsson and keyboard player Don E. Peter’s daughter Melanie contributes warm backing vocals, as does Ríoghnach Connolly of The Breath, while Real World regulars Richard Chappell, Oli Jacobs, Katie May and Richard Evans collectively provide programming and play various instruments. Soweto Gospel Choir and Swedish all-male choir Oprhei Drängar lend their magnificent harmonies to a selection of tracks, and the mass strings of the New Blood Orchestra, led by John Metcalfe, both soothe and soar.

Peter invited a range of visual artists to contribute a piece of art to accompany each track on both the US and UP albums, the idea being that the work would be inspired by, or would act as a reaction to, the song that had been allotted. This idea has been revisited with i/o, with each of the 12 songs being handed to a world-renowned artist to create or provide an accompanying work, whether paint, photography, sculpture or even Plasticine.

The dozen artists make an exceedingly impressive team of collaborators: Ai Weiwei, Nick Cave, Olafur Eliasson, Henry Hudson, Annette Messager, Antony Micallef, David Moreno, Cornelia Parker, Megan Rooney, Tim Shaw, David Spriggs and Barthélémy Toguo. Having handpicked the artists, Peter recognises that “They have the same obsessive attention to their visual work that we musicians have in sound.”

There’s another visual link with Peter’s past work. The cover shot, taken by photographer Nadav Kander, echoes with the covers of his earlier albums, always present but, with the exception of So, intriguingly obscured or manipulated.

These echoes of the past might resonate, but i/o is fundamentally an album of – and for – the here and now. Many of its themes may be timeless, but they’re also warnings that we’re living on borrowed time, both as a planet and as individuals. As Peter sings on the divine So Much, “this edition is limited”.

***************

Track List CD1 - Bright-Side Mix:

01. Panopticom (Bright-Side Mix) [5:18]
02. The Court (Bright-Side Mix) [4:22]
03. Playing For Time (Bright-Side Mix) [6:19]
04. i/o (Bright-Side Mix) [3:54]
05. Four Kinds of Horses (Bright-Side Mix) [6:48]
06. Road to Joy (Bright-Side Mix) [5:23]
07. So Much (Bright-Side Mix) [4:53]
08. Olive Tree (Bright-Side Mix) [6:02]
09. Love Can Heal (Bright-Side Mix) [6:03]
10. This Is Home (Bright-Side Mix) [5:05]
11. And Still (Bright-Side Mix) [7:45]
12. Live and Let Live (Bright-Side Mix) [6:49]

Exact Audio Copy V1.6 from 23. October 2020

EAC extraction logfile from 2. December 2023, 22:46

Peter Gabriel / I/O (disc one)

Used drive : ASUS BW-12D1S-U Adapter: 1 ID: 0

Read mode : Secure
Utilize accurate stream : Yes
Defeat audio cache : Yes
Make use of C2 pointers : No

Read offset correction : 667
Overread into Lead-In and Lead-Out : No
Fill up missing offset samples with silence : Yes
Delete leading and trailing silent blocks : No
Null samples used in CRC calculations : Yes
Used interface : Native Win32 interface for Win NT & 2000
Gap handling : Appended to previous track

Used output format : User Defined Encoder
Selected bitrate : 1024 kBit/s
Quality : High
Add ID3 tag : No
Command line compressor : C:\Program Files (x86)\Exact Audio Copy\FLAC\FLAC.EXE
Additional command line options : -V -8 -T "Genre=%genre%" -T "Artist=%artist%" -T "Title=%title%" -T "Album=%albumtitle%" -T "Date=%year%" -T "Tracknumber=%tracknr%" %source% -o %dest%


TOC of the extracted CD

Track | Start | Length | Start sector | End sector
––––––––––––––––––––––––––––-
1 | 0:00.00 | 5:17.62 | 0 | 23836
2 | 5:17.62 | 4:21.03 | 23837 | 43414
3 | 9:38.65 | 6:18.57 | 43415 | 71821
4 | 15:57.47 | 3:53.18 | 71822 | 89314
5 | 19:50.65 | 6:47.47 | 89315 | 119886
6 | 26:38.37 | 5:22.18 | 119887 | 144054
7 | 32:00.55 | 4:52.02 | 144055 | 165956
8 | 36:52.57 | 6:01.58 | 165957 | 193089
9 | 42:54.40 | 6:02.61 | 193090 | 220300
10 | 48:57.26 | 5:04.44 | 220301 | 243144
11 | 54:01.70 | 7:44.52 | 243145 | 277996
12 | 61:46.47 | 6:49.00 | 277997 | 308671


Track 1

Filename E:\Torrents of Autumn\Gabriel, Peter [2023] I - O\CD One\01. Panopticom (Bright-Side Mix).wav

Pre-gap length 0:00:02.00

Peak level 97.7 %
Extraction speed 4.8 X
Track quality 100.0 %
Test CRC AA706321
Copy CRC AA706321
Copy OK

Track 2

Filename E:\Torrents of Autumn\Gabriel, Peter [2023] I - O\CD One\02. The Court (Bright-Side Mix).wav

Peak level 97.7 %
Extraction speed 5.1 X
Track quality 100.0 %
Test CRC C3A6D0B1
Copy CRC C3A6D0B1
Copy OK

Track 3

Filename E:\Torrents of Autumn\Gabriel, Peter [2023] I - O\CD One\03. Playing For Time (Bright-Side Mix).wav

Peak level 97.7 %
Extraction speed 5.8 X
Track quality 100.0 %
Test CRC 7C8C9C28
Copy CRC 7C8C9C28
Copy OK

Track 4

Filename E:\Torrents of Autumn\Gabriel, Peter [2023] I - O\CD One\04. i,o (Bright-Side Mix).wav

Peak level 97.7 %
Extraction speed 6.0 X
Track quality 100.0 %
Test CRC AF1A92CF
Copy CRC AF1A92CF
Copy OK

Track 5

Filename E:\Torrents of Autumn\Gabriel, Peter [2023] I - O\CD One\05. Four Kinds of Horses (Bright-Side Mix).wav

Peak level 97.7 %
Extraction speed 6.8 X
Track quality 100.0 %
Test CRC 605DFA66
Copy CRC 605DFA66
Copy OK

Track 6

Filename E:\Torrents of Autumn\Gabriel, Peter [2023] I - O\CD One\06. Road to Joy (Bright-Side Mix).wav

Peak level 97.7 %
Extraction speed 7.1 X
Track quality 100.0 %
Test CRC DC2E9A2E
Copy CRC DC2E9A2E
Copy OK

Track 7

Filename E:\Torrents of Autumn\Gabriel, Peter [2023] I - O\CD One\07. So Much (Bright-Side Mix).wav

Peak level 85.5 %
Extraction speed 7.4 X
Track quality 100.0 %
Test CRC 1A2C01AE
Copy CRC 1A2C01AE
Copy OK

Track 8

Filename E:\Torrents of Autumn\Gabriel, Peter [2023] I - O\CD One\08. Olive Tree (Bright-Side Mix).wav

Peak level 95.5 %
Extraction speed 7.8 X
Track quality 100.0 %
Test CRC CD2BF936
Copy CRC CD2BF936
Copy OK

Track 9

Filename E:\Torrents of Autumn\Gabriel, Peter [2023] I - O\CD One\09. Love Can Heal (Bright-Side Mix).wav

Peak level 92.1 %
Extraction speed 8.2 X
Track quality 100.0 %
Test CRC 83C6A96B
Copy CRC 83C6A96B
Copy OK

Track 10

Filename E:\Torrents of Autumn\Gabriel, Peter [2023] I - O\CD One\10. This Is Home (Bright-Side Mix).wav

Peak level 96.2 %
Extraction speed 8.3 X
Track quality 100.0 %
Test CRC FB085DA4
Copy CRC FB085DA4
Copy OK

Track 11

Filename E:\Torrents of Autumn\Gabriel, Peter [2023] I - O\CD One\11. And Still (Bright-Side Mix).wav

Peak level 94.9 %
Extraction speed 9.0 X
Track quality 100.0 %
Test CRC 1B1794F6
Copy CRC 1B1794F6
Copy OK

Track 12

Filename E:\Torrents of Autumn\Gabriel, Peter [2023] I - O\CD One\12. Live and Let Live (Bright-Side Mix).wav

Peak level 95.5 %
Extraction speed 9.2 X
Track quality 100.0 %
Test CRC CF565CB2
Copy CRC CF565CB2
Copy OK

No errors occurred

End of status report

–– CUETools DB Plugin V2.1.6

[CTDB TOCID: ZOLL51Y3QU.MNBUCNnUs9n28Dss-] found
Submit result: ZOLL51Y3QU.MNBUCNnUs9n28Dss- has been confirmed
Track | CTDB Status
1 | (133/134) Accurately ripped
2 | (133/134) Accurately ripped
3 | (133/134) Accurately ripped
4 | (133/134) Accurately ripped
5 | (133/134) Accurately ripped
6 | (133/134) Accurately ripped
7 | (133/134) Accurately ripped
8 | (133/134) Accurately ripped
9 | (133/134) Accurately ripped
10 | (133/134) Accurately ripped
11 | (133/134) Accurately ripped
12 | (132/134) Accurately ripped


==== Log checksum 548E99639F480C4D354E7F28A06144B45BED79A51C4E13A60478C090C3E9BFFE ====

Track List CD2 - Dark-Side Mix:

01. Panopticom (Dark-Side Mix) [5:18]
02. The Court (Dark-Side Mix) [4:21]
03. Playing For Time (Dark-Side Mix) [6:19]
04. i/o (Dark-Side Mix) [3:54]
05. Four Kinds of Horses (Dark-Side Mix) [6:48]
06. Road to Joy (Dark-Side Mix) [5:26]
07. So Much (Dark-Side Mix) [4:52]
08. Olive Tree (Dark-Side Mix) [6:01]
09. Love Can Heal (Dark-Side Mix) [6:04]
10. This Is Home (Dark-Side Mix) [5:05]
11. And Still (Dark-Side Mix) [7:45]
12. Live and Let Live (Dark-Side Mix) [7:14]

Exact Audio Copy V1.6 from 23. October 2020

EAC extraction logfile from 3. December 2023, 0:07

Peter Gabriel / I/O (disc two)

Used drive : ASUS BW-12D1S-U Adapter: 1 ID: 0

Read mode : Secure
Utilize accurate stream : Yes
Defeat audio cache : Yes
Make use of C2 pointers : No

Read offset correction : 667
Overread into Lead-In and Lead-Out : No
Fill up missing offset samples with silence : Yes
Delete leading and trailing silent blocks : No
Null samples used in CRC calculations : Yes
Used interface : Native Win32 interface for Win NT & 2000
Gap handling : Appended to previous track

Used output format : User Defined Encoder
Selected bitrate : 1024 kBit/s
Quality : High
Add ID3 tag : No
Command line compressor : C:\Program Files (x86)\Exact Audio Copy\FLAC\FLAC.EXE
Additional command line options : -V -8 -T "Genre=%genre%" -T "Artist=%artist%" -T "Title=%title%" -T "Album=%albumtitle%" -T "Date=%year%" -T "Tracknumber=%tracknr%" %source% -o %dest%


TOC of the extracted CD

Track | Start | Length | Start sector | End sector
––––––––––––––––––––––––––––-
1 | 0:00.00 | 5:17.70 | 0 | 23844
2 | 5:17.70 | 4:20.70 | 23845 | 43414
3 | 9:38.65 | 6:18.58 | 43415 | 71822
4 | 15:57.48 | 3:53.22 | 71823 | 89319
5 | 19:50.70 | 6:47.41 | 89320 | 119885
6 | 26:38.36 | 5:25.25 | 119886 | 144285
7 | 32:03.61 | 4:51.72 | 144286 | 166182
8 | 36:55.58 | 6:00.74 | 166183 | 193256
9 | 42:56.57 | 6:03.45 | 193257 | 220526
10 | 49:00.27 | 5:04.44 | 220527 | 243370
11 | 54:04.71 | 7:44.51 | 243371 | 278221
12 | 61:49.47 | 7:13.67 | 278222 | 310763


Track 1

Filename E:\Torrents of Autumn\Gabriel, Peter [2023] I - O\CD Two\01. Panopticom (Dark-Side Mix).wav

Pre-gap length 0:00:02.00

Peak level 98.8 %
Extraction speed 4.8 X
Track quality 100.0 %
Test CRC CA969150
Copy CRC CA969150
Copy OK

Track 2

Filename E:\Torrents of Autumn\Gabriel, Peter [2023] I - O\CD Two\02. The Court (Dark-Side Mix).wav

Peak level 97.7 %
Extraction speed 4.6 X
Track quality 99.9 %
Test CRC CAB8F19F
Copy CRC CAB8F19F
Copy OK

Track 3

Filename E:\Torrents of Autumn\Gabriel, Peter [2023] I - O\CD Two\03. Playing For Time (Dark-Side Mix).wav

Peak level 97.7 %
Extraction speed 5.9 X
Track quality 100.0 %
Test CRC 2A80C1B0
Copy CRC 2A80C1B0
Copy OK

Track 4

Filename E:\Torrents of Autumn\Gabriel, Peter [2023] I - O\CD Two\04. i,o (Dark-Side Mix).wav

Peak level 97.7 %
Extraction speed 6.1 X
Track quality 100.0 %
Test CRC CC39BA4C
Copy CRC CC39BA4C
Copy OK

Track 5

Filename E:\Torrents of Autumn\Gabriel, Peter [2023] I - O\CD Two\05. Four Kinds of Horses (Dark-Side Mix).wav

Peak level 98.8 %
Extraction speed 6.9 X
Track quality 100.0 %
Test CRC 3BFC8A76
Copy CRC 3BFC8A76
Copy OK

Track 6

Filename E:\Torrents of Autumn\Gabriel, Peter [2023] I - O\CD Two\06. Road to Joy (Dark-Side Mix).wav

Peak level 97.7 %
Extraction speed 6.5 X
Track quality 99.9 %
Test CRC 2FF25FEA
Copy CRC 2FF25FEA
Copy OK

Track 7

Filename E:\Torrents of Autumn\Gabriel, Peter [2023] I - O\CD Two\07. So Much (Dark-Side Mix).wav

Peak level 81.8 %
Extraction speed 7.5 X
Track quality 100.0 %
Test CRC DFEFA434
Copy CRC DFEFA434
Copy OK

Track 8

Filename E:\Torrents of Autumn\Gabriel, Peter [2023] I - O\CD Two\08. Olive Tree (Dark-Side Mix).wav

Peak level 95.5 %
Extraction speed 7.9 X
Track quality 100.0 %
Test CRC BE8694FE
Copy CRC BE8694FE
Copy OK

Track 9

Filename E:\Torrents of Autumn\Gabriel, Peter [2023] I - O\CD Two\09. Love Can Heal (Dark-Side Mix).wav

Peak level 95.5 %
Extraction speed 8.3 X
Track quality 100.0 %
Test CRC DAEEB592
Copy CRC DAEEB592
Copy OK

Track 10

Filename E:\Torrents of Autumn\Gabriel, Peter [2023] I - O\CD Two\10. This Is Home (Dark-Side Mix).wav

Peak level 97.7 %
Extraction speed 8.4 X
Track quality 100.0 %
Test CRC 066BFDA9
Copy CRC 066BFDA9
Copy OK

Track 11

Filename E:\Torrents of Autumn\Gabriel, Peter [2023] I - O\CD Two\11. And Still (Dark-Side Mix).wav

Peak level 97.0 %
Extraction speed 9.1 X
Track quality 100.0 %
Test CRC EA7B0540
Copy CRC EA7B0540
Copy OK

Track 12

Filename E:\Torrents of Autumn\Gabriel, Peter [2023] I - O\CD Two\12. Live and Let Live (Dark-Side Mix).wav

Peak level 95.5 %
Extraction speed 9.4 X
Track quality 100.0 %
Test CRC 7A16D9F1
Copy CRC 7A16D9F1
Copy OK

No errors occurred

End of status report

–– CUETools DB Plugin V2.1.6

[CTDB TOCID: xCWdDOLSNUEZTkewGO7aOvijUcQ-] found
Submit result: xCWdDOLSNUEZTkewGO7aOvijUcQ- has been confirmed
Track | CTDB Status
1 | (136/137) Accurately ripped
2 | (136/137) Accurately ripped
3 | (136/137) Accurately ripped
4 | (136/137) Accurately ripped
5 | (136/137) Accurately ripped
6 | (136/137) Accurately ripped
7 | (136/137) Accurately ripped
8 | (135/137) Accurately ripped
9 | (136/137) Accurately ripped
10 | (136/137) Accurately ripped
11 | (136/137) Accurately ripped
12 | (135/137) Accurately ripped


==== Log checksum 751D2F116F30F9BBE372847B7A98314E6D7496810E4829772C3E7585271595A6 ====

All thanks go to DoobieBro

>>> Peter Gabriel in my Blog <<<

DOWNLOAD: