Tags
Language
Tags

Motörhead - No Remorse (1984) [2010, Sanctuary Records 2748857]

Posted By: v3122
Motörhead - No Remorse (1984) [2010, Sanctuary Records 2748857]

Motörhead - No Remorse (1984)
EAC | Flac(Image) + Cue + Log & MP3 CBR 320Kbps
2CD | Sanctuary Records 2748857 | ~ 842 or 250 Mb | Scans(jpg) -> 65 Mb
Hard Rock, Heavy Metal

There have been dozens and dozens of Motörhead compilations released over the decades, but the first one remains definitive, even if it's not perfect. Released in 1984 as a gap-filler – for Motörhead were regrouping in the wake of the bandmember shuffling that followed the odd Another Perfect Day album – No Remorse compiled two-dozen songs across two discs (latter-day editions adding a good serving of bonus tracks, too). Many of the band's best songs to date are here, like "Ace of Spades," "Stay Clean," "Overkill," "Bomber," and "Iron Fist." There are also four new recordings that were cut exclusively for No Remorse: "Killed by Death," "Snaggletooth," "Steal Your Face," and "Locomotive." These four songs were cut by the newly instated four-piece lineup that would go on to record Orgasmatron (1986): guitarists Michael Burston and Phil Campbell, drummer Peter Gill, and of course, bassist/vocalist Lemmy. These new recordings make No Remorse more than a standard greatest-hits package, as do the number of stray recordings compiled here as well. For starters, No Remorse rounds up "Please Don't Touch" and "Emergency," which were released on a 1981 split EP with Girlschool, St. Valentines Day Massacre. It also rounds up an early single ("Louie, Louie") as well as a pair of B-sides ("Too Late, Too Late" and "Like a Nightmare") and a tossed-about live cover "Leaving Here." More than just a simple overview, No Remorse is a collection that caters to newbies as well as completists. And furthermore, it plays well, as the new songs and stray material are sequenced toward the end of each LP side, so the collection ebbs and flows between the familiar and unfamiliar, between the great and good. Granted, a straightforward best-of collection may be more suitable to newcomers looking for a one-stop compilation. For instance, No Remorse doesn't account for the wealth of music Motörhead would release post-1984, and too, it misses a lot of great songs that could have taken the place of the odds and ends rounded up here. So a straight-ahead, single-disc chronological survey would be a nice alternative, especially one that accounts for late-'80s highlights like "Deaf Forever," "Orgasmatron," "Rock 'n' Roll," and "Eat the Rich." But there's something to be said for tradition, and No Remorse is to Motörhead what We Sold Our Soul for Rock 'n' Roll is to Black Sabbath – an age-old collection that every metalhead seemed to own at some point, the one that seemed to define the band for generations on end. No Remorse is one of those classic albums, no doubt.

by Jason Birchmeier, allmusic
Motörhead - No Remorse (1984):

Motörhead - No Remorse (1984) [2010, Sanctuary Records 2748857]

Tracklist CD1:

1. Ace Of Spades - 2:49
2. Motorhead - 3:38
3. Jailbait - 3:34
4. Stay Clean - 2:43
5. Too Late, Too Late - 3:26
6. Killed By Death - 4:42
7. Bomber - 3:44
8. Iron Fist - 2:55
9. Shine - 3:12
10. Dancing On Your Grave - 4:30
11. Metropolis - 3:37
12. Snaggletooth - 3:51

Exact Audio Copy V1.0 beta 3 from 29. August 2011

EAC extraction logfile from 26. November 2013, 22:12

Motorhead / No Remorse (2010, EU, Sanctuary, 2748857) (CD1)

Used drive : PIONEER DVD-RW DVR-219L Adapter: 1 ID: 0

Read mode : Secure
Utilize accurate stream : Yes
Defeat audio cache : Yes
Make use of C2 pointers : No

Read offset correction : 6
Overread into Lead-In and Lead-Out : No
Fill up missing offset samples with silence : Yes
Delete leading and trailing silent blocks : No
Null samples used in CRC calculations : Yes
Used interface : Native Win32 interface for Win NT & 2000

Used output format : Internal WAV Routines
Sample format : 44.100 Hz; 16 Bit; Stereo


TOC of the extracted CD

Track | Start | Length | Start sector | End sector
––––––––––––––––––––––––––––-
1 | 0:00.00 | 2:48.61 | 0 | 12660
2 | 2:48.61 | 3:37.55 | 12661 | 28990
3 | 6:26.41 | 3:33.56 | 28991 | 45021
4 | 10:00.22 | 2:42.55 | 45022 | 57226
5 | 12:43.02 | 3:26.30 | 57227 | 72706
6 | 16:09.32 | 4:41.71 | 72707 | 93852
7 | 20:51.28 | 3:43.39 | 93853 | 110616
8 | 24:34.67 | 2:54.46 | 110617 | 123712
9 | 27:29.38 | 3:11.66 | 123713 | 138103
10 | 30:41.29 | 4:29.74 | 138104 | 158352
11 | 35:11.28 | 3:37.29 | 158353 | 174656
12 | 38:48.57 | 3:51.24 | 174657 | 192005


Range status and errors

Selected range

Filename D:\CDRip for Unclesandy\Motorhead - No Remorse (2010, EU, Sanctuary, 2748857) (CD1).wav

Peak level 96.6 %
Extraction speed 6.7 X
Range quality 99.9 %
Test CRC FBBF9ECA
Copy CRC FBBF9ECA
Copy OK

No errors occurred


AccurateRip summary

Track 1 accurately ripped (confidence 4) [9B82A4D0] (AR v2)
Track 2 accurately ripped (confidence 4) [2501970C] (AR v2)
Track 3 accurately ripped (confidence 4) [D3A3E8DA] (AR v2)
Track 4 accurately ripped (confidence 4) [BB6B2574] (AR v2)
Track 5 accurately ripped (confidence 4) [07C7BF0C] (AR v2)
Track 6 accurately ripped (confidence 4) [FF229E10] (AR v2)
Track 7 accurately ripped (confidence 4) [A7583F4D] (AR v2)
Track 8 accurately ripped (confidence 4) [EC4303F7] (AR v2)
Track 9 accurately ripped (confidence 4) [D3EB05E4] (AR v2)
Track 10 accurately ripped (confidence 4) [F5D23714] (AR v2)
Track 11 accurately ripped (confidence 4) [248E377B] (AR v2)
Track 12 accurately ripped (confidence 3) [E15C33AA] (AR v2)

All tracks accurately ripped

End of status report

–– CUETools DB Plugin V2.1.4

[CTDB TOCID: bXaMFv643Ld0a9LTJq2R3WneXRw-] found
Submit result: bXaMFv643Ld0a9LTJq2R3WneXRw- has been confirmed
Track | CTDB Status
1 | (2/2) Accurately ripped
2 | (2/2) Accurately ripped
3 | (2/2) Accurately ripped
4 | (2/2) Accurately ripped
5 | (2/2) Accurately ripped
6 | (2/2) Accurately ripped
7 | (2/2) Accurately ripped
8 | (2/2) Accurately ripped
9 | (2/2) Accurately ripped
10 | (2/2) Accurately ripped
11 | (2/2) Accurately ripped
12 | (2/2) Accurately ripped


==== Log checksum 87383B92A2863E07DC736AF2B531D52A1702ABF7ED90C537E3C0EE9C864EA304 ====


[CUETools log; Date: 22.08.2018 19:50:52; Version: 2.1.5]
[CTDB TOCID: bXaMFv643Ld0a9LTJq2R3WneXRw-] found.
Track | CTDB Status
1 | (17/17) Accurately ripped
2 | (17/17) Accurately ripped
3 | (17/17) Accurately ripped
4 | (17/17) Accurately ripped
5 | (17/17) Accurately ripped
6 | (17/17) Accurately ripped
7 | (17/17) Accurately ripped
8 | (17/17) Accurately ripped
9 | (17/17) Accurately ripped
10 | (17/17) Accurately ripped
11 | (17/17) Accurately ripped
12 | (17/17) Accurately ripped
[AccurateRip ID: 00126e67-00adb88a-910a000c] found.
Track [ CRC | V2 ] Status
01 [6e756c52|9b82a4d0] (04+10/14) Accurately ripped
02 [4d34dd6b|2501970c] (04+10/14) Accurately ripped
03 [f335881e|d3a3e8da] (04+10/14) Accurately ripped
04 [6a2a1c85|bb6b2574] (04+10/14) Accurately ripped
05 [b494212f|07c7bf0c] (04+10/14) Accurately ripped
06 [87a7dd45|ff229e10] (04+10/14) Accurately ripped
07 [0d7d2c50|a7583f4d] (04+10/14) Accurately ripped
08 [ff66a971|ec4303f7] (04+10/14) Accurately ripped
09 [866fc817|d3eb05e4] (04+10/14) Accurately ripped
10 [c78a6641|f5d23714] (04+10/14) Accurately ripped
11 [cd1d2173|248e377b] (04+10/14) Accurately ripped
12 [dd8e8190|e15c33aa] (04+09/13) Accurately ripped

Track Peak [ CRC32 ] [W/O NULL] [ LOG ]
– 96,6 [FBBF9ECA] [3F294316] CRC32
01 96,6 [53D22073] [A33F081A]
02 91,2 [DC989AB6] [83D174BA]
03 91,2 [34048EA2] [3B162508]
04 96,6 [92309892] [E07C06F0]
05 92,4 [8CCA400A] [F1DB7E26]
06 92,3 [5463827F] [FE911775]
07 91,2 [B7861077] [28C4D35F]
08 91,2 [EE0E7A9A] [7EDD911D]
09 91,2 [A31B3CEB] [0E592EB4]
10 96,1 [2B7D2CDE] [734DFF82]
11 78,4 [CDDF1862] [172E8D0B]
12 91,7 [50679E9D] [DD346847]


Motörhead - No Remorse (1984) [2010, Sanctuary Records 2748857]

Tracklist CD2:

1. Overkill - 5:15
2. Please Don't Touch - 2:50
3. Stone Dead Forever - 4:55
4. Like A Nightmare - 4:29
5. Emergency - 3:01
6. Steal Your Face - 4:32
7. Louie, Louie - 2:55
8. No Class - 2:41
9. Iron Horse - 3:48
10. (We Are) The Road Crew - 3:12
11. Leaving Here (Live) - 3:06
12. Locomotive - 3:25
13. Under The Knife (12' Single Version) (Bonus Track) - 3:51
14. Under The Knife (12' Single Version) (Bonus Track) - 4:35
15. Master Plan (Bonus Track) - 2:55
16. No Class (feturind Wendy O'Williams) (Bonus Track) - 2:33
17. Stand By Your Man (feturind Wendy O'Williams) (Bonus Track) - 3:06

Exact Audio Copy V1.0 beta 3 from 29. August 2011

EAC extraction logfile from 26. November 2013, 22:32

Motorhead / No Remorse (2010, EU, Sanctuary, 2748857) (CD2)

Used drive : PIONEER DVD-RW DVR-219L Adapter: 1 ID: 0

Read mode : Secure
Utilize accurate stream : Yes
Defeat audio cache : Yes
Make use of C2 pointers : No

Read offset correction : 6
Overread into Lead-In and Lead-Out : No
Fill up missing offset samples with silence : Yes
Delete leading and trailing silent blocks : No
Null samples used in CRC calculations : Yes
Used interface : Native Win32 interface for Win NT & 2000

Used output format : Internal WAV Routines
Sample format : 44.100 Hz; 16 Bit; Stereo


TOC of the extracted CD

Track | Start | Length | Start sector | End sector
––––––––––––––––––––––––––––-
1 | 0:00.00 | 5:15.06 | 0 | 23630
2 | 5:15.06 | 2:49.61 | 23631 | 36366
3 | 8:04.67 | 4:54.40 | 36367 | 58456
4 | 12:59.32 | 4:28.64 | 58457 | 78620
5 | 17:28.21 | 3:00.56 | 78621 | 92176
6 | 20:29.02 | 4:31.57 | 92177 | 112558
7 | 25:00.59 | 2:55.30 | 112559 | 125713
8 | 27:56.14 | 2:41.17 | 125714 | 137805
9 | 30:37.31 | 3:48.10 | 137806 | 154915
10 | 34:25.41 | 3:12.18 | 154916 | 169333
11 | 37:37.59 | 3:05.60 | 169334 | 183268
12 | 40:43.44 | 3:25.09 | 183269 | 198652
13 | 44:08.53 | 3:50.57 | 198653 | 215959
14 | 47:59.35 | 4:35.01 | 215960 | 236585
15 | 52:34.36 | 2:54.73 | 236586 | 249708
16 | 55:29.34 | 2:32.63 | 249709 | 261171
17 | 58:02.22 | 3:06.27 | 261172 | 275148


Range status and errors

Selected range

Filename D:\CDRip for Unclesandy\Motorhead - No Remorse (2010, EU, Sanctuary, 2748857) (CD2).wav

Peak level 96.6 %
Extraction speed 7.4 X
Range quality 100.0 %
Test CRC 72C83D51
Copy CRC 72C83D51
Copy OK

No errors occurred


AccurateRip summary

Track 1 accurately ripped (confidence 4) [E2E94693] (AR v2)
Track 2 accurately ripped (confidence 4) [D34C0253] (AR v2)
Track 3 accurately ripped (confidence 4) [7E40B4FF] (AR v2)
Track 4 accurately ripped (confidence 4) [30776746] (AR v2)
Track 5 accurately ripped (confidence 4) [94704DEC] (AR v2)
Track 6 accurately ripped (confidence 4) [0F9F682D] (AR v2)
Track 7 accurately ripped (confidence 4) [05645C4B] (AR v2)
Track 8 accurately ripped (confidence 4) [1F1C8E5D] (AR v2)
Track 9 accurately ripped (confidence 4) [E76E5544] (AR v2)
Track 10 accurately ripped (confidence 4) [A1ED1FCB] (AR v2)
Track 11 accurately ripped (confidence 4) [76D7C567] (AR v2)
Track 12 accurately ripped (confidence 4) [A8FA7887] (AR v2)
Track 13 accurately ripped (confidence 4) [5B2CA4E3] (AR v2)
Track 14 accurately ripped (confidence 4) [A826914B] (AR v2)
Track 15 accurately ripped (confidence 4) [C7F60BDD] (AR v2)
Track 16 accurately ripped (confidence 4) [0C61208D] (AR v2)
Track 17 accurately ripped (confidence 4) [EC917E63] (AR v2)

All tracks accurately ripped

End of status report

–– CUETools DB Plugin V2.1.4

[CTDB TOCID: RWBfElANv4Npm2RFjrwWEEwPirA-] found
Submit result: RWBfElANv4Npm2RFjrwWEEwPirA- has been confirmed
Track | CTDB Status
1 | (2/2) Accurately ripped
2 | (2/2) Accurately ripped
3 | (2/2) Accurately ripped
4 | (2/2) Accurately ripped
5 | (2/2) Accurately ripped
6 | (2/2) Accurately ripped
7 | (2/2) Accurately ripped
8 | (2/2) Accurately ripped
9 | (2/2) Accurately ripped
10 | (2/2) Accurately ripped
11 | (2/2) Accurately ripped
12 | (2/2) Accurately ripped
13 | (2/2) Accurately ripped
14 | (2/2) Accurately ripped
15 | (2/2) Accurately ripped
16 | (2/2) Accurately ripped
17 | (2/2) Accurately ripped


==== Log checksum 835200EC35F830DCB7B54B8338AC2C4DBD05237AF4F775B675EAEDF3AC3CAB54 ====


[CUETools log; Date: 22.08.2018 19:51:30; Version: 2.1.5]
[CTDB TOCID: RWBfElANv4Npm2RFjrwWEEwPirA-] found.
Track | CTDB Status
1 | (16/16) Accurately ripped
2 | (16/16) Accurately ripped
3 | (16/16) Accurately ripped
4 | (16/16) Accurately ripped
5 | (16/16) Accurately ripped
6 | (16/16) Accurately ripped
7 | (16/16) Accurately ripped
8 | (16/16) Accurately ripped
9 | (16/16) Accurately ripped
10 | (16/16) Accurately ripped
11 | (16/16) Accurately ripped
12 | (16/16) Accurately ripped
13 | (16/16) Accurately ripped
14 | (16/16) Accurately ripped
15 | (16/16) Accurately ripped
16 | (16/16) Accurately ripped
17 | (16/16) Accurately ripped
[AccurateRip ID: 0027d3a0-01f046c1-eb0e5411] found.
Track [ CRC | V2 ] Status
01 [6aebf7bd|e2e94693] (04+09/13) Accurately ripped
02 [a0a0b3f4|d34c0253] (04+09/13) Accurately ripped
03 [18f0fc4f|7e40b4ff] (04+09/13) Accurately ripped
04 [88ba8631|30776746] (04+09/13) Accurately ripped
05 [5871c0eb|94704dec] (04+09/13) Accurately ripped
06 [7a266e98|0f9f682d] (04+09/13) Accurately ripped
07 [c542af64|05645c4b] (04+09/13) Accurately ripped
08 [8e5e3cef|1f1c8e5d] (04+09/13) Accurately ripped
09 [1d39b0b7|e76e5544] (04+09/13) Accurately ripped
10 [7a56b57a|a1ed1fcb] (03+09/12) Accurately ripped
11 [82b99f72|76d7c567] (03+09/12) Accurately ripped
12 [69a5ed09|a8fa7887] (03+09/12) Accurately ripped
13 [bdade12a|5b2ca4e3] (03+09/12) Accurately ripped
14 [202c132d|a826914b] (04+09/13) Accurately ripped
15 [8336c65c|c7f60bdd] (04+09/13) Accurately ripped
16 [d711860c|0c61208d] (04+09/13) Accurately ripped
17 [668e8a25|ec917e63] (04+10/14) Accurately ripped

Track Peak [ CRC32 ] [W/O NULL] [ LOG ]
– 96,6 [72C83D51] [DE85DD1E] CRC32
01 96,6 [59BCD751] [CBC65B0B]
02 86,1 [0071B97F] [8800CB55]
03 91,2 [B8F1ED4E] [3C2994A4]
04 96,5 [3A014E3F] [24C1D82C]
05 91,2 [134D3223] [7E44C50C]
06 91,2 [BF8B712D] [0003975E]
07 96,6 [B58BFF77] [BAAC8B39]
08 96,6 [9C406290] [141F5B48]
09 91,1 [80D7721D] [8FEC8B90]
10 91,2 [3894753C] [451B33DE]
11 91,2 [8DAA5CA8] [5AB0CE09]
12 91,2 [F590A5C8] [FB1BD578]
13 95,8 [110FFBF7] [3EE56C3F]
14 93,4 [D51EBB71] [9C48386D]
15 90,7 [F35F9B01] [E60A48AA]
16 92,9 [D2336BE4] [8990967A]
17 92,1 [72A0C16D] [D068B85F]


Motörhead - No Remorse (1984) [2010, Sanctuary Records 2748857]

All thanks go to unclesandy

Motörhead in my Blog

Download Motörhead - No Remorse (1984):