Lynyrd Skynyrd - Skynyrd's First And...Last (1978)

Posted By: v3122
Lynyrd Skynyrd - Skynyrd's First And...Last (1978)

Lynyrd Skynyrd - Skynyrd's First And…Last (1978)
EAC | Flac(Image) + Cue + Log & MP3 CBR 320Kbps
1991 | MCA Records, MCD01627 | ~ 215 or 102 Mb | Scans Included
Southern Rock, Blues Rock, Boogie Rock

So named because this consists of Skynyrd's earliest recordings and was released after the tragic plane crash, thereby seeming to close the door on the band's career, Skynyrd's First and…Last is more than a simple historic curiosity, but not too much more. This music is more notable for being interesting – in how it's possible to hear Ronnie VanZant coming into his own as a writer, or hearing future Blackfoot leader Ricky Medlocke's early songs – than it is for being good, which it certainly is. Taken on its own, separated from the rest of the group's catalog, this would likely be seen as a great forgotten hard rock album from an obscure Southern outfit, but since Skynyrd went on to greater things, this winds up as a footnote – enjoyable, yes, but not quite necessary.

by Stephen Thomas Erlewine, AMG
Lynyrd Skynyrd - Skynyrd's First And...Last (1978)


Lynyrd Skynyrd - Skynyrd's First And…Last (1978):

Lynyrd Skynyrd - Skynyrd's First And...Last (1978)

Tracklist:

01. Down South Jukin' (Gary Rossington, Ronnie Van Zant) 02:15
02. Preacher's Daughter (Rickey Medlocke, Van Zant) 03:40
03. White Dove (Medlocke) 02:56
04. Was I Right or Wrong (Rossington, Van Zant) 05:25
05. Lend a Helpin' Hand (Allen Collins, Rossington, Van Zant) 04:22
06. Wino (Collins, Medlocke, Van Zant) 03:18
07. Comin' Home (Collins, Van Zant) 05:33
08. The Seasons (Medlocke) 04:12
09. Things Goin' On (Original Version) (Rossington, Van Zant) 05:11

Converted to Image (CUETools 2.1.4)

Exact Audio Copy V1.1 from 23. June 2015

EAC extraction logfile from 6. February 2016, 19:48

Lynyrd Skynyrd / Skynyrd´s First And… Last

Used drive : HL-DT-STDVDRAM GH24NSB0 Adapter: 1 ID: 0

Read mode : Secure
Utilize accurate stream : Yes
Defeat audio cache : Yes
Make use of C2 pointers : No

Read offset correction : 6
Overread into Lead-In and Lead-Out : No
Fill up missing offset samples with silence : Yes
Delete leading and trailing silent blocks : No
Null samples used in CRC calculations : Yes
Used interface : Native Win32 interface for Win NT & 2000
Gap handling : Appended to previous track

Used output format : User Defined Encoder
Selected bitrate : 1024 kBit/s
Quality : High
Add ID3 tag : No
Command line compressor : C:\Program Files (x86)\Exact Audio Copy\FLAC\FLAC.EXE
Additional command line options : -V -8 -T "ARTIST=%artist%" -T "TITLE=%title%" -T "ALBUM=%albumtitle%" -T "DATE=%year%" -T "TRACKNUMBER=%tracknr%" -T "GENRE=%genre%" -T "COMMENT=ripped by Musicgate for new-team.org" %source% -o %dest%


TOC of the extracted CD

Track | Start | Length | Start sector | End sector
––––––––––––––––––––––––––––-
1 | 0:00.00 | 2:14.50 | 0 | 10099
2 | 2:14.50 | 3:40.27 | 10100 | 26626
3 | 5:55.02 | 2:58.30 | 26627 | 40006
4 | 8:53.32 | 5:24.55 | 40007 | 64361
5 | 14:18.12 | 4:21.38 | 64362 | 83974
6 | 18:39.50 | 3:17.72 | 83975 | 98821
7 | 21:57.47 | 5:33.28 | 98822 | 123824
8 | 27:31.00 | 4:11.52 | 123825 | 142701
9 | 31:42.52 | 5:11.33 | 142702 | 166059


Track 1

Filename D:\Musicgate\Lynyrd Skynyrd - Skynyrd´s First And… Last - 1978 (1991 MCA MCD01627)\01 - Down South Jukin'.wav

Pre-gap length 0:00:02.00

Peak level 93.2 %
Extraction speed 0.9 X
Track quality 100.0 %
Test CRC CD190FE8
Copy CRC CD190FE8
Accurately ripped (confidence 14) [366DD094] (AR v2)
Copy OK

Track 2

Filename D:\Musicgate\Lynyrd Skynyrd - Skynyrd´s First And… Last - 1978 (1991 MCA MCD01627)\02 - Preacher's Daughter.wav

Pre-gap length 0:00:01.65

Peak level 79.2 %
Extraction speed 1.1 X
Track quality 100.0 %
Test CRC B47374EC
Copy CRC B47374EC
Accurately ripped (confidence 14) [1789B5D1] (AR v2)
Copy OK

Track 3

Filename D:\Musicgate\Lynyrd Skynyrd - Skynyrd´s First And… Last - 1978 (1991 MCA MCD01627)\03 - White Dove.wav

Pre-gap length 0:00:02.27

Peak level 66.7 %
Extraction speed 1.1 X
Track quality 100.0 %
Test CRC 1C7EB5D9
Copy CRC 1C7EB5D9
Accurately ripped (confidence 14) [BA5E09C1] (AR v2)
Copy OK

Track 4

Filename D:\Musicgate\Lynyrd Skynyrd - Skynyrd´s First And… Last - 1978 (1991 MCA MCD01627)\04 - Was I Right Or Wrong.wav

Pre-gap length 0:00:02.12

Peak level 91.6 %
Extraction speed 1.3 X
Track quality 100.0 %
Test CRC 99BD7752
Copy CRC 99BD7752
Accurately ripped (confidence 14) [F2378B3D] (AR v2)
Copy OK

Track 5

Filename D:\Musicgate\Lynyrd Skynyrd - Skynyrd´s First And… Last - 1978 (1991 MCA MCD01627)\05 - Lend A Helpin' Hand.wav

Pre-gap length 0:00:02.19

Peak level 98.1 %
Extraction speed 1.4 X
Track quality 100.0 %
Test CRC 28B97FA0
Copy CRC 28B97FA0
Accurately ripped (confidence 14) [611C0808] (AR v2)
Copy OK

Track 6

Filename D:\Musicgate\Lynyrd Skynyrd - Skynyrd´s First And… Last - 1978 (1991 MCA MCD01627)\06 - Wino.wav

Pre-gap length 0:00:02.30

Peak level 80.6 %
Extraction speed 1.5 X
Track quality 100.0 %
Test CRC D3A6FA13
Copy CRC D3A6FA13
Accurately ripped (confidence 14) [07A7003D] (AR v2)
Copy OK

Track 7

Filename D:\Musicgate\Lynyrd Skynyrd - Skynyrd´s First And… Last - 1978 (1991 MCA MCD01627)\07 - Comin' Home.wav

Pre-gap length 0:00:02.35

Peak level 83.2 %
Extraction speed 1.7 X
Track quality 100.0 %
Test CRC AF49A73C
Copy CRC AF49A73C
Accurately ripped (confidence 14) [11D4116F] (AR v2)
Copy OK

Track 8

Filename D:\Musicgate\Lynyrd Skynyrd - Skynyrd´s First And… Last - 1978 (1991 MCA MCD01627)\08 - Seasons.wav

Pre-gap length 0:00:02.18

Peak level 78.1 %
Extraction speed 1.7 X
Track quality 100.0 %
Test CRC 53D32AD8
Copy CRC 53D32AD8
Accurately ripped (confidence 14) [2B2CD4AB] (AR v2)
Copy OK

Track 9

Filename D:\Musicgate\Lynyrd Skynyrd - Skynyrd´s First And… Last - 1978 (1991 MCA MCD01627)\09 - Things Goin' On.wav

Pre-gap length 0:00:01.72

Peak level 83.8 %
Extraction speed 1.7 X
Track quality 99.9 %
Test CRC D2DF739E
Copy CRC D2DF739E
Accurately ripped (confidence 14) [5D10F45B] (AR v2)
Copy OK


All tracks accurately ripped

No errors occurred

End of status report

==== Log checksum 347928F9234C92A319CEA6C1505DCCBDDEC35566558158045B689D09C8C3AE1E ====

foobar2000 1.2.9 / Dynamic Range Meter 1.1.1
log date: 2016-10-04 18:49:41

––––––––––––––––––––––––––––––––––––––––
Analyzed: Lynyrd Skynyrd / Skynyrd's First And…Last
––––––––––––––––––––––––––––––––––––––––

DR Peak RMS Duration Track
––––––––––––––––––––––––––––––––––––––––
DR11 -0.61 dB -14.86 dB 2:15 01-Down South Jukin'
DR12 -2.02 dB -16.59 dB 3:40 02-Preacher's Daughter
DR10 -3.51 dB -16.80 dB 2:58 03-White Dove
DR11 -0.75 dB -15.53 dB 5:25 04-Was I Right Or Wrong
DR11 -0.17 dB -14.08 dB 4:22 05-Lend A Helpin' Hand
DR11 -1.87 dB -14.71 dB 3:18 06-Wino
DR10 -1.59 dB -15.92 dB 5:33 07-Comin' Home
DR10 -2.15 dB -15.38 dB 4:12 08-Seasons
DR13 -1.53 dB -16.49 dB 5:11 09-Things Goin' On
––––––––––––––––––––––––––––––––––––––––

Number of tracks: 9
Official DR value: DR11

Samplerate: 44100 Hz
Channels: 2
Bits per sample: 16
Bitrate: 756 kbps
Codec: FLAC

[CUETools log; Date: 04.10.2016 18:15:16; Version: 2.1.4]
[AccurateRip ID: 000b8b00-00572c92-6608a609] found.
Track [ CRC | V2 ] Status
01 [7ed9b952|366dd094] (06+16/64) Accurately ripped
02 [6249b063|1789b5d1] (06+16/65) Accurately ripped
03 [160124d7|ba5e09c1] (06+16/65) Accurately ripped
04 [741c93e6|f2378b3d] (06+16/65) Accurately ripped
05 [63736962|611c0808] (06+16/64) Accurately ripped
06 [79a36423|07a7003d] (06+16/65) Accurately ripped
07 [bdc71b40|11d4116f] (06+16/65) Accurately ripped
08 [b6866f35|2b2cd4ab] (06+16/65) Accurately ripped
09 [823eadb5|5d10f45b] (06+15/64) Accurately ripped
Offsetted by 664:
01 [2821ddba] (03/64) Accurately ripped
02 [15e31423] (03/65) Accurately ripped
03 [df68adf7] (03/65) Accurately ripped
04 [2897d276] (03/65) Accurately ripped
05 [ddc1d2f2] (02/64) Accurately ripped
06 [dbeb16db] (03/65) Accurately ripped
07 [3a876860] (03/65) Accurately ripped
08 [8709e245] (03/65) Accurately ripped
09 [99be0855] (03/64) Accurately ripped
Offsetted by 1563:
01 [3443ed17] (02/64) Accurately ripped
02 [dea3b81b] (02/65) Accurately ripped
03 [9df9195b] (02/65) Accurately ripped
04 [9c906b68] (02/65) Accurately ripped
05 [1c68e744] (02/64) Accurately ripped
06 [61c098a2] (02/65) Accurately ripped
07 [67497444] (02/65) Accurately ripped
08 [a5f98ac7] (02/65) Accurately ripped
09 [f112f0e9] (02/64) Accurately ripped
Offsetted by 2271:
01 [40ab10d3] (02/64) Accurately ripped
02 [5a48d0bb] (03/65) Accurately ripped
03 [a487e18b] (03/65) Accurately ripped
04 [42c9ce80] (03/65) Accurately ripped
05 [46eac6dc] (03/64) Accurately ripped
06 [fefa8a16] (03/65) Accurately ripped
07 [f2793274] (03/65) Accurately ripped
08 [bee8669f] (03/65) Accurately ripped
09 [c95b8159] (03/64) Accurately ripped
Offsetted by 2274:
01 [248473b0] (04/64) Accurately ripped
02 [967828b3] (04/65) Accurately ripped
03 [cb9c02ef] (04/65) Accurately ripped
04 [aa8b2272] (04/65) Accurately ripped
05 [2462a62e] (04/64) Accurately ripped
06 [318b0e5d] (04/65) Accurately ripped
07 [6da3b458] (04/65) Accurately ripped
08 [ec92a221] (04/65) Accurately ripped
09 [e22367ed] (04/64) Accurately ripped

Track Peak [ CRC32 ] [W/O NULL] [ LOG ]
– 98,1 [B5A88423] [02FCC805]
01 93,2 [CD190FE8] [3DE0639C] CRC32
02 79,2 [B47374EC] [2F8888E7] CRC32
03 66,7 [1C7EB5D9] [24272DC0] CRC32
04 91,6 [99BD7752] [A4372D81] CRC32
05 98,1 [28B97FA0] [C18335BD] CRC32
06 80,6 [D3A6FA13] [438B9C19] CRC32
07 83,2 [AF49A73C] [C24894A4] CRC32
08 78,1 [53D32AD8] [908F2DAB] CRC32
09 83,8 [D2DF739E] [E31F6C13] CRC32

Lynyrd Skynyrd - Skynyrd's First And...Last (1978)

All thanks go to Musicgate

Lynyrd Skynyrd in my Blog

Download Lynyrd Skynyrd - Skynyrd's First And…Last (1978):