Tags
Language
Tags
July 2024
Su Mo Tu We Th Fr Sa
30 1 2 3 4 5 6
7 8 9 10 11 12 13
14 15 16 17 18 19 20
21 22 23 24 25 26 27
28 29 30 31 1 2 3

Jay & The Americans - The Complete United Artists Singles (2009)

Posted By: Rtax
Jay & The Americans - The Complete United Artists Singles (2009)

Jay & The Americans - The Completed United Artists Singles (2009)
EAC Rip | FLAC (tracks, cue, log) - 649 MB | MP3 CBR 320 kbps - 408 MB
2:54:15 | Pop Rock, Vocall | Label: Collectors' Choice Music

Having successfully brought to digital light the original mono single masters of Jan & Dean and Gary Lewis & the Playboys, we felt it was time to tackle the complete singles of another great 60s single band, Jay & the Americans! And when we say tackle, we mean we really put our shoulders into this one this set comes in at three CDs and 66 tracks strong! That s the A and B-side of every single in their original mono single mixes, virtually none of which have appeared on CD, all remastered from the original single master tapes that have laid dormant for decades, plus two promo-only tracks. Once again, Ed Osborne produced and annotated the set, and got quotes from Americans Sandy Deanne (Yaguda), Marty Sanders and Kenny Vance (Rosenberg). Single sleeves and photos round out the booklet. Includes the Phil Spector production Things Are Changing , which was written by Spector and Brian Wilson! Don't miss this magically momentous Collectors Choice Music exclusive!

Tracklist
Disc: 1
1. Tonight
2. The Other Girls
3. Dawning
4. She Cried
5. This Is It
6. It's My Turn To Cry
7. Tomorrow
8. Yes
9. What's The Use
10. Strangers Tomorrow
11. Only In America
12. My Clair De Lune
13. Baby, That Is Rock & Roll (promo single)
14. Come Dance With Me
15. Look In My Eyes Maria
16. To Wait For Love
17. Friday
18. Goodbye Boys Goodbye (Ciao Ragazzi Ciao)
19. Come A Little Bit Closer
20. Let's Lock The Door (And Throw Away The Key)
21. I'll Remember You
22. Think Of The Good Times
23. If You Were Mine, Girl

Disc: 2
1. When It's All Over
2. Cara, Mia
3. Some Enchanted Evening
4. Girl
5. Sunday And Me
6. Through This Doorway
7. Things Are Changing (promo single)
8. Why Can't You Bring Me Home
9. Baby Stop Your Cryin'
10. Crying
11. I Don't Need A Friend
12. Livin' Above Your Head
13. Look At Me - What Do You See
14. Stop The Clock
15. Baby Come Home
16. (He's) Raining In My Sunshine
17. The Reason For Living (For You My Darling)
18. What Will My Mary Say
19. Return To Me
20. You Ain't As Hip As All That Baby
21. Nature Boy

Disc: 3
1. (We'll Meet In The) Yellow Forest
2. Got Hung Up Along The Way
3. French Provincial
4. Shanghai Noodle Factory
5. No Other Love
6. No, I Don't Know Her
7. You Ain't Gonna Wake Up Cryin'
8. Gemini (Don't You Ever Wonder Why)
9. Since I Don't Have You
10. This Magic Moment
11. When You Dance
12. Hushabye
13. Gypsy Woman
14. (I'd Kill) For The Love Of A Lady
15. Learnin' How To Fly
16. Walkin' In The Rain
17. Capture The Moment
18. Do You Ever Think Of Me?
19. Do I Love You?
20. Tricia (Tell Your Daddy)
21. There Goes My Baby
22. Solitary Man
Exact Audio Copy V0.99 prebeta 5 from 4. May 2009

EAC extraction logfile from 10. September 2009, 20:31

Jay & the Americans / The Complete United Artists Singles (Disc 1)

Used drive : HL-DT-STDVDRAM GSA-E40L Adapter: 6 ID: 0

Read mode : Secure
Utilize accurate stream : Yes
Defeat audio cache : Yes
Make use of C2 pointers : No

Read offset correction : 667
Overread into Lead-In and Lead-Out : No
Fill up missing offset samples with silence : Yes
Delete leading and trailing silent blocks : No
Null samples used in CRC calculations : Yes
Used interface : Native Win32 interface for Win NT & 2000
Gap handling : Appended to previous track

Used output format : User Defined Encoder
Selected bitrate : 1024 kBit/s
Quality : High
Add ID3 tag : No
Command line compressor : C:\Program Files\Exact Audio Copy\FLAC\FLAC.EXE
Additional command line options : -V -8 -T "artist=%a" -T "title=%t" -T "album=%g" -T "date=%y" -T "tracknumber=%n" -T "genre=%m" %s


TOC of the extracted CD

Track | Start | Length | Start sector | End sector
––––––––––––––––––––––––––––-
1 | 0:00.00 | 2:31.33 | 0 | 11357
2 | 2:31.33 | 2:22.49 | 11358 | 22056
3 | 4:54.07 | 2:24.64 | 22057 | 32920
4 | 7:18.71 | 2:37.34 | 32921 | 44729
5 | 9:56.30 | 2:40.19 | 44730 | 56748
6 | 12:36.49 | 2:46.57 | 56749 | 69255
7 | 15:23.31 | 2:55.20 | 69256 | 82400
8 | 18:18.51 | 2:20.02 | 82401 | 92902
9 | 20:38.53 | 3:00.35 | 92903 | 106437
10 | 23:39.13 | 2:19.63 | 106438 | 116925
11 | 25:59.01 | 2:09.20 | 116926 | 126620
12 | 28:08.21 | 2:39.32 | 126621 | 138577
13 | 30:47.53 | 2:21.04 | 138578 | 149156
14 | 33:08.57 | 2:24.43 | 149157 | 159999
15 | 35:33.25 | 2:24.37 | 160000 | 170836
16 | 37:57.62 | 2:14.12 | 170837 | 180898
17 | 40:11.74 | 3:03.03 | 180899 | 194626
18 | 43:15.02 | 2:01.23 | 194627 | 203724
19 | 45:16.25 | 2:47.53 | 203725 | 216302
20 | 48:04.03 | 2:24.13 | 216303 | 227115
21 | 50:28.16 | 2:45.72 | 227116 | 239562
22 | 53:14.13 | 2:34.29 | 239563 | 251141
23 | 55:48.42 | 2:16.41 | 251142 | 261382


Track 1

Filename D:\rips\Jay & the Americans-01-Tonight.wav

Pre-gap length 0:00:02.00

Peak level 85.1 %
Track quality 99.9 %
Copy CRC 1E61249D
Copy OK

Track 2

Filename D:\rips\Jay & the Americans-02-The OTher Girls.wav

Peak level 90.4 %
Track quality 100.0 %
Copy CRC FB773888
Copy OK

Track 3

Filename D:\rips\Jay & the Americans-03-Dawning.wav

Peak level 91.4 %
Track quality 100.0 %
Copy CRC A2F71133
Copy OK

Track 4

Filename D:\rips\Jay & the Americans-04-She Cried.wav

Peak level 92.5 %
Track quality 100.0 %
Copy CRC 33CCF3ED
Copy OK

Track 5

Filename D:\rips\Jay & the Americans-05-This Is It.wav

Peak level 86.0 %
Track quality 100.0 %
Copy CRC FACC596F
Copy OK

Track 6

Filename D:\rips\Jay & the Americans-06-It's My Turn To Cry.wav

Peak level 86.1 %
Track quality 100.0 %
Copy CRC 33BA28DD
Copy OK

Track 7

Filename D:\rips\Jay & the Americans-07-Tomorrow.wav

Peak level 69.6 %
Track quality 100.0 %
Copy CRC 861F5249
Copy OK

Track 8

Filename D:\rips\Jay & the Americans-08-Yes.wav

Peak level 92.3 %
Track quality 100.0 %
Copy CRC FE90419A
Copy OK

Track 9

Filename D:\rips\Jay & the Americans-09-What's The Use.wav

Peak level 86.9 %
Track quality 100.0 %
Copy CRC DA5AD391
Copy OK

Track 10

Filename D:\rips\Jay & the Americans-10-Strangers Tomorrow.wav

Peak level 85.8 %
Track quality 100.0 %
Copy CRC 9805D43D
Copy OK

Track 11

Filename D:\rips\Jay & the Americans-11-Only In America.wav

Peak level 92.2 %
Track quality 100.0 %
Copy CRC 111368B2
Copy OK

Track 12

Filename D:\rips\Jay & the Americans-12-My Clair De Lune.wav

Peak level 91.1 %
Track quality 100.0 %
Copy CRC A80FEC61
Copy OK

Track 13

Filename D:\rips\Jay & the Americans-13-Baby, That is Rock & Roll (Live).wav

Peak level 98.2 %
Track quality 100.0 %
Copy CRC E945801A
Copy OK

Track 14

Filename D:\rips\Jay & the Americans-14-Come Dance With Me.wav

Peak level 92.8 %
Track quality 100.0 %
Copy CRC EC01B2AF
Copy OK

Track 15

Filename D:\rips\Jay & the Americans-15-Look In My Eyes Maria.wav

Peak level 85.4 %
Track quality 100.0 %
Copy CRC AB3B4E70
Copy OK

Track 16

Filename D:\rips\Jay & the Americans-16-To Wait For Love.wav

Peak level 89.8 %
Track quality 99.9 %
Copy CRC 1CD713C2
Copy OK

Track 17

Filename D:\rips\Jay & the Americans-17-Friday.wav

Peak level 93.3 %
Track quality 100.0 %
Copy CRC C83A2209
Copy OK

Track 18

Filename D:\rips\Jay & the Americans-18-Goodbye Boys Goodbye (Ciao Ragazzi Ciao).wav

Peak level 86.0 %
Track quality 100.0 %
Copy CRC C660D1D3
Copy OK

Track 19

Filename D:\rips\Jay & the Americans-19-Come A Little Bit Closer.wav

Peak level 95.4 %
Track quality 99.9 %
Copy CRC 5FF49A62
Copy OK

Track 20

Filename D:\rips\Jay & the Americans-20-Let's Lock The Door (And Throw Away The Key).wav

Peak level 95.7 %
Track quality 100.0 %
Copy CRC 9689C74B
Copy OK

Track 21

Filename D:\rips\Jay & the Americans-21-I'll Remember You.wav

Peak level 88.8 %
Track quality 100.0 %
Copy CRC 4C1E38E6
Copy OK

Track 22

Filename D:\rips\Jay & the Americans-22-Think Of The Good Times.wav

Peak level 93.0 %
Track quality 99.9 %
Copy CRC BA20149F
Copy OK

Track 23

Filename D:\rips\Jay & the Americans-23-If You Were Mine, Girl.wav

Peak level 93.2 %
Track quality 100.0 %
Copy CRC 0D9F4CA6
Copy OK

No errors occurred

End of status report


Exact Audio Copy V0.99 prebeta 5 from 4. May 2009

EAC extraction logfile from 10. September 2009, 20:56

Jay & The Americans / The Complete United Artists Singles (Disc 2)

Used drive : HL-DT-STDVDRAM GSA-E40L Adapter: 6 ID: 0

Read mode : Secure
Utilize accurate stream : Yes
Defeat audio cache : Yes
Make use of C2 pointers : No

Read offset correction : 667
Overread into Lead-In and Lead-Out : No
Fill up missing offset samples with silence : Yes
Delete leading and trailing silent blocks : No
Null samples used in CRC calculations : Yes
Used interface : Native Win32 interface for Win NT & 2000
Gap handling : Appended to previous track

Used output format : User Defined Encoder
Selected bitrate : 1024 kBit/s
Quality : High
Add ID3 tag : No
Command line compressor : C:\Program Files\Exact Audio Copy\FLAC\FLAC.EXE
Additional command line options : -V -8 -T "artist=%a" -T "title=%t" -T "album=%g" -T "date=%y" -T "tracknumber=%n" -T "genre=%m" %s


TOC of the extracted CD

Track | Start | Length | Start sector | End sector
––––––––––––––––––––––––––––-
1 | 0:00.00 | 2:38.35 | 0 | 11884
2 | 2:38.35 | 2:33.49 | 11885 | 23408
3 | 5:12.09 | 2:15.54 | 23409 | 33587
4 | 7:27.63 | 2:10.56 | 33588 | 43393
5 | 9:38.44 | 2:26.00 | 43394 | 54343
6 | 12:04.44 | 2:28.72 | 54344 | 65515
7 | 14:33.41 | 2:52.05 | 65516 | 78420
8 | 17:25.46 | 2:31.35 | 78421 | 89780
9 | 19:57.06 | 2:33.63 | 89781 | 101318
10 | 22:30.69 | 2:38.35 | 101319 | 113203
11 | 25:09.29 | 2:05.67 | 113204 | 122645
12 | 27:15.21 | 2:39.23 | 122646 | 134593
13 | 29:54.44 | 2:26.05 | 134594 | 145548
14 | 32:20.49 | 2:47.05 | 145549 | 158078
15 | 35:07.54 | 2:07.23 | 158079 | 167626
16 | 37:15.02 | 2:50.49 | 167627 | 180425
17 | 40:05.51 | 2:27.31 | 180426 | 191481
18 | 42:33.07 | 3:09.24 | 191482 | 205680
19 | 45:42.31 | 2:53.53 | 205681 | 218708
20 | 48:36.09 | 3:01.65 | 218709 | 232348
21 | 51:37.74 | 2:41.16 | 232349 | 244439


Track 1

Filename D:\rips\Jay & The Americans-01-When It's All Over.wav

Pre-gap length 0:00:02.00

Peak level 92.2 %
Track quality 100.0 %
Copy CRC C18B55BF
Copy OK

Track 2

Filename D:\rips\Jay & The Americans-02-Cara, Mia.wav

Peak level 93.2 %
Track quality 100.0 %
Copy CRC 0E9E66CE
Copy OK

Track 3

Filename D:\rips\Jay & The Americans-03-Some Enchanted Evening.wav

Peak level 89.0 %
Track quality 100.0 %
Copy CRC 900F4D5D
Copy OK

Track 4

Filename D:\rips\Jay & The Americans-04-Girl.wav

Peak level 87.7 %
Track quality 100.0 %
Copy CRC 51212133
Copy OK

Track 5

Filename D:\rips\Jay & The Americans-05-Sunday and Me.wav

Peak level 88.8 %
Track quality 100.0 %
Copy CRC 8F5D36E8
Copy OK

Track 6

Filename D:\rips\Jay & The Americans-06-Through This Doorway.wav

Peak level 87.1 %
Track quality 100.0 %
Copy CRC 2195690D
Copy OK

Track 7

Filename D:\rips\Jay & The Americans-07-Things Are Changing.wav

Peak level 93.3 %
Track quality 100.0 %
Copy CRC 7931E246
Copy OK

Track 8

Filename D:\rips\Jay & The Americans-08-Why Can't You Bring Me Home.wav

Peak level 96.9 %
Track quality 100.0 %
Copy CRC 7E4C5D23
Copy OK

Track 9

Filename D:\rips\Jay & The Americans-09-Baby Stop Your Cryin'.wav

Peak level 78.1 %
Track quality 100.0 %
Copy CRC DB4D91FF
Copy OK

Track 10

Filename D:\rips\Jay & The Americans-10-Crying.wav

Peak level 83.9 %
Track quality 100.0 %
Copy CRC EEF598E5
Copy OK

Track 11

Filename D:\rips\Jay & The Americans-11-I Don't Need A Friend.wav

Peak level 89.3 %
Track quality 100.0 %
Copy CRC 70F85D39
Copy OK

Track 12

Filename D:\rips\Jay & The Americans-12-Livin' Above Your Head.wav

Peak level 84.1 %
Track quality 100.0 %
Copy CRC 5612BF82
Copy OK

Track 13

Filename D:\rips\Jay & The Americans-13-Look At Me - What Do You See.wav

Peak level 90.0 %
Track quality 100.0 %
Copy CRC 82452108
Copy OK

Track 14

Filename D:\rips\Jay & The Americans-14-Stop the Clock.wav

Peak level 88.8 %
Track quality 100.0 %
Copy CRC E09B5A3C
Copy OK

Track 15

Filename D:\rips\Jay & The Americans-15-Baby Come Home.wav

Peak level 84.5 %
Track quality 100.0 %
Copy CRC 8D2C85AF
Copy OK

Track 16

Filename D:\rips\Jay & The Americans-16-(He's) Raining In My Sunshine.wav

Peak level 98.7 %
Track quality 99.9 %
Copy CRC DCDCAB8E
Copy OK

Track 17

Filename D:\rips\Jay & The Americans-17-The Reason For Living (For You My Darling).wav

Peak level 88.3 %
Track quality 99.9 %
Copy CRC D7D3B705
Copy OK

Track 18

Filename D:\rips\Jay & The Americans-18-What Will My Mary Say.wav

Peak level 84.8 %
Track quality 100.0 %
Copy CRC 2CA66B2F
Copy OK

Track 19

Filename D:\rips\Jay & The Americans-19-Return To Me.wav

Peak level 85.6 %
Track quality 100.0 %
Copy CRC CD1952E0
Copy OK

Track 20

Filename D:\rips\Jay & The Americans-20-You Ain't As Hip As All That Baby.wav

Peak level 88.4 %
Track quality 100.0 %
Copy CRC 1B009248
Copy OK

Track 21

Filename D:\rips\Jay & The Americans-21-Nature Boy.wav

Peak level 86.0 %
Track quality 100.0 %
Copy CRC DD539F90
Copy OK

No errors occurred

End of status report


Exact Audio Copy V0.99 prebeta 5 from 4. May 2009

EAC extraction logfile from 10. September 2009, 21:34

Jay & The Americans / The Complete United Artists Singles (Disc 3)

Used drive : HL-DT-STDVDRAM GSA-E40L Adapter: 6 ID: 0

Read mode : Secure
Utilize accurate stream : Yes
Defeat audio cache : Yes
Make use of C2 pointers : No

Read offset correction : 667
Overread into Lead-In and Lead-Out : No
Fill up missing offset samples with silence : Yes
Delete leading and trailing silent blocks : No
Null samples used in CRC calculations : Yes
Used interface : Native Win32 interface for Win NT & 2000
Gap handling : Not detected, thus appended to previous track

Used output format : Internal WAV Routines
Sample format : 44.100 Hz; 16 Bit; Stereo


TOC of the extracted CD

Track | Start | Length | Start sector | End sector
––––––––––––––––––––––––––––-
1 | 0:00.00 | 2:16.07 | 0 | 10206
2 | 2:16.07 | 2:07.28 | 10207 | 19759
3 | 4:23.35 | 3:10.67 | 19760 | 34076
4 | 7:34.27 | 2:34.60 | 34077 | 45686
5 | 10:09.12 | 2:29.68 | 45687 | 56929
6 | 12:39.05 | 2:29.69 | 56930 | 68173
7 | 15:08.74 | 3:18.33 | 68174 | 83056
8 | 18:27.32 | 2:39.64 | 83057 | 95045
9 | 21:07.21 | 3:32.74 | 95046 | 111019
10 | 24:40.20 | 2:57.07 | 111020 | 124301
11 | 27:37.27 | 2:54.03 | 124302 | 137354
12 | 30:31.30 | 3:01.51 | 137355 | 150980
13 | 33:33.06 | 3:15.14 | 150981 | 165619
14 | 36:48.20 | 2:33.20 | 165620 | 177114
15 | 39:21.40 | 2:56.09 | 177115 | 190323
16 | 42:17.49 | 2:49.59 | 190324 | 203057
17 | 45:07.33 | 2:22.49 | 203058 | 213756
18 | 47:30.07 | 2:33.58 | 213757 | 225289
19 | 50:03.65 | 2:22.25 | 225290 | 235964
20 | 52:26.15 | 2:57.61 | 235965 | 249300
21 | 55:24.01 | 3:21.61 | 249301 | 264436
22 | 58:45.62 | 3:04.41 | 264437 | 278277


Track 1

Filename D:\rips\Jay & The Americans-01-(We'll Meet In The) Yellow Forest.wav

Copy aborted

Track 2

Copy aborted

Track 3

Copy aborted

Track 4

Copy aborted

Track 5

Copy aborted

Track 6

Copy aborted

Track 7

Copy aborted

Track 8

Copy aborted

Track 9

Copy aborted

Track 10

Copy aborted

Track 11

Copy aborted

Track 12

Copy aborted

Track 13

Copy aborted

Track 14

Copy aborted

Track 15

Copy aborted

Track 16

Copy aborted

Track 17

Copy aborted

Track 18

Copy aborted

Track 19

Copy aborted

Track 20

Copy aborted

Track 21

Copy aborted

Track 22

Copy aborted

There were errors

End of status report

––––––––––––––––––––––––––––––

Exact Audio Copy V0.99 prebeta 5 from 4. May 2009

EAC extraction logfile from 10. September 2009, 21:54

Jay & The Americans / The Complete United Artists Singles (Disc 3)

Used drive : HL-DT-STDVDRAM GSA-E40L Adapter: 6 ID: 0

Read mode : Secure
Utilize accurate stream : Yes
Defeat audio cache : Yes
Make use of C2 pointers : No

Read offset correction : 667
Overread into Lead-In and Lead-Out : No
Fill up missing offset samples with silence : Yes
Delete leading and trailing silent blocks : No
Null samples used in CRC calculations : Yes
Used interface : Native Win32 interface for Win NT & 2000
Gap handling : Appended to previous track

Used output format : User Defined Encoder
Selected bitrate : 1024 kBit/s
Quality : High
Add ID3 tag : No
Command line compressor : C:\Program Files\Exact Audio Copy\FLAC\FLAC.EXE
Additional command line options : -V -8 -T "artist=%a" -T "title=%t" -T "album=%g" -T "date=%y" -T "tracknumber=%n" -T "genre=%m" %s


TOC of the extracted CD

Track | Start | Length | Start sector | End sector
––––––––––––––––––––––––––––-
1 | 0:00.00 | 2:16.07 | 0 | 10206
2 | 2:16.07 | 2:07.28 | 10207 | 19759
3 | 4:23.35 | 3:10.67 | 19760 | 34076
4 | 7:34.27 | 2:34.60 | 34077 | 45686
5 | 10:09.12 | 2:29.68 | 45687 | 56929
6 | 12:39.05 | 2:29.69 | 56930 | 68173
7 | 15:08.74 | 3:18.33 | 68174 | 83056
8 | 18:27.32 | 2:39.64 | 83057 | 95045
9 | 21:07.21 | 3:32.74 | 95046 | 111019
10 | 24:40.20 | 2:57.07 | 111020 | 124301
11 | 27:37.27 | 2:54.03 | 124302 | 137354
12 | 30:31.30 | 3:01.51 | 137355 | 150980
13 | 33:33.06 | 3:15.14 | 150981 | 165619
14 | 36:48.20 | 2:33.20 | 165620 | 177114
15 | 39:21.40 | 2:56.09 | 177115 | 190323
16 | 42:17.49 | 2:49.59 | 190324 | 203057
17 | 45:07.33 | 2:22.49 | 203058 | 213756
18 | 47:30.07 | 2:33.58 | 213757 | 225289
19 | 50:03.65 | 2:22.25 | 225290 | 235964
20 | 52:26.15 | 2:57.61 | 235965 | 249300
21 | 55:24.01 | 3:21.61 | 249301 | 264436
22 | 58:45.62 | 3:04.41 | 264437 | 278277


Track 1

Filename D:\rips\Jay & The Americans-01-(We'll Meet In The) Yellow Forest.wav

Pre-gap length 0:00:02.00

Peak level 92.4 %
Track quality 100.0 %
Copy CRC 8EA403B8
Copy OK

Track 2

Filename D:\rips\Jay & The Americans-02-Got Hung Up Along the Way.wav

Peak level 93.3 %
Track quality 100.0 %
Copy CRC 59AF0805
Copy OK

Track 3

Filename D:\rips\Jay & The Americans-03-French Provincial.wav

Peak level 98.5 %
Track quality 100.0 %
Copy CRC 3FBEE5D9
Copy OK

Track 4

Filename D:\rips\Jay & The Americans-04-Shanghai Noodle Factory.wav

Peak level 94.3 %
Track quality 100.0 %
Copy CRC 09C65DDC
Copy OK

Track 5

Filename D:\rips\Jay & The Americans-05-No Other Love.wav

Peak level 90.1 %
Track quality 100.0 %
Copy CRC 59A1EDD7
Copy OK

Track 6

Filename D:\rips\Jay & The Americans-06-No, I Don't Know Her.wav

Peak level 98.4 %
Track quality 100.0 %
Copy CRC A74A708C
Copy OK

Track 7

Filename D:\rips\Jay & The Americans-07-You Ain't Gonna Wake Up Cryin'.wav

Peak level 93.3 %
Track quality 100.0 %
Copy CRC 6A641FB9
Copy OK

Track 8

Filename D:\rips\Jay & The Americans-08-Gemini.wav

Peak level 93.3 %
Track quality 100.0 %
Copy CRC DF2C0E9E
Copy OK

Track 9

Filename D:\rips\Jay & The Americans-09-Since I Don't Have You.wav

Peak level 97.4 %
Track quality 100.0 %
Copy CRC 6B2DE16B
Copy OK

Track 10

Filename D:\rips\Jay & The Americans-10-This Magic Moment.wav

Peak level 96.7 %
Track quality 100.0 %
Copy CRC D6048788
Copy OK

Track 11

Filename D:\rips\Jay & The Americans-11-When You Dance.wav

Peak level 86.1 %
Track quality 100.0 %
Copy CRC 84ECF6EA
Copy OK

Track 12

Filename D:\rips\Jay & The Americans-12-Hushabye.wav

Peak level 98.5 %
Track quality 100.0 %
Copy CRC 2DBCA0AE
Copy OK

Track 13

Filename D:\rips\Jay & The Americans-13-Gypsy Woman.wav

Peak level 93.6 %
Track quality 100.0 %
Copy CRC FB5009C1
Copy OK

Track 14

Filename D:\rips\Jay & The Americans-14-(I'd Kill) For The Love of a Lady.wav

Peak level 91.5 %
Track quality 100.0 %
Copy CRC 80027CB1
Copy OK

Track 15

Filename D:\rips\Jay & The Americans-15-Learnin' How To Fly.wav

Peak level 98.8 %
Track quality 100.0 %
Copy CRC 2ED5C741
Copy OK

Track 16

Filename D:\rips\Jay & The Americans-16-Walkin' In the Rain.wav

Peak level 95.5 %
Track quality 100.0 %
Copy CRC 81FFC8F6
Copy OK

Track 17

Filename D:\rips\Jay & The Americans-17-Capture the Moment.wav

Peak level 84.3 %
Track quality 100.0 %
Copy CRC DE05A1C3
Copy OK

Track 18

Filename D:\rips\Jay & The Americans-18-Do You Ever Think of Me .wav

Peak level 76.5 %
Track quality 99.9 %
Copy CRC A01417BC
Copy OK

Track 19

Filename D:\rips\Jay & The Americans-19-Do I Love You .wav

Peak level 92.7 %
Track quality 100.0 %
Copy CRC 9B062C88
Copy OK

Track 20

Filename D:\rips\Jay & The Americans-20-Tricia (Tell Your Daddy).wav

Peak level 98.8 %
Track quality 100.0 %
Copy CRC 204A01D1
Copy OK

Track 21

Filename D:\rips\Jay & The Americans-21-There Goes My Baby.wav

Peak level 94.2 %
Track quality 100.0 %
Copy CRC 579F6295
Copy OK

Track 22

Filename D:\rips\Jay & The Americans-22-Solitary Man.wav

Peak level 94.3 %
Track quality 100.0 %
Copy CRC 3E195205
Copy OK

No errors occurred

End of status report