Tags
Language
Tags
July 2024
Su Mo Tu We Th Fr Sa
30 1 2 3 4 5 6
7 8 9 10 11 12 13
14 15 16 17 18 19 20
21 22 23 24 25 26 27
28 29 30 31 1 2 3

Ian Gillan Band - Clear Air Turbulence (1977) {1990, Remastered}

Posted By: popsakov
Ian Gillan Band - Clear Air Turbulence (1977) {1990, Remastered}

Ian Gillan Band - Clear Air Turbulence (1977) {1990, Remastered}
EAC Rip | FLAC (Img) + Cue + Log ~ 272 Mb | MP3 CBR320 ~ 116 Mb
Full Scans | 00:40:50 | RAR 5% Recovery
Jazz Rock, Fusion, Hard Rock, Progressive Rock | Virgin #CDVM 4 | UK

When Ian Gillan was recording his solo albums in the late 1970s and early '80s, Deep Purple's influence never went away. But Gillan did make an effort to try different things, and he was at his most experimental on Clear Air Turbulence. Enjoyable, if uneven, this album illustrates Gillan's willingness to take some chances. While the singer favors an aggressive hard rock groove on "Money Lender," the jazz fusion-influenced touches of "Over the Hill," "Goodhand Liza" and the title song could lead you to believe that you'd been listening to Weather Report and Return to Forever. Had Chick Corea formed an alliance with Deep Purple, perhaps it might sound something like "Over the Hill." Heavy metal and hard rock are in short supply on this album, which employs no less than five horn players and shows that Gillan didn't want to be a headbanger 100-percent of the time.

~ Alex Henderson, All Music

***************

Track List:

01. Clear Air Turbulance [7:36]
02. Five Moons [7:32]
03. Money Lender [5:38]
04. Over The Hill [7:19]
05. Goodhand Liza [5:28]
06. Angel Manchenio [7:17]

Personnel:
Ian Gillan - vocals
Colin Towns - keyboards and flutes
John Gustafson - bass guitar and vocals
Ray Fenwick - guitars and vocals
Mark Nauseef - drums and percussion

Additional musicians:
Phil Kersie - tenor saxophone on "Five Moons"
Martin Firth - baritone saxophone
John Huckridge - trumpets
Derek Healey - trumpets
Malcolm Griffiths - trombone

Exact Audio Copy V1.1 from 23. June 2015

EAC extraction logfile from 9. October 2017, 14:28

Ian Gillan Band / Clear Air Turbulance

Used drive : Optiarc DVD RW AD-7283S Adapter: 1 ID: 0

Read mode : Secure
Utilize accurate stream : Yes
Defeat audio cache : Yes
Make use of C2 pointers : No

Read offset correction : 48
Overread into Lead-In and Lead-Out : No
Fill up missing offset samples with silence : Yes
Delete leading and trailing silent blocks : No
Null samples used in CRC calculations : Yes
Used interface : Native Win32 interface for Win NT & 2000

Used output format : User Defined Encoder
Selected bitrate : 128 kBit/s
Quality : High
Add ID3 tag : No
Command line compressor : C:\Program Files (x86)\Exact Audio Copy\Flac\flac.exe
Additional command line options : -V -8 -T "Genre=%genre%" -T "Artist=%artist%" -T "Title=%title%" -T "Album=%albumtitle%" -T "Date=%year%" -T "Tracknumber=%tracknr%" -T "Comment=%comment%" %source%


TOC of the extracted CD

Track | Start | Length | Start sector | End sector
––––––––––––––––––––––––––––-
1 | 0:00.50 | 7:35.40 | 50 | 34214
2 | 7:36.15 | 7:32.25 | 34215 | 68139
3 | 15:08.40 | 5:38.00 | 68140 | 93489
4 | 20:46.40 | 7:19.35 | 93490 | 126449
5 | 28:06.00 | 5:27.47 | 126450 | 151021
6 | 33:33.47 | 7:17.00 | 151022 | 183796


Range status and errors

Selected range

Filename F:\alexbras\1977 - Ian Gillan Band - Clear Air Turbulence (1990 UK Virgin CDVM 4)\Ian Gillan Band - Clear Air Turbulance.wav

Peak level 100.0 %
Extraction speed 3.8 X
Range quality 100.0 %
Test CRC 1F979709
Copy CRC 1F979709
Copy OK

No errors occurred


AccurateRip summary

Track 1 accurately ripped (confidence 6) [92C9F724] (AR v2)
Track 2 accurately ripped (confidence 6) [355B392E] (AR v2)
Track 3 accurately ripped (confidence 6) [0AA2FF96] (AR v2)
Track 4 accurately ripped (confidence 6) [F56A67A5] (AR v2)
Track 5 accurately ripped (confidence 6) [67731FA2] (AR v2)
Track 6 accurately ripped (confidence 6) [9FC62403] (AR v2)

All tracks accurately ripped

End of status report

==== Log checksum 1AD0AE26AC8F8E07D11E4A1707B851C2A67353A63FC7C4080CE7AC91AB3B09C4 ====

foobar2000 1.2.6 / Dynamic Range Meter 1.1.1
log date: 2017-10-10 14:32:24

––––––––––––––––––––––––––––––––––––––––
Analyzed: Ian Gillan Band / Clear Air Turbulance
––––––––––––––––––––––––––––––––––––––––

DR Peak RMS Duration Track
––––––––––––––––––––––––––––––––––––––––
DR14 0.00 dB -16.97 dB 7:36 01-Clear Air Turbulance
DR15 -0.28 dB -20.32 dB 7:32 02-Five Moons
DR14 0.00 dB -16.24 dB 5:38 03-Money Lender
DR14 -0.34 dB -18.30 dB 7:19 04-Over The Hill
DR12 -1.25 dB -15.44 dB 5:28 05-Goodhand Liza
DR14 -0.45 dB -18.19 dB 7:17 06-Angel Manchenio
––––––––––––––––––––––––––––––––––––––––

Number of tracks: 6
Official DR value: DR14

Samplerate: 44100 Hz
Channels: 2
Bits per sample: 16
Bitrate: 828 kbps
Codec: FLAC
================================================================================

[CUETools log; Date: 10.10.2017 14:32:10; Version: 2.1.5]
Pregap length 00:00:50.
[CTDB TOCID: 7zrac0icaGZjjqpIpbjYdui32eY-] found.
Track | CTDB Status
1 | (8/8) Accurately ripped
2 | (8/8) Accurately ripped
3 | (8/8) Accurately ripped
4 | (8/8) Accurately ripped
5 | (8/8) Accurately ripped
6 | (8/8) Accurately ripped
[AccurateRip ID: 000a070c-0034f9cd-4b099206] found.
Track [ CRC | V2 ] Status
01 [8dec030b|92c9f724] (07+06/15) Accurately ripped
02 [b0a7db83|355b392e] (07+06/15) Accurately ripped
03 [004d7874|0aa2ff96] (07+06/15) Accurately ripped
04 [94ed6072|f56a67a5] (07+06/15) Accurately ripped
05 [d8095ba7|67731fa2] (07+06/15) Accurately ripped
06 [e687f528|9fc62403] (07+06/15) Accurately ripped
Offsetted by -883:
01 [02a69981] (02/15) Accurately ripped
02 [d1c81496] (02/15) Accurately ripped
03 [f68cb636] (02/15) Accurately ripped
04 [81ce1e93] (02/15) Accurately ripped
05 [cb1674b6] (02/15) Accurately ripped
06 [ba59ef6b] (02/15) Accurately ripped

Track Peak [ CRC32 ] [W/O NULL] [ LOG ]
– 100,0 [1F979709] [F5B6DFBC] CRC32
01 100,0 [0D8D0387] [D7E175E8]
02 96,8 [15BC7A9F] [0F80732E]
03 100,0 [11932A45] [697BF223]
04 96,1 [668B3097] [3AA051FD]
05 86,5 [E1F6F9CD] [01FDAE65]
06 94,9 [648755EB] [6F6E3B92]

All thanks go to alex1248

>>> Ian Gillan in my Blog <<<

DOWNLOAD: