Tags
Language
Tags
July 2024
Su Mo Tu We Th Fr Sa
30 1 2 3 4 5 6
7 8 9 10 11 12 13
14 15 16 17 18 19 20
21 22 23 24 25 26 27
28 29 30 31 1 2 3

Fabio Biondi, Rinaldo Alessandrini - Alessandro Scarlatti: Cain overo Il Primo Omicidio (1992)

Posted By: ArlegZ
Fabio Biondi, Rinaldo Alessandrini - Alessandro Scarlatti: Cain overo Il Primo Omicidio (1992)

Fabio Biondi, Rinaldo Alessandrini, Concerto Italiano, Europa Galante - Alessandro Scarlatti: Cain overo Il Primo Omicidio (1992)
EAC | FLAC | Image (Cue & Log) ~ 747 Mb | Total time: 66:07+71:50 | Scans included
Classical | Label: Opus 111 | OPS 30-75/76 | Recorded: 1992

La célèbre épopée biblique relatant le meurtre d’Abel par Caïn est connue de tous, mais la mise en scène qu’Alessandro Scarlatti lui a dédiée l’est beaucoup moins. Thème récurant pour les oratorios italiens au XVIIe siècle, le sujet est traité ici à la manière d’une histoire policière. Avec un effectif musical réduit, il nous transporte dans un univers baroque étourdissant. Les accents lyriques sont d’une expressivité rare tandis que l’orchestre, faisant preuve de beaucoup de psychologie, exulte. Par bonheur, la prise de son est à l’avenant. Les divers plans sonores sont respectés avec une très belle transparence et une foule de détails sur les voix et sur les instruments. Le travail de Yolanta Skura nous donne l’impression d’assister à la représentation. Les divers protagonistes sont là, face à nous, le drame se jouant en direct devant nos yeux pétrifiés et notre ouïe magnétisée. Le résultat artistique et technique fait que ce disque est à considérer comme un apport majeur dans la panoplie discographique de tous les audiophiles mélomanes. Un disque incontournable.
–T. HERVÉ

Performer:
Caino - Gloria Banditelli, alto
Abel - Cristina Miatello, soprano
Eva - Marinella Pennicchi, soprano
Adamo - Giampaolo Fagotto, tenor
Vove di Dio - Claudio Cavina, countertenor
Vocr di Lucifero - Roberto Abbondanza, baritone
Concerto Italiano
Rinaldo Alessandrini, direttore
Europa Galante
Fabio Biondi, direttore

Tracklist:
Alessandro Scarlatti (1660-1725)
Cain overo Il Primo Omicidio
CD1:
01. Sinfonia
02. Part 1. Recitativo e aria (Adamo)
03. Part 1. Recitativo e aria (Eva)
04. Part 1. Recitativo e aria (Abel)
05. Part 1. Recitativo e aria (Caino)
06. Part 1. Recitativo e aria (Adamo)
07. Part 1. Recitativo e aria (Eva)
08. Part 1. Recitativo e duo (Abel, Caino)
09. Part 1. Recitativo (Eva, Adamo) / Sinfonia / Recitativo e aria (Voce di Dio)
10. Part 1. Recitativo e duo (Eva, Adamo)
11. Part 1. Recitativo e aria (Voce di Lucifero)
12. Part 1. Recitativo e aria (Caino)
13. Part 1. Recitativo, duo (Abel, Caino)
CD2:
01. Part 2. Recitativo e aria (Caino)
02. Part 2. Aria (Abel) / Recitativo (Abel, Caino)
03. Part 2. Recitativo / Aria (Voce di Dio)
04. Part 2. Recitativo e aria (Caino)
05. Part 2. Recitativo e aria (Voce di Dio)
06. Part 2. Recitativo e aria (Caino)
07. Part 2. Recitativo e aria (Voce di Lucifero)
08. Part 2. Recitativo e aria (Caino)
09. Part 2. Duo (Eva, Adamo)
10. Part 2. Recitativo / Aria (Voce di Abellle)
11. Part 2. Recitativo e aria (Eva)
12. Part 2. Recitativo e aria (Adamo)
13. Part 2. Recitativo / Aria (Adamo, Eva)
14. Part 2. Recitativo e aria (Voce di Dio)
15. Part 2. Recitativo / Duo (Eva, Adamo)


Exact Audio Copy V1.3 from 2. September 2016

EAC extraction logfile from 10. December 2019, 13:21

Fabio Biondi / Alessandro Scarlatti - Cain CD1

Used drive : HL-DT-STBD-RE WH16NS40 Adapter: 1 ID: 0

Read mode : Secure
Utilize accurate stream : Yes
Defeat audio cache : Yes
Make use of C2 pointers : No

Read offset correction : 6
Overread into Lead-In and Lead-Out : No
Fill up missing offset samples with silence : Yes
Delete leading and trailing silent blocks : No
Null samples used in CRC calculations : Yes
Used interface : Native Win32 interface for Win NT & 2000

Used output format : User Defined Encoder
Selected bitrate : 1024 kBit/s
Quality : High
Add ID3 tag : No
Command line compressor : C:\Program Files (x86)\Exact Audio Copy\FLAC\FLAC.EXE
Additional command line options : -6 -V -T "ARTIST=%artist%" -T "TITLE=%title%" -T "ALBUM=%albumtitle%" -T "DATE=%year%" -T "TRACKNUMBER=%tracknr%" -T "GENRE=%genre%" -T "COMMENT=%comment%" -T "BAND=%albuminterpret%" -T "ALBUMARTIST=%albuminterpret%" -T "COMPOSER=%composer%" %haslyrics%–tag-from-file=LYRICS="%lyricsfile%"%haslyrics% -T "DISCNUMBER=%cdnumber%" -T "TOTALDISCS=%totalcds%" -T "TOTALTRACKS=%numtracks%" %hascover%–picture="%coverfile%"%hascover% %source% -o %dest%


TOC of the extracted CD

Track | Start | Length | Start sector | End sector
––––––––––––––––––––––––––––-
1 | 0:00.32 | 3:55.70 | 32 | 17726
2 | 3:56.27 | 3:45.10 | 17727 | 34611
3 | 7:41.37 | 6:58.70 | 34612 | 66031
4 | 14:40.32 | 6:06.25 | 66032 | 93506
5 | 20:46.57 | 2:50.23 | 93507 | 106279
6 | 23:37.05 | 4:18.62 | 106280 | 125691
7 | 27:55.67 | 7:21.20 | 125692 | 158786
8 | 35:17.12 | 4:21.10 | 158787 | 178371
9 | 39:38.22 | 7:54.73 | 178372 | 213994
10 | 47:33.20 | 4:03.37 | 213995 | 232256
11 | 51:36.57 | 4:54.33 | 232257 | 254339
12 | 56:31.15 | 2:03.70 | 254340 | 263634
13 | 58:35.10 | 6:12.37 | 263635 | 291571


Range status and errors

Selected range

Filename C:\Users\Grant\Desktop\Fabio Biondi - Alessandro Scarlatti - Cain CD1.wav

Peak level 100.0 %
Extraction speed 1.8 X
Range quality 100.0 %
Test CRC A0F8E849
Copy CRC A0F8E849
Copy OK

No errors occurred


AccurateRip summary

Track 1 accurately ripped (confidence 7) [70B67E8E] (AR v2)
Track 2 accurately ripped (confidence 7) [0E9DB469] (AR v2)
Track 3 accurately ripped (confidence 7) [A627F795] (AR v2)
Track 4 accurately ripped (confidence 7) [CCBB638E] (AR v2)
Track 5 accurately ripped (confidence 7) [39F6ABA8] (AR v2)
Track 6 accurately ripped (confidence 7) [7BEACAA7] (AR v2)
Track 7 accurately ripped (confidence 7) [6423D5FA] (AR v2)
Track 8 accurately ripped (confidence 7) [3646CAA2] (AR v2)
Track 9 accurately ripped (confidence 7) [F39869E8] (AR v2)
Track 10 accurately ripped (confidence 7) [C695D4F0] (AR v2)
Track 11 accurately ripped (confidence 7) [B356D4D0] (AR v2)
Track 12 accurately ripped (confidence 6) [9564B98A] (AR v2)
Track 13 accurately ripped (confidence 6) [F76377A5] (AR v2)

All tracks accurately ripped

End of status report

–– CUETools DB Plugin V2.1.6

[CTDB TOCID: Vw.J46LsTwW4pJZsCsLX2isEbqA-] found
Submit result: Vw.J46LsTwW4pJZsCsLX2isEbqA- has been confirmed
Track | CTDB Status
1 | (11/11) Accurately ripped
2 | (11/11) Accurately ripped
3 | (11/11) Accurately ripped
4 | (11/11) Accurately ripped
5 | (11/11) Accurately ripped
6 | (11/11) Accurately ripped
7 | (11/11) Accurately ripped
8 | (11/11) Accurately ripped
9 | (11/11) Accurately ripped
10 | (11/11) Accurately ripped
11 | (11/11) Accurately ripped
12 | (11/11) Accurately ripped
13 | (10/11) Accurately ripped


==== Log checksum 7FC1C2B811B9EAE20A6B0F81F558458C0C75D7DE1A7CC537380AB273DE63A44D ====


Exact Audio Copy V1.3 from 2. September 2016

EAC extraction logfile from 10. December 2019, 13:47

Fabio Biondi / Alessandro Scarlatti - Cain CD2

Used drive : HL-DT-STBD-RE WH16NS40 Adapter: 1 ID: 0

Read mode : Secure
Utilize accurate stream : Yes
Defeat audio cache : Yes
Make use of C2 pointers : No

Read offset correction : 6
Overread into Lead-In and Lead-Out : No
Fill up missing offset samples with silence : Yes
Delete leading and trailing silent blocks : No
Null samples used in CRC calculations : Yes
Used interface : Native Win32 interface for Win NT & 2000

Used output format : User Defined Encoder
Selected bitrate : 1024 kBit/s
Quality : High
Add ID3 tag : No
Command line compressor : C:\Program Files (x86)\Exact Audio Copy\FLAC\FLAC.EXE
Additional command line options : -6 -V -T "ARTIST=%artist%" -T "TITLE=%title%" -T "ALBUM=%albumtitle%" -T "DATE=%year%" -T "TRACKNUMBER=%tracknr%" -T "GENRE=%genre%" -T "COMMENT=%comment%" -T "BAND=%albuminterpret%" -T "ALBUMARTIST=%albuminterpret%" -T "COMPOSER=%composer%" %haslyrics%–tag-from-file=LYRICS="%lyricsfile%"%haslyrics% -T "DISCNUMBER=%cdnumber%" -T "TOTALDISCS=%totalcds%" -T "TOTALTRACKS=%numtracks%" %hascover%–picture="%coverfile%"%hascover% %source% -o %dest%


TOC of the extracted CD

Track | Start | Length | Start sector | End sector
––––––––––––––––––––––––––––-
1 | 0:00.32 | 5:42.25 | 32 | 25706
2 | 5:42.57 | 6:04.70 | 25707 | 53076
3 | 11:47.52 | 3:35.00 | 53077 | 69201
4 | 15:22.52 | 3:06.48 | 69202 | 83199
5 | 18:29.25 | 3:03.37 | 83200 | 96961
6 | 21:32.62 | 2:25.45 | 96962 | 107881
7 | 23:58.32 | 3:28.08 | 107882 | 123489
8 | 27:26.40 | 4:51.10 | 123490 | 145324
9 | 32:17.50 | 5:30.40 | 145325 | 170114
10 | 37:48.15 | 3:42.62 | 170115 | 186826
11 | 41:31.02 | 5:30.70 | 186827 | 211646
12 | 47:01.72 | 6:45.03 | 211647 | 242024
13 | 53:47.00 | 4:57.65 | 242025 | 264364
14 | 58:44.65 | 7:41.12 | 264365 | 298951
15 | 66:26.02 | 3:05.18 | 298952 | 312844


Range status and errors

Selected range

Filename C:\Users\Grant\Desktop\Fabio Biondi - Alessandro Scarlatti - Cain CD2.wav

Peak level 100.0 %
Extraction speed 8.2 X
Range quality 99.9 %
Test CRC 325181EF
Copy CRC 325181EF
Copy OK

No errors occurred


AccurateRip summary

Track 1 accurately ripped (confidence 6) [15CD1A1E] (AR v2)
Track 2 accurately ripped (confidence 6) [56EC8867] (AR v2)
Track 3 accurately ripped (confidence 6) [89C62B3E] (AR v2)
Track 4 accurately ripped (confidence 6) [FC35C7BA] (AR v2)
Track 5 accurately ripped (confidence 5) [8AB011A5] (AR v2)
Track 6 accurately ripped (confidence 6) [497B6203] (AR v2)
Track 7 accurately ripped (confidence 5) [75C9E430] (AR v2)
Track 8 accurately ripped (confidence 5) [5853878C] (AR v2)
Track 9 accurately ripped (confidence 6) [1D1DE587] (AR v2)
Track 10 accurately ripped (confidence 6) [CD5F54C8] (AR v2)
Track 11 accurately ripped (confidence 6) [1C0A6D8C] (AR v2)
Track 12 accurately ripped (confidence 5) [20BCFD50] (AR v2)
Track 13 accurately ripped (confidence 6) [2ECF6D3F] (AR v2)
Track 14 accurately ripped (confidence 6) [6DB68D83] (AR v2)
Track 15 accurately ripped (confidence 5) [4DBE53DE] (AR v2)

All tracks accurately ripped

End of status report

–– CUETools DB Plugin V2.1.6

[CTDB TOCID: EIpaoAiG1yOwOqjNOe8miMQrqk0-] found
Submit result: EIpaoAiG1yOwOqjNOe8miMQrqk0- has been confirmed
Track | CTDB Status
1 | (10/11) Accurately ripped
2 | (10/11) Accurately ripped
3 | (10/11) Accurately ripped
4 | (10/11) Accurately ripped
5 | ( 9/11) Accurately ripped
6 | (10/11) Accurately ripped
7 | ( 9/11) Accurately ripped
8 | ( 9/11) Accurately ripped
9 | (10/11) Accurately ripped
10 | (10/11) Accurately ripped
11 | (10/11) Accurately ripped
12 | ( 9/11) Accurately ripped
13 | (10/11) Accurately ripped
14 | (10/11) Accurately ripped
15 | ( 9/11) Accurately ripped


==== Log checksum C1DD11180AAB47351862EDFCF04D4E82F57C227712EEF9301E42D45DA7C7D39A ====

Fabio Biondi, Rinaldo Alessandrini - Alessandro Scarlatti: Cain overo Il Primo Omicidio (1992)

Thanks to the original releaser