Tags
Language
Tags
July 2024
Su Mo Tu We Th Fr Sa
30 1 2 3 4 5 6
7 8 9 10 11 12 13
14 15 16 17 18 19 20
21 22 23 24 25 26 27
28 29 30 31 1 2 3

Eurythmics - Albums Collection 1983-1989 (7CD) [Non-Remastered]

Posted By: Designol
Eurythmics - Albums Collection 1983-1989 (7CD) [Non-Remastered]

Eurythmics - Albums Collection 1983-1989 (7CD)
EAC | FLAC | Image (Cue&Log) ~ 1.96 Gb | Mp3 (CBR320) ~ 823 Mb | Scans included
Genre: New Wave, Pop/Rock, Dance-Rock, Synthpop | Time: 05:34:17

Eurythmics were one of the most successful duos to emerge in the early '80s. Where most of their British synth pop contemporaries disappeared from the charts as soon as new wave faded away in 1984, Eurythmics continued to have hits until the end of the decade, making vocalist Annie Lennox a star in her own right, as well as establishing instrumentalist Dave Stewart as a successful, savvy producer and songwriter. Originally, the duo channelled the eerily detached sound of electronic synthesizer music into pop songs driven by robotic beats. By the mid-'80s, singles like "Sweet Dreams (Are Made of This)" and "Here Comes the Rain Again" had made the group into international stars, and the group had begun to experiment with their sound, delving into soul and R&B. As the decade wore on, the duo's popularity eroded somewhat; by the late '80s, they were having trouble cracking the Top 40 in America, although they stayed successful in the U.K. By the early '90s, Eurythmics had taken an extended hiatus – both Lennox and Stewart pursued solo careers – but they reunited occasionally for recording or tours.

The origins of Eurythmics lay in the Tourists, a British post-punk band of the late '70s formed by Lennox and Stewart. The pair met in London while she was studying at the Royal Academy of Music. Stewart had recently broken up his folk-rock group Longdancer and was writing songs with guitarist Pete Coombes. Immediately after meeting, Stewart and Lennox became lovers and musical partners, forming a group called Catch with Coombes, which quickly evolved into the Tourists in 1979. Though the band only was together for two years, the Tourists released three albums – The Tourists, Reality Effect, and Luminous Basement – which all were moderate hits in England; two of their singles, "I Only Want to Be With You" and "So Good to Be Back Home Again," became Top Ten hits.

During 1980, Lennox and Stewart's romantic relationship dissolved and, along with it, so did the Tourists. Though they were no longer lovers, Lennox and Stewart decided to continue performing together under the name Eurythmics and headed to Germany to record their debut album. Featuring support from various members of Can and Blondie drummer Clem Burke, among others, the duo's debut, In the Garden, was released in 1981 to positive reviews, but weak sales. Following the failure of In the Garden, Stewart set up a home studio and Eurythmics recorded a second album, Sweet Dreams (Are Made of This), which was released in 1983.

"Love Is a Stranger" was the first British single pulled from the album, and it became a minor hit in the fall of 1982, a few months before the LP appeared. The title track was released as a single in the spring, and it rocketed to number two on the U.K. charts; shortly afterward, it climbed to number one on the American charts. "Sweet Dreams (Are Made of This)" was helped enormously by its stylish, androgynous video, which received heavy airplay from MTV, who had only recently become a major influence within the music industry. After "Sweet Dreams," Eurythmics re-released "Love Is a Stranger" and it reached the U.K. Top Ten (number 23 U.S.), beginning a string of hit singles that ran for a year. Touch, the duo's third album, was released toward the end of 1983 and continued their success throughout 1984, spawning the hits "Who's That Girl?" (number three, U.K.; number 21, U.S.), "Right by Your Side" (number ten, U.K.; number 29, U.S.), and "Here Comes the Rain Again" (number eight, U.K.; number four U.S.). During the course of 1984, Annie Lennox's theatrical gender-bending was becoming increasingly notorious, which helped their record sales. At the end of the year, they released the soundtrack for the film adaptation of 1984, which received poor reviews and sales, despite the Top Ten U.K. placing of its single, "Sexcrime (Nineteen Eighty-Four)."

Released in the spring of 1985, Eurythmics' fourth album, Be Yourself Tonight, boasted a tougher, R&B-influenced sound and featured a duet with Aretha Franklin, "Sisters Are Doin' It for Themselves." The duet became one of three hit singles from the album, in addition to "Would I Lie to You?" (number 17, U.K.; number five, U.S.) and "There Must Be an Angel (Playing with My Heart)" (number one, U.K.; number 22, U.S.). Revenge, released the following year, followed the R&B and soul inclinations of Be Yourself Tonight to a harder-rocking conclusion. Though the album peaked at number 12 in the U.S. and spawned the number 14 hit "Missionary Man," its sales were noticeably weaker than its predecessor. In the U.K., the group was slightly more popular – "Thorn in My Side" reached the Top Ten – but it was evident that the group was past the point of its peak popularity.

As appropriate for a group passing their commercial pinnacle, Eurythmics began branching out into other areas. During 1985 and 1986, Dave Stewart produced a number of superstars, including Bob Dylan, Daryl Hall, Tom Petty, and Mick Jagger. Annie Lennox began a short-lived acting career, appearing in Revolution. Eurythmics reconvened in 1987 to release Savage, which was greeted with mixed reviews and weak sales. That same year, Stewart married Siobhan Fahey, a former member of Bananarama who had also appeared in the "Who's That Girl" video; she would later be a member of Shakespear's Sister, which was produced by Stewart. In 1988, Lennox had a hit duet with Al Green with "Put a Little Love in Your Heart," taken from the Scrooged soundtrack. The following year, Eurythmics released We Too Are One, which sold well in Britain, reaching number one, but poorly in America, despite "Don't Ask Me Why" becoming their first Top 40 hit since "Missionary Man." Furthermore, the reviews were decidedly mixed on the album.

Eurythmics quietly went on hiatus as of 1990, releasing Greatest Hits the following year. Lennox began a solo career in 1992, releasing Diva, an album that would eventually sell over two million copies. Stewart continued producing records and writing film soundtracks, as well as forming a band called Spiritual Cowboys. In 1995, he officially launched a solo career with the release of Greetings from the Gutter. Lennox and Stewart re-formed Eurythmics in 1999, releasing Peace, their first new studio album in a decade.

Stephen Thomas Erlewine, Allmusic.com

Eurythmics - Albums Collection 1983-1989 (7CD) [Non-Remastered]

Eurythmics - Albums Collection 1983-1989 (7CD) [Non-Remastered]





Eurythmics - Albums Collection 1983-1989 (7CD) [Non-Remastered]

Eurythmics - Sweet Dreams (Are Made Of This) (1983)
EAC | FLAC | Image (Cue&Log) ~ 253 Mb | Mp3 (CBR320) ~ 108 Mb | Scans included
Label: RCA | # ND 71471 | Time: 00:42:33

Eurythmics' breakthrough album is a deft mix of electronic thrills, new wave chills, and sultry R&B, the latter supplied by Annie Lennox's warm tenor. Pretty much relying on themselves, Lennox and Dave Stewart slip past the music's usual coldness and into a territory all their own. It can be smug (the new wave here is served with a side of irony) and a tad dull (the long, operatic pieces serve little purpose), but the payoffs – "Love Is a Stranger" and, especially, the magnificent title tune – are among the finest the genre has to offer.

Review by Michael Gallucci, Allmusic.com

Tracklist:

01. Love Is A Stranger (03:43)
02. I've Got An Angel (02:45)
03. Wrap It Up (03:33)
04. I Could Give You (A Mirror) (03:50)
05. The Walk (04:42)
06. Sweet Dreams (Are Made Of This) (03:37)
07. Jennifer (05:08)
08. This Is The House (05:00)
09. Somebody Told Me (03:29)
10. This City Never Sleeps (06:40)


Exact Audio Copy V1.0 beta 3 from 29. August 2011

EAC extraction logfile from 7. July 2013, 21:39

Eurythmics / Sweet Dreams (Are Made Of This)

Used drive : TSSTcorpCD/DVDW TS-L632D Adapter: 0 ID: 0

Read mode : Secure
Utilize accurate stream : Yes
Defeat audio cache : Yes
Make use of C2 pointers : No

Read offset correction : 6
Overread into Lead-In and Lead-Out : No
Fill up missing offset samples with silence : Yes
Delete leading and trailing silent blocks : No
Null samples used in CRC calculations : Yes
Used interface : Native Win32 interface for Win NT & 2000

Used output format : User Defined Encoder
Selected bitrate : 896 kBit/s
Quality : High
Add ID3 tag : No
Command line compressor : C:\Program Files (x86)\Exact Audio Copy\Flac\flac.exe
Additional command line options : -8 -V -T "Date=%year%" -T "Genre=%genre%" -T "COMMENT=ripped by sewerok®" %source%


TOC of the extracted CD

Track | Start | Length | Start sector | End sector
––––––––––––––––––––––––––––-
1 | 0:00.33 | 3:43.35 | 33 | 16792
2 | 3:43.68 | 2:45.30 | 16793 | 29197
3 | 6:29.23 | 3:34.10 | 29198 | 45257
4 | 10:03.33 | 3:50.45 | 45258 | 62552
5 | 13:54.03 | 4:42.62 | 62553 | 83764
6 | 18:36.65 | 3:37.10 | 83765 | 100049
7 | 22:14.00 | 5:09.13 | 100050 | 123237
8 | 27:23.13 | 5:01.12 | 123238 | 145824
9 | 32:24.25 | 3:29.48 | 145825 | 161547
10 | 35:53.73 | 6:40.12 | 161548 | 191559


Range status and errors

Selected range

Filename G:\Eurythmics - Sweet Dreams (Are Made Of This) [1983](RCA ND71471 Germany)\Eurythmics - Sweet Dreams (Are Made Of This).wav

Peak level 89.8 %
Extraction speed 1.7 X
Range quality 100.0 %
Test CRC 0CAC045F
Copy CRC 0CAC045F
Copy OK

No errors occurred


AccurateRip summary

Track 1 accurately ripped (confidence 14) [1C6497FA] (AR v2)
Track 2 accurately ripped (confidence 13) [728918FD] (AR v2)
Track 3 accurately ripped (confidence 13) [C8BA59CD] (AR v2)
Track 4 accurately ripped (confidence 13) [2CBE0269] (AR v2)
Track 5 accurately ripped (confidence 13) [DAAA39A3] (AR v2)
Track 6 accurately ripped (confidence 13) [D7596057] (AR v2)
Track 7 accurately ripped (confidence 13) [7F407E4D] (AR v2)
Track 8 accurately ripped (confidence 13) [048A9AB4] (AR v2)
Track 9 accurately ripped (confidence 13) [D8C92E4A] (AR v2)
Track 10 accurately ripped (confidence 13) [0006C270] (AR v2)

All tracks accurately ripped

End of status report

==== Log checksum 5902148BAD592A88C2BD2E3D26DA3A86C512636029B4EBC0C478E21D99D70096 ====

foobar2000 1.2 / Dynamic Range Meter 1.1.1
log date: 2014-01-17 21:35:40

––––––––––––––––––––––––––––––––––––––––
Analyzed: Eurythmics / Sweet Dreams (Are Made Of This)
––––––––––––––––––––––––––––––––––––––––

DR Peak RMS Duration Track
––––––––––––––––––––––––––––––––––––––––
DR12 -1.42 dB -16.16 dB 3:43 01-Love Is A Stranger
DR13 -1.30 dB -17.26 dB 2:45 02-I've Got An Angel
DR13 -1.34 dB -16.35 dB 3:34 03-Wrap It Up
DR12 -2.74 dB -16.33 dB 3:51 04-I Could Give You (A Mirror)
DR12 -1.66 dB -16.96 dB 4:43 05-The Walk
DR13 -1.68 dB -16.48 dB 3:37 06-Sweet Dreams (Are Made Of This)
DR14 -2.83 dB -19.53 dB 5:09 07-Jennifer
DR12 -0.93 dB -15.67 dB 5:01 08-This Is The House
DR14 -1.92 dB -18.20 dB 3:30 09-Somebody Told Me
DR15 -1.25 dB -18.54 dB 6:40 10-This City Never Sleeps
––––––––––––––––––––––––––––––––––––––––

Number of tracks: 10
Official DR value: DR13

Samplerate: 44100 Hz
Channels: 2
Bits per sample: 16
Bitrate: 793 kbps
Codec: FLAC
================================================================================

Eurythmics - Albums Collection 1983-1989 (7CD) [Non-Remastered]

Eurythmics - Albums Collection 1983-1989 (7CD) [Non-Remastered]




Eurythmics - Albums Collection 1983-1989 (7CD) [Non-Remastered]

Eurythmics - Touch (1983) Germany 1st Press
EAC | FLAC | Image (Cue&Log) ~ 281 Mb | Mp3 (CBR320) ~ 130 Mb | Scans included
Label: RCA | # PD 70109 | Time: 00:45:37

Eurythmics followed their 1982 breakthrough album Sweet Dreams with the superior Touch, which yielded three hit singles and kept the innovative duo at the forefront of the 1980s British new wave explosion and MTV phenomenon. Mixing cold, hard, synthesized riffs with warm, luscious vocals, the duo crafted some of the most unique and trendsetting music the 1980s had to offer. Subsequent albums found the duo leaning heavier toward straightforward rock – this album found them at the height of their electronic incarnation. The lead single, "Here Comes the Rain Again," is a melodramatic opus, complete with pre-techno beats, sweeping strings, and Annie Lennox' rushing, cool vocals. The soulful "Who's That Girl" is an icy, steamy throwback to the torch songs of yesteryear, with Lennox oozing sensuality from every syllable emitted from her lips. The final hit, "Right by Your Side," finds the duo in a cheerful, Caribbean-inspired mode. Other standouts include the seven-and-a-half-minute disco trance of "Paint a Rumour," the driving "The First Cut," and the icy, spellbinding, and sparse "No Fear No Hate No Pain (No Broken Hearts)." The cool, sophisticated musical experimentalism all over Touch cemented Eurythmics' reputation as one of the most innovative duos of their time; the hit singles solidified their reputation as dependable 1980s hitmakers and MTV mainstays. Touch is a testament to what Eurythmics were at the height of their electronic-techno phase and, without doubt, is a milestone in 1980s pop music.

Review by Jose F. Promis, Allmusic.com

Tracklist:

01. Here Comes The Rain Again (04:54)
02. Regrets (04:43)
03. Right By Your Side (04:04)
04. Cool Blue (04:48)
05. Who's That Girl (04:46)
06. The First Cut (04:45)
07. Aqua (04:37)
08. No Fear, No Hate, No Pain (No Broken Hearts) (05:21)
09. Paint A Rumour (07:35)


Exact Audio Copy V1.0 beta 3 from 29. August 2011

EAC extraction logfile from 5. May 2013, 16:36

Eurythmics / Touch

Used drive : SlimtypeBD E DS4E1S Adapter: 0 ID: 1

Read mode : Secure
Utilize accurate stream : Yes
Defeat audio cache : Yes
Make use of C2 pointers : No

Read offset correction : 6
Overread into Lead-In and Lead-Out : No
Fill up missing offset samples with silence : Yes
Delete leading and trailing silent blocks : No
Null samples used in CRC calculations : Yes
Used interface : Native Win32 interface for Win NT & 2000

Used output format : User Defined Encoder
Selected bitrate : 896 kBit/s
Quality : High
Add ID3 tag : No
Command line compressor : C:\Program Files (x86)\Exact Audio Copy\Flac\flac.exe
Additional command line options : -8 -V -T "Date=%year%" -T "Genre=%genre%" -T "COMMENT=ripped by sewerok®" %source%


TOC of the extracted CD

Track | Start | Length | Start sector | End sector
––––––––––––––––––––––––––––-
1 | 0:00.33 | 4:54.22 | 33 | 22104
2 | 4:54.55 | 4:43.43 | 22105 | 43372
3 | 9:38.23 | 4:04.47 | 43373 | 61719
4 | 13:42.70 | 4:48.48 | 61720 | 83367
5 | 18:31.43 | 4:46.20 | 83368 | 104837
6 | 23:17.63 | 4:45.60 | 104838 | 126272
7 | 28:03.48 | 4:37.15 | 126273 | 147062
8 | 32:40.63 | 5:21.15 | 147063 | 171152
9 | 38:02.03 | 7:35.02 | 171153 | 205279


Range status and errors

Selected range

Filename E:\Eurythmics - Touch [1983]\Eurythmics - Touch.wav

Peak level 92.6 %
Extraction speed 4.2 X
Range quality 100.0 %
Test CRC 9AFED94F
Copy CRC 9AFED94F
Copy OK

No errors occurred


AccurateRip summary

Track 1 accurately ripped (confidence 14) [29D5852B] (AR v2)
Track 2 accurately ripped (confidence 14) [1A173C03] (AR v2)
Track 3 accurately ripped (confidence 14) [CA7140AC] (AR v2)
Track 4 accurately ripped (confidence 14) [D27BDE54] (AR v2)
Track 5 accurately ripped (confidence 14) [55CAFCA6] (AR v2)
Track 6 accurately ripped (confidence 14) [B75A955F] (AR v2)
Track 7 accurately ripped (confidence 14) [26E09BF2] (AR v2)
Track 8 accurately ripped (confidence 13) [7E7F8721] (AR v2)
Track 9 accurately ripped (confidence 14) [824E3BCE] (AR v2)

All tracks accurately ripped

End of status report

==== Log checksum D373DE396CFA46CCF97A68B142BD0702359FB20870EDFCB35967923D5AC44E89 ====

foobar2000 1.2 / Dynamic Range Meter 1.1.1
log date: 2013-05-12 21:42:26

––––––––––––––––––––––––––––––––––––––––
Analyzed: Eurythmics / Touch
––––––––––––––––––––––––––––––––––––––––

DR Peak RMS Duration Track
––––––––––––––––––––––––––––––––––––––––
DR14 -2.29 dB -18.48 dB 4:54 01-Here Comes The Rain Again
DR16 -0.66 dB -19.88 dB 4:44 02-Regrets
DR14 -2.55 dB -18.83 dB 4:05 03-Right By Your Side
DR15 -3.25 dB -20.52 dB 4:49 04-Cool Blue
DR14 -4.21 dB -21.21 dB 4:46 05-Who's That Girl
DR14 -2.75 dB -18.81 dB 4:46 06-The First Cut
DR14 -3.54 dB -19.90 dB 4:37 07-Aqua
DR13 -2.57 dB -18.65 dB 5:21 08-No Fear, No Hate, No Pain (No Broken Hearts)
DR14 -2.79 dB -18.72 dB 7:35 09-Paint A Rumour
––––––––––––––––––––––––––––––––––––––––

Number of tracks: 9
Official DR value: DR14

Samplerate: 44100 Hz
Channels: 2
Bits per sample: 16
Bitrate: 780 kbps
Codec: FLAC
================================================================================

Eurythmics - Albums Collection 1983-1989 (7CD) [Non-Remastered]

Eurythmics - Albums Collection 1983-1989 (7CD) [Non-Remastered]




Eurythmics - Albums Collection 1983-1989 (7CD) [Non-Remastered]

Eurythmics - 1984 (For The Love Of Big Brother) (1984)
EAC | FLAC | Image (Cue&Log) ~ 222 Mb | Mp3 (CBR320) ~ 95 Mb | Scans included
Label: Virgin | # CDV 1984 | Time: 00:39:09

Annie Lennox and David A. Stewart were commissioned to score the 1984 film adaptation of George Orwell's classic masterpiece. Most tracks are instrumentals, but this soundtrack yielded two UK singles for the duo: "Sexcrime (1984)" was quite popular on mid-80s dance floors and the ballad "Julia" is named for protagonist Winston's lover and the heroine of the story.

While it is not billed as an Original Motion Picture Soundtrack, this album does contain, as a jacket note indicates, "music derived from Eurythmics." The original score of the motion picture 1984, it was treated as a side project for marketing purposes, not as Eurythmics' full-fledged fourth new studio album. Fair enough. Much of the album is instrumental, and the closest thing to a pop song, "Sexcrime (Nineteen Eighty-Four)" (which was a Top Ten hit in the U.K.), like the other vocal numbers, relates to the movie's future fiction theme. As such, the album is substandard if judged as an independent Eurythmics album, adequate if judged as a soundtrack

Review by William Ruhlmann, Allmusic.com

Tracklist:

01. I Did It Just The Same (03:28)
02. Sexcrime (Nineteen Eighty-Four) (03:59)
03. For The Love Of Big Brother (05:05)
04. Winston's Diary (01:22)
05. Greetings From A Dead Man (06:13)
06. Julia (06:40)
07. Doubleplusgood (04:40)
08. Ministry Of Love (03:47)
09. Room 101 (03:50)


Exact Audio Copy V1.0 beta 3 from 29. August 2011

EAC extraction logfile from 8. December 2012, 19:30

Eurythmics / 1984 (For The Love Of Big Brother)

Used drive : TSSTcorpCD/DVDW TS-L632D Adapter: 0 ID: 0

Read mode : Secure
Utilize accurate stream : Yes
Defeat audio cache : Yes
Make use of C2 pointers : No

Read offset correction : 6
Overread into Lead-In and Lead-Out : No
Fill up missing offset samples with silence : Yes
Delete leading and trailing silent blocks : No
Null samples used in CRC calculations : Yes
Used interface : Native Win32 interface for Win NT & 2000

Used output format : User Defined Encoder
Selected bitrate : 896 kBit/s
Quality : High
Add ID3 tag : No
Command line compressor : C:\Program Files (x86)\Exact Audio Copy\Flac\flac.exe
Additional command line options : -8 -V -T "Date=%year%" -T "Genre=%genre%" -T "COMMENT=ripped by sewerok®" %source%


TOC of the extracted CD

Track | Start | Length | Start sector | End sector
––––––––––––––––––––––––––––-
1 | 0:00.33 | 3:28.62 | 33 | 15694
2 | 3:29.20 | 3:59.03 | 15695 | 33622
3 | 7:28.23 | 5:05.62 | 33623 | 56559
4 | 12:34.10 | 1:22.05 | 56560 | 62714
5 | 13:56.15 | 6:13.73 | 62715 | 90762
6 | 20:10.13 | 6:40.52 | 90763 | 120814
7 | 26:50.65 | 4:40.25 | 120815 | 141839
8 | 31:31.15 | 3:48.00 | 141840 | 158939
9 | 35:19.15 | 3:50.15 | 158940 | 176204


Range status and errors

Selected range

Filename G:\Eurythmics - 1984 (For The Love Of Big Brother) [1984]\Eurythmics - 1984 (For The Love Of Big Brother).wav

Peak level 91.4 %
Extraction speed 1.6 X
Range quality 99.9 %
Test CRC B0542FFB
Copy CRC B0542FFB
Copy OK

No errors occurred


AccurateRip summary

Track 1 accurately ripped (confidence 2) [5E5BC4CD] (AR v2)
Track 2 accurately ripped (confidence 2) [97167966] (AR v2)
Track 3 accurately ripped (confidence 2) [FF548487] (AR v2)
Track 4 accurately ripped (confidence 2) [C69682A1] (AR v2)
Track 5 accurately ripped (confidence 2) [70F6A1CB] (AR v2)
Track 6 accurately ripped (confidence 2) [40B568C1] (AR v2)
Track 7 accurately ripped (confidence 2) [6561149F] (AR v2)
Track 8 accurately ripped (confidence 2) [61E71562] (AR v2)
Track 9 accurately ripped (confidence 2) [0A706D37] (AR v2)

All tracks accurately ripped

End of status report

==== Log checksum FE3255E5847AA61BD6FD53E4A7C074B1C235D4F8CA6819C753E26AB5B40A4F61 ====

foobar2000 1.2 / Dynamic Range Meter 1.1.1
log date: 2016-10-20 03:16:14

––––––––––––––––––––––––––––––––––––––––
Analyzed: Eurythmics / 1984 (For The Love Of Big Brother)
––––––––––––––––––––––––––––––––––––––––

DR Peak RMS Duration Track
––––––––––––––––––––––––––––––––––––––––
DR16 -0.77 dB -19.36 dB 3:29 01-I Did It Just The Same
DR11 -1.66 dB -16.01 dB 3:59 02-Sexcrime (Nineteen Eighty-Four)
DR13 -1.68 dB -16.79 dB 5:06 03-For The Love Of Big Brother
DR10 -9.52 dB -23.65 dB 1:22 04-Winston's Diary
DR12 -5.82 dB -19.66 dB 6:14 05-Greetings From A Dead Man
DR12 -7.13 dB -23.26 dB 6:41 06-Julia
DR12 -1.52 dB -16.22 dB 4:40 07-Doubleplusgood
DR11 -2.74 dB -16.78 dB 3:48 08-Ministry Of Love
DR11 -0.90 dB -15.84 dB 3:50 09-Room 101
––––––––––––––––––––––––––––––––––––––––

Number of tracks: 9
Official DR value: DR12

Samplerate: 44100 Hz
Channels: 2
Bits per sample: 16
Bitrate: 773 kbps
Codec: FLAC
================================================================================

Eurythmics - Albums Collection 1983-1989 (7CD) [Non-Remastered]

Eurythmics - Albums Collection 1983-1989 (7CD) [Non-Remastered]




Eurythmics - Albums Collection 1983-1989 (7CD) [Non-Remastered]

Eurythmics - Be Yourself Tonight (1985)
EAC | FLAC | Image (Cue&Log) ~ 309 Mb | Mp3 (CBR320) ~ 121 Mb | Scans included
Label: RCA | # PD 70711 | Time: 00:43:38

On Be Yourself Tonight, Eurythmics' most commercially successful and hit-laden album, the duo meticulously blended the new wave electronic elements that dominated their previous sets with the harder straight-edged rock and soul that would dominate later sets to come up with a near-perfect pop album. This disc scored no less than four hit singles and kept them a mainstay on MTV's play lists during the channel's heyday. Fusing pop, soul, rock, electronic beats, and even gospel, this is arguably the duo's finest moment. The first hit, "Would I Lie to You," is a straight-forward rocker, complete with great guitar licks, a soulful horn section, and Annie Lennox sounding as vicious and vivacious as ever. The second single, which was a huge chart topper in Europe, "There Must Be an Angel," is nothing short of shimmering beauty, with Lennox providing truly angelic vocals and Stevie Wonder lending an enchanting harmonica solo. Aretha Franklin lends her powerhouse pipes for the duet "Sisters Are Doin' It for Themselves," which has gone on to become an immortal feminist anthem. From the soulful electronic beats (a rarity) in "It's Alright (Baby's Coming Back)" to the beauty of the Elvis Costello duet "Adrian" to the pain and longing of the sorrowful rocker "Better to Have Lost in Love (Than Never to Have Loved at All)," this album runs a wide array of musical styles, each song standing tall on its own two feet. This disc is, without a doubt, one of the best rock/pop albums from the 1980s and one of the grandest, most creative albums delivered by the ever-appealing and innovative duo of Annie Lennox and Dave Stewart. A true classic.

Review by Jose F. Promis, Allmusic.com

Tracklist:

01. Would I Lie To You? (04:29)
02. There Must Be An Angel (Playing With My Heart) (05:24)
03. I Love You Like A Ball And Chain (04:05)
04. Sisters Are Doin' It For Themselves (05:58)
05. Conditioned Soul (04:28)
06. Adrian (04:34)
07. It's Alright - (Baby's Coming Back) (03:49)
08. Here Comes That Sinking Feeling (05:40)
09. Better To Have Lost In Love (Than Never To Have Loved At All) (05:07)


Exact Audio Copy V1.0 beta 3 from 29. August 2011

EAC extraction logfile from 12. July 2013, 19:16

Eurythmics / Be Yourself Tonight

Used drive : TSSTcorpCD/DVDW TS-L632D Adapter: 0 ID: 0

Read mode : Secure
Utilize accurate stream : Yes
Defeat audio cache : Yes
Make use of C2 pointers : No

Read offset correction : 6
Overread into Lead-In and Lead-Out : No
Fill up missing offset samples with silence : Yes
Delete leading and trailing silent blocks : No
Null samples used in CRC calculations : Yes
Used interface : Native Win32 interface for Win NT & 2000

Used output format : User Defined Encoder
Selected bitrate : 896 kBit/s
Quality : High
Add ID3 tag : No
Command line compressor : C:\Program Files (x86)\Exact Audio Copy\Flac\flac.exe
Additional command line options : -8 -V -T "Date=%year%" -T "Genre=%genre%" -T "COMMENT=ripped by sewerok®" %source%


TOC of the extracted CD

Track | Start | Length | Start sector | End sector
––––––––––––––––––––––––––––-
1 | 0:00.32 | 4:29.40 | 32 | 20246
2 | 4:29.72 | 5:24.45 | 20247 | 44591
3 | 9:54.42 | 4:05.18 | 44592 | 62984
4 | 13:59.60 | 5:58.57 | 62985 | 89891
5 | 19:58.42 | 4:28.48 | 89892 | 110039
6 | 24:27.15 | 4:34.52 | 110040 | 130641
7 | 29:01.67 | 3:48.70 | 130642 | 147811
8 | 32:50.62 | 5:40.20 | 147812 | 173331
9 | 38:31.07 | 5:07.10 | 173332 | 196366


Range status and errors

Selected range

Filename E:\Eurythmics - Be Yourself Tonight [1985](RCA PD 70711 Germany)\Eurythmics - Be Yourself Tonight.wav

Peak level 88.8 %
Extraction speed 1.7 X
Range quality 100.0 %
Test CRC DF44F067
Copy CRC DF44F067
Copy OK

No errors occurred


AccurateRip summary

Track 1 accurately ripped (confidence 16) [381EB802] (AR v2)
Track 2 accurately ripped (confidence 16) [D306EC27] (AR v2)
Track 3 accurately ripped (confidence 16) [AA0AC495] (AR v2)
Track 4 accurately ripped (confidence 16) [0B7FBBBD] (AR v2)
Track 5 accurately ripped (confidence 16) [6785EDC5] (AR v2)
Track 6 accurately ripped (confidence 16) [A393F1A4] (AR v2)
Track 7 accurately ripped (confidence 16) [BFC06963] (AR v2)
Track 8 accurately ripped (confidence 16) [26136048] (AR v2)
Track 9 accurately ripped (confidence 16) [822D84B0] (AR v2)

All tracks accurately ripped

End of status report

==== Log checksum 9765E44EACC7AAD8C8086F227ED164169A0D090C65B9A4805868B8AE306B8BD6 ====

foobar2000 1.2 / Dynamic Range Meter 1.1.1
log date: 2014-01-16 17:51:02

––––––––––––––––––––––––––––––––––––––––
Analyzed: Eurythmics / Be Yourself Tonight
––––––––––––––––––––––––––––––––––––––––

DR Peak RMS Duration Track
––––––––––––––––––––––––––––––––––––––––
DR12 -1.32 dB -14.59 dB 4:30 01-Would I Lie To You?
DR12 -2.66 dB -16.15 dB 5:25 02-There Must Be An Angel (Playing With My Heart)
DR12 -1.87 dB -16.42 dB 4:05 03-I Love You Like A Ball And Chain
DR13 -1.03 dB -16.56 dB 5:59 04-Sisters Are Doin' It For Themselves
DR13 -2.46 dB -18.42 dB 4:29 05-Conditioned Soul
DR12 -3.90 dB -17.81 dB 4:35 06-Adrian
DR12 -3.34 dB -17.62 dB 3:49 07-It's Alright - (Baby's Coming Back)
DR12 -2.36 dB -16.89 dB 5:40 08-Here Comes That Sinking Feeling
DR12 -2.81 dB -16.31 dB 5:07 09-Better To Have Lost In Love (Than Never To Have Loved At All)
––––––––––––––––––––––––––––––––––––––––

Number of tracks: 9
Official DR value: DR12

Samplerate: 44100 Hz
Channels: 2
Bits per sample: 16
Bitrate: 870 kbps
Codec: FLAC
================================================================================

Eurythmics - Albums Collection 1983-1989 (7CD) [Non-Remastered]

Eurythmics - Albums Collection 1983-1989 (7CD) [Non-Remastered]




Eurythmics - Albums Collection 1983-1989 (7CD) [Non-Remastered]

Eurythmics - Revenge (1986)
EAC | FLAC | Image (Cue&Log) ~ 309 Mb | Mp3 (CBR320) ~ 124 Mb | Scans included
Label: RCA | # PD 71050 | Time: 00:44:09

On their fifth album, Eurythmics moved away from the austere synth-pop of their previous work and toward more of a neo-'60s pop/rock stance. "Missionary Man" (which went Top 40 as a single in the U.S. and charted in the U.K.) featured a prominent harmonica solo, while "Thorn in My Side" had a chiming guitar riff reminiscent of the Searchers and a fat sax solo. Of course, the primary element in the group's sound remained Annie Lennox's distinctive alto voice, which was still impressive even if the material was slightly less so. Revenge was a successful album, reaching the Top Ten in the U.K. and going gold in the U.S., but it was a disappointment compared to their last three albums. And creatively, it was a step down as well – there was nothing here that they hadn't done a little better before.

Review by William Ruhlmann, Allmusic.com

Tracklist:

01. Missionary Man (04:29)
02. Thorn In My Side (04:14)
03. When Tomorrow Comes (04:29)
04. The Last Time (04:11)
05. The Miracle Of Love (05:05)
06. Lets Go! (04:11)
07. Take Your Pain Away (04:35)
08. A Little Of You (03:55)
09. In This Town (03:43)
10. I Remember You (05:02)


Exact Audio Copy V1.0 beta 3 from 29. August 2011

EAC extraction logfile from 4. August 2013, 18:40

Eurythmics / Revenge

Used drive : TSSTcorpCD/DVDW TS-L632D Adapter: 0 ID: 0

Read mode : Secure
Utilize accurate stream : Yes
Defeat audio cache : Yes
Make use of C2 pointers : No

Read offset correction : 6
Overread into Lead-In and Lead-Out : No
Fill up missing offset samples with silence : Yes
Delete leading and trailing silent blocks : No
Null samples used in CRC calculations : Yes
Used interface : Native Win32 interface for Win NT & 2000

Used output format : User Defined Encoder
Selected bitrate : 896 kBit/s
Quality : High
Add ID3 tag : No
Command line compressor : C:\Program Files (x86)\Exact Audio Copy\Flac\flac.exe
Additional command line options : -8 -V -T "Date=%year%" -T "Genre=%genre%" -T "COMMENT=ripped by sewerok®" %source%


TOC of the extracted CD

Track | Start | Length | Start sector | End sector
––––––––––––––––––––––––––––-
1 | 0:00.33 | 4:29.67 | 33 | 20274
2 | 4:30.25 | 4:14.60 | 20275 | 39384
3 | 8:45.10 | 4:31.20 | 39385 | 59729
4 | 13:16.30 | 4:14.55 | 59730 | 78834
5 | 17:31.10 | 5:06.43 | 78835 | 101827
6 | 22:37.53 | 4:13.15 | 101828 | 120817
7 | 26:50.68 | 4:36.27 | 120818 | 141544
8 | 31:27.20 | 3:56.08 | 141545 | 159252
9 | 35:23.28 | 3:43.45 | 159253 | 176022
10 | 39:06.73 | 5:02.15 | 176023 | 198687


Range status and errors

Selected range

Filename E:\Eurythmics - Revenge [1986](RCA PD 71050 Germany)\Eurythmics - Revenge.wav

Peak level 100.0 %
Extraction speed 1.7 X
Range quality 100.0 %
Test CRC B7945E27
Copy CRC B7945E27
Copy OK

No errors occurred


AccurateRip summary

Track 1 accurately ripped (confidence 58) [C00EFC3C] (AR v2)
Track 2 accurately ripped (confidence 58) [1B9D95D9] (AR v2)
Track 3 accurately ripped (confidence 58) [0E7F61CC] (AR v2)
Track 4 accurately ripped (confidence 58) [C375EE77] (AR v2)
Track 5 accurately ripped (confidence 58) [369C9EEF] (AR v2)
Track 6 accurately ripped (confidence 58) [2CB828E2] (AR v2)
Track 7 accurately ripped (confidence 57) [751877DE] (AR v2)
Track 8 accurately ripped (confidence 58) [027A0482] (AR v2)
Track 9 accurately ripped (confidence 58) [CB8E055E] (AR v2)
Track 10 accurately ripped (confidence 57) [7F3B71B9] (AR v2)

All tracks accurately ripped

End of status report

==== Log checksum ACD88EEF7BBC8DAAE3A562196BBCD3E0BE878B415A6F8FA0E0F25D64EDD3AD37 ====

foobar2000 1.2 / Dynamic Range Meter 1.1.1
log date: 2014-01-17 21:35:22

––––––––––––––––––––––––––––––––––––––––
Analyzed: Eurythmics / Revenge
––––––––––––––––––––––––––––––––––––––––

DR Peak RMS Duration Track
––––––––––––––––––––––––––––––––––––––––
DR13 -0.57 dB -16.62 dB 4:30 01-Missionary Man
DR14 -0.33 dB -16.04 dB 4:15 02-Thorn In My Side
DR11 -1.35 dB -14.39 dB 4:31 03-When Tomorrow Comes
DR14 0.00 dB -16.71 dB 4:15 04-The Last Time
DR13 -0.55 dB -16.83 dB 5:07 05-The Miracle Of Love
DR13 -0.81 dB -16.11 dB 4:13 06-Lets Go!
DR13 0.00 dB -16.05 dB 4:36 07-Take Your Pain Away
DR13 0.00 dB -14.88 dB 3:56 08-A Little Of You
DR13 -0.86 dB -16.30 dB 3:44 09-In This Town
DR12 -1.09 dB -16.88 dB 5:02 10-I Remember You
––––––––––––––––––––––––––––––––––––––––

Number of tracks: 10
Official DR value: DR13

Samplerate: 44100 Hz
Channels: 2
Bits per sample: 16
Bitrate: 904 kbps
Codec: FLAC
================================================================================

Eurythmics - Albums Collection 1983-1989 (7CD) [Non-Remastered]

Eurythmics - Albums Collection 1983-1989 (7CD) [Non-Remastered]




Eurythmics - Albums Collection 1983-1989 (7CD) [Non-Remastered]

Eurythmics - Savage (1987)
EAC | FLAC | Tracks (Cue&Log) ~ 326 Mb | Mp3 (CBR320) ~ 121 Mb | Scans included
Label: RCA | # PD 71555 | Time: 00:47:39

Beethoven-lover as Neiman-Marcus girl, trans-Asiatic jilt, real live pseudoferal yowl announcing the cock-crazy "I Need a Man," synthesized pseudorathskeller clink-and-chatter punctuating the sarcasm-crazy "I Need You"–this record peaks so high that I tried to ignore all the in-between. It's there, though–medium tempo romantic-as-in-movement pseudoschlock, edgier than their worst but not so's it cuts much ice.

Review by Robert Christgau

Tracklist:

01. Beethoven (I Love To Listen To) (04:50)
02. I've Got A Lover (Back In Japan) (04:27)
03. Do You Want To Break Up? (03:39)
04. You Have Placed A Chill In My Heart (03:52)
05. Shame (04:25)
06. Savage (04:10)
07. I Need A Man (04:23)
08. Put The Blame On Me (03:45)
09. Heaven (03:28)
10. Wide Eyed Girl (03:28)
11. I Need You (03:23)
12. Brand New Day (03:42)


Exact Audio Copy V1.0 beta 1 from 15. November 2010

EAC extraction logfile from 2. September 2013, 14:52

Eurythmics / Savage

Used drive : ASUS DRW-20B1LT Adapter: 1 ID: 1

Read mode : Secure
Utilize accurate stream : Yes
Defeat audio cache : Yes
Make use of C2 pointers : No

Read offset correction : 6
Overread into Lead-In and Lead-Out : No
Fill up missing offset samples with silence : Yes
Delete leading and trailing silent blocks : No
Null samples used in CRC calculations : Yes
Used interface : Native Win32 interface for Win NT & 2000
Gap handling : Appended to previous track

Used output format : User Defined Encoder
Selected bitrate : 320 kBit/s
Quality : High
Add ID3 tag : No
Command line compressor : C:\Program Files\FLAC\flac.exe
Additional command line options : -8 -V -T "ARTIST=%a" -T "TITLE=%t" -T "ALBUM=%g" -T "DATE=%y" -T "TRACKNUMBER=%n" -T "GENRE=%m" -T "COMMENT=EAC FLAC -8" %s


TOC of the extracted CD

Track | Start | Length | Start sector | End sector
––––––––––––––––––––––––––––-
1 | 0:00.33 | 4:50.15 | 33 | 21797
2 | 4:50.48 | 4:27.05 | 21798 | 41827
3 | 9:17.53 | 3:39.65 | 41828 | 58317
4 | 12:57.43 | 3:52.37 | 58318 | 75754
5 | 16:50.05 | 4:25.38 | 75755 | 95667
6 | 21:15.43 | 4:10.47 | 95668 | 114464
7 | 25:26.15 | 4:23.60 | 114465 | 134249
8 | 29:50.00 | 3:45.33 | 134250 | 151157
9 | 33:35.33 | 3:28.27 | 151158 | 166784
10 | 37:03.60 | 3:28.63 | 166785 | 182447
11 | 40:32.48 | 3:23.70 | 182448 | 197742
12 | 43:56.43 | 3:42.65 | 197743 | 214457


Track 1

Filename K:\EACrips\Eurythmics - Savage\01 - Beethoven (I Love To Listen To).wav

Pre-gap length 0:00:02.33

Peak level 95.6 %
Extraction speed 3.0 X
Track quality 99.9 %
Test CRC DF0FD1EF
Copy CRC DF0FD1EF
Accurately ripped (confidence 36) [E1946EDA]
Copy OK

Track 2

Filename K:\EACrips\Eurythmics - Savage\02 - I've Got A Lover (Back In Japan).wav

Pre-gap length 0:00:01.10

Peak level 92.3 %
Extraction speed 3.9 X
Track quality 100.0 %
Test CRC 579DD328
Copy CRC 579DD328
Accurately ripped (confidence 36) [B96A05E2]
Copy OK

Track 3

Filename K:\EACrips\Eurythmics - Savage\03 - Do You Want To Break Up.wav

Pre-gap length 0:00:01.00

Peak level 85.9 %
Extraction speed 4.2 X
Track quality 100.0 %
Test CRC 38EC0B40
Copy CRC 38EC0B40
Accurately ripped (confidence 36) [B6B3B9EE]
Copy OK

Track 4

Filename K:\EACrips\Eurythmics - Savage\04 - You Have Placed A Chill In My Heart.wav

Pre-gap length 0:00:01.00

Peak level 99.9 %
Extraction speed 4.5 X
Track quality 100.0 %
Test CRC 78D1366C
Copy CRC 78D1366C
Accurately ripped (confidence 36) [756BF6D0]
Copy OK

Track 5

Filename K:\EACrips\Eurythmics - Savage\05 - Shame.wav

Pre-gap length 0:00:01.00

Peak level 93.5 %
Extraction speed 4.8 X
Track quality 100.0 %
Test CRC 4FD730A6
Copy CRC 4FD730A6
Accurately ripped (confidence 36) [6DC3EAA8]
Copy OK

Track 6

Filename K:\EACrips\Eurythmics - Savage\06 - Savage.wav

Pre-gap length 0:00:01.20

Peak level 92.9 %
Extraction speed 5.1 X
Track quality 100.0 %
Test CRC C22E4711
Copy CRC C22E4711
Accurately ripped (confidence 36) [C2FC450A]
Copy OK

Track 7

Filename K:\EACrips\Eurythmics - Savage\07 - I Need A Man.wav

Pre-gap length 0:00:01.10

Peak level 100.0 %
Extraction speed 5.4 X
Track quality 100.0 %
Test CRC 272C3B7E
Copy CRC 272C3B7E
Accurately ripped (confidence 36) [2760A4CE]
Copy OK

Track 8

Filename K:\EACrips\Eurythmics - Savage\08 - Put The Blame On Me.wav

Pre-gap length 0:00:01.12

Peak level 100.0 %
Extraction speed 4.4 X
Track quality 99.9 %
Test CRC 670C44B2
Copy CRC 670C44B2
Accurately ripped (confidence 36) [4F98EAC9]
Copy OK

Track 9

Filename K:\EACrips\Eurythmics - Savage\09 - Heaven.wav

Pre-gap length 0:00:01.00

Peak level 98.3 %
Extraction speed 5.7 X
Track quality 100.0 %
Test CRC 1B5D43A5
Copy CRC 1B5D43A5
Accurately ripped (confidence 36) [76BE7DCA]
Copy OK

Track 10

Filename K:\EACrips\Eurythmics - Savage\10 - Wide Eyed Girl.wav

Pre-gap length 0:00:00.02

Peak level 90.9 %
Extraction speed 5.9 X
Track quality 100.0 %
Test CRC 0E49A6E0
Copy CRC 0E49A6E0
Accurately ripped (confidence 36) [6DA35A9E]
Copy OK

Track 11

Filename K:\EACrips\Eurythmics - Savage\11 - I Need You.wav

Pre-gap length 0:00:00.03

Peak level 80.5 %
Extraction speed 6.0 X
Track quality 100.0 %
Test CRC 60CF223C
Copy CRC 60CF223C
Accurately ripped (confidence 35) [0B277B88]
Copy OK

Track 12

Filename K:\EACrips\Eurythmics - Savage\12 - Brand New Day.wav

Pre-gap length 0:00:01.00

Peak level 97.4 %
Extraction speed 6.2 X
Track quality 100.0 %
Test CRC B4D4EACD
Copy CRC B4D4EACD
Accurately ripped (confidence 35) [6C7A0186]
Copy OK


All tracks accurately ripped

No errors occurred

End of status report

==== Log checksum 88324E0780C2E25F6A87EE073FB28A03DC087597A9D513957BD8FB4855D89099 ====

foobar2000 1.2 / Dynamic Range Meter 1.1.1
log date: 2016-11-04 20:12:58

––––––––––––––––––––––––––––––––––––––––
Analyzed: Eurythmics / Savage
––––––––––––––––––––––––––––––––––––––––

DR Peak RMS Duration Track
––––––––––––––––––––––––––––––––––––––––
DR13 -0.39 dB -16.21 dB 4:50 01-Beethoven (I Love To Listen To)
DR14 -0.69 dB -16.66 dB 4:27 02-I've Got A Lover (Back In Japan)
DR14 -1.31 dB -17.64 dB 3:40 03-Do You Want To Break Up?
DR15 -0.01 dB -17.42 dB 3:52 04-You Have Placed A Chill In My Heart
DR13 -0.58 dB -16.38 dB 4:26 05-Shame
DR12 -0.63 dB -16.39 dB 4:11 06-Savage
DR12 0.00 dB -14.36 dB 4:24 07-I Need A Man
DR13 0.00 dB -15.28 dB 3:45 08-Put The Blame On Me
DR12 -0.14 dB -14.25 dB 3:28 09-Heaven
DR12 -0.83 dB -15.64 dB 3:29 10-Wide Eyed Girl
DR14 -1.88 dB -19.68 dB 3:24 11-I Need You
DR13 -0.22 dB -17.80 dB 3:43 12-Brand New Day
––––––––––––––––––––––––––––––––––––––––

Number of tracks: 12
Official DR value: DR13

Samplerate: 44100 Hz
Channels: 2
Bits per sample: 16
Bitrate: 820 kbps
Codec: FLAC
================================================================================

Eurythmics - Albums Collection 1983-1989 (7CD) [Non-Remastered]

Eurythmics - Albums Collection 1983-1989 (7CD) [Non-Remastered]




Eurythmics - Albums Collection 1983-1989 (7CD) [Non-Remastered]

Eurythmics - We Too Are One (1989) Germany 1st Press
EAC | FLAC | Image (Cue&Log) ~ 312 Mb | Mp3 (CBR320) ~ 124 Mb | Scans included
Label: RCA | # PD 74251 | Time: 00:47:32

Switching to Arista Records in the U.S., Eurythmics made their last album together with We Too Are One, and they went out in style. Calling upon a broad pop range, their seventh album was their best since Be Yourself Tonight in 1985. The sound was varied, the melodies were strong, and the lyrics were unusually well-crafted. In retrospect, the album can be seen as a dry run for Annie Lennox's debut solo album, Diva (1992); songs like "Don't Ask Me Why" (which grazed the U.S. Top 40) serve as precursors to the dramatic ballads to come. There is, however, an air of romantic resignation throughout We Too Are One, appropriate to its valedictory nature. The disc spawned four chart singles in the U.K. and returned Eurythmics to number one in the album charts, but it did not substantially improve Eurythmics' reduced commercial standing in the U.S., confirming that it was time for Lennox and Dave Stewart to pursue other opportunities.

Review by William Ruhlmann, Allmusic.com

Tracklist:

01. We Two Are One (04:34)
02. The King & Queen Of America (04:31)
03. (My, My) Baby's Gonna Cry (04:54)
04. Don't Ask Me Why (04:22)
05. Angel (05:11)
06. Revival (04:06)
07. You Hurt Me (And I Hate You) (04:23)
08. Sylvia (04:44)
09. How Long? (04:43)
10. When The Day Goes Down (05:59)


Exact Audio Copy V1.0 beta 3 from 29. August 2011

EAC extraction logfile from 5. August 2013, 21:22

Eurythmics / We Too Are One

Used drive : TSSTcorpCD/DVDW TS-L632D Adapter: 0 ID: 0

Read mode : Secure
Utilize accurate stream : Yes
Defeat audio cache : Yes
Make use of C2 pointers : No

Read offset correction : 6
Overread into Lead-In and Lead-Out : No
Fill up missing offset samples with silence : Yes
Delete leading and trailing silent blocks : No
Null samples used in CRC calculations : Yes
Used interface : Native Win32 interface for Win NT & 2000

Used output format : User Defined Encoder
Selected bitrate : 896 kBit/s
Quality : High
Add ID3 tag : No
Command line compressor : C:\Program Files (x86)\Exact Audio Copy\Flac\flac.exe
Additional command line options : -8 -V -T "Date=%year%" -T "Genre=%genre%" -T "COMMENT=ripped by sewerok®" %source%


TOC of the extracted CD

Track | Start | Length | Start sector | End sector
––––––––––––––––––––––––––––-
1 | 0:00.32 | 4:34.40 | 32 | 20621
2 | 4:34.72 | 4:31.33 | 20622 | 40979
3 | 9:06.30 | 4:54.52 | 40980 | 63081
4 | 14:01.07 | 4:22.60 | 63082 | 82791
5 | 18:23.67 | 5:11.48 | 82792 | 106164
6 | 23:35.40 | 4:06.35 | 106165 | 124649
7 | 27:42.00 | 4:23.65 | 124650 | 144439
8 | 32:05.65 | 4:44.20 | 144440 | 165759
9 | 36:50.10 | 4:43.20 | 165760 | 187004
10 | 41:33.30 | 5:59.25 | 187005 | 213954


Range status and errors

Selected range

Filename E:\Eurythmics - We Too Are One [1989](RCA PD 74251 Germany)\Eurythmics - We Too Are One.wav

Peak level 98.6 %
Extraction speed 1.7 X
Range quality 100.0 %
Test CRC 802A9989
Copy CRC 802A9989
Copy OK

No errors occurred


AccurateRip summary

Track 1 accurately ripped (confidence 87) [FEB14023] (AR v2)
Track 2 accurately ripped (confidence 92) [CD848A63] (AR v2)
Track 3 accurately ripped (confidence 90) [BB90F2A3] (AR v2)
Track 4 accurately ripped (confidence 89) [402B4CA7] (AR v2)
Track 5 accurately ripped (confidence 89) [11BC06CA] (AR v2)
Track 6 accurately ripped (confidence 90) [31F01924] (AR v2)
Track 7 accurately ripped (confidence 90) [B9AC6BBF] (AR v2)
Track 8 accurately ripped (confidence 88) [DDB31AE2] (AR v2)
Track 9 accurately ripped (confidence 90) [0E56FA5D] (AR v2)
Track 10 accurately ripped (confidence 89) [A9CE6BE8] (AR v2)

All tracks accurately ripped

End of status report

==== Log checksum 0EB46CB0BEB37126F9BB3AAB089C303AFA21A4A6C92314D7BF0034F1F7B73F17 ====

foobar2000 1.2 / Dynamic Range Meter 1.1.1
log date: 2014-01-16 17:51:18

––––––––––––––––––––––––––––––––––––––––
Analyzed: Eurythmics / We Too Are One
––––––––––––––––––––––––––––––––––––––––

DR Peak RMS Duration Track
––––––––––––––––––––––––––––––––––––––––
DR14 -0.20 dB -15.84 dB 4:35 01-We Two Are One
DR12 -0.20 dB -14.71 dB 4:31 02-The King & Queen Of America
DR15 -0.12 dB -16.94 dB 4:55 03-(My, My) Baby's Gonna Cry
DR15 -0.20 dB -16.75 dB 4:23 04-Don't Ask Me Why
DR13 -0.23 dB -17.15 dB 5:12 05-Angel
DR14 -0.29 dB -16.14 dB 4:06 06-Revival
DR14 -0.20 dB -16.12 dB 4:24 07-You Hurt Me (And I Hate You)
DR10 -4.04 dB -16.36 dB 4:44 08-Sylvia
DR12 -0.32 dB -14.84 dB 4:43 09-How Long?
DR13 -0.38 dB -16.60 dB 5:59 10-When The Day Goes Down
––––––––––––––––––––––––––––––––––––––––

Number of tracks: 10
Official DR value: DR13

Samplerate: 44100 Hz
Channels: 2
Bits per sample: 16
Bitrate: 849 kbps
Codec: FLAC
================================================================================

Eurythmics - Albums Collection 1983-1989 (7CD) [Non-Remastered]

Eurythmics - Albums Collection 1983-1989 (7CD) [Non-Remastered]




All thanks to original releaser

More interesting music in My Blog