Tags
Language
Tags
July 2024
Su Mo Tu We Th Fr Sa
30 1 2 3 4 5 6
7 8 9 10 11 12 13
14 15 16 17 18 19 20
21 22 23 24 25 26 27
28 29 30 31 1 2 3

Elaine Comparone, The Queen's Chamber Band - Alessandro Scarlatti: La Giuditta (2007)

Posted By: ArlegZ
Elaine Comparone, The Queen's Chamber Band - Alessandro Scarlatti: La Giuditta (2007)

Elaine Comparone, The Queen's Chamber Band - Alessandro Scarlatti: La Giuditta (2007)
EAC | FLAC | Image (Cue & Log) ~ 407 Mb | Total time: 45:00+48:03 | Scans included
Classical | Label: Albany Records | TROY904/905 | Recorded: 2006

This biblical story, with its historical references to specific cities, generals and kings, is accepted as canon by Roman Catholic theologians, although it doesn t appear in either Hebrew or Protestant scriptures. The Book of Judith is set in the time of the mighty Assyrian ruler Nebuchadnezzar, King of Nineveh. Seeking to expand his empire, the king sends armies, led by General Holofernes (Oloferne), to subdue neighboring kingdoms, all of whom surrender under his powerful forces. The only ones who refuse to capitulate are the Israelites, who cordon off their mountain passes and gather provisions to resist a siege. Instead of a massacre, Holofernes discovers and commandeers their water sources. Faced with drought, the elders of Israel prepare to surrender. Their leader, Prince Ozias, suggests a five-day wait, during which interval Israel s prayers for help may be heard by God. It is at this point that Scarlatti s oratorio takes up the story, depicting the entrance of the pious Judith (Giuditta) who will distract Holofernes until she is able to slay him and make her escape, displaying his severed head, causing the enemy to retreat, sparing the Israelites. Scarlatti s score is in the Italianate style of the period, and the work is largely continuo-driven, with string ritornelli concluding most of the arias. This stellar performance, with the renowned Julianne Baird in the role of Judith/Giuditta, brings this remarkable story to blazing life.

Performer:
Giuditta - Julianne Baird, soprano
Oloferne - Philip Anderson, tenor
Nutrice - Marshall Coid, countertenor
The Queen's Chamber Band
Elaine Comparone, harpsichord & director

Tracklist:
Alessandro Scarlatti (1660-1725)
La Giuditta
CD1:
01. Act 1. Introduction
02. Recitative. Nutrice
03. Aria. Turbe timide
04. Recitative. Signora
05. Aria. Ah, che giova
06. Scene. Scordato consigliere
07. Duet. Deh, rifletti
08. Recitative/Air. Segui… Sommo Dio
09. Recitative. Donna, de' petti
11. Air. Togliti da quest'occhi
12. Recitative. Duce, Bettulia
13. Aria. Se ritorno
14. Recitative. Donna, a torta
15. Aria. Mi combatte
16. Duet. Tu m'uccidi
Sonata No. 3 in D minor:
17. Moderato
18. Fuga (Allegro)
19. Largo
20. Andante
21. Andante
CD2:
01. Act 2. Recitative. Del pianto
02. Aria. Posso
03. Recitative. Del'inimco Assiro
04. Recitative. Madre
05. Air/Duet. Non ti curo
06. Recitative. Bella, non ruotan
07. Aria. Quella terra
08. Recitative. Ma, impallita
09. Aria. Bella, mi vuoi deridere
10. Recitative. Vieni
11. Duet. Piega, o duce
12. Accompanied Recitative. Ardea
13. Aria. Dormi
14. Scene. Disse e dorme Sansone
15. Aria. Tu che desti
16. Recitative. Ecco le mure amiche
17. Duet. Spunta l'alba
18. Recitative. Amici, eccovi il tes


Exact Audio Copy V1.3 from 2. September 2016

EAC extraction logfile from 28. December 2019, 10:49

The Queen's Chamber Band / A. Scarlatti - La Giuditta CD1

Used drive : HL-DT-STBD-RE WH16NS40 Adapter: 1 ID: 0

Read mode : Secure
Utilize accurate stream : Yes
Defeat audio cache : Yes
Make use of C2 pointers : No

Read offset correction : 6
Overread into Lead-In and Lead-Out : No
Fill up missing offset samples with silence : Yes
Delete leading and trailing silent blocks : No
Null samples used in CRC calculations : Yes
Used interface : Native Win32 interface for Win NT & 2000

Used output format : User Defined Encoder
Selected bitrate : 1024 kBit/s
Quality : High
Add ID3 tag : No
Command line compressor : C:\Program Files (x86)\Exact Audio Copy\FLAC\FLAC.EXE
Additional command line options : -6 -V -T "ARTIST=%artist%" -T "TITLE=%title%" -T "ALBUM=%albumtitle%" -T "DATE=%year%" -T "TRACKNUMBER=%tracknr%" -T "GENRE=%genre%" -T "COMMENT=%comment%" -T "BAND=%albuminterpret%" -T "ALBUMARTIST=%albuminterpret%" -T "COMPOSER=%composer%" %haslyrics%–tag-from-file=LYRICS="%lyricsfile%"%haslyrics% -T "DISCNUMBER=%cdnumber%" -T "TOTALDISCS=%totalcds%" -T "TOTALTRACKS=%numtracks%" %hascover%–picture="%coverfile%"%hascover% %source% -o %dest%


TOC of the extracted CD

Track | Start | Length | Start sector | End sector
––––––––––––––––––––––––––––-
1 | 0:00.00 | 3:10.30 | 0 | 14279
2 | 3:10.30 | 1:53.20 | 14280 | 22774
3 | 5:03.50 | 0:54.25 | 22775 | 26849
4 | 5:58.00 | 0:45.40 | 26850 | 30264
5 | 6:43.40 | 2:45.35 | 30265 | 42674
6 | 9:29.00 | 2:19.00 | 42675 | 53099
7 | 11:48.00 | 2:06.00 | 53100 | 62549
8 | 13:54.00 | 2:17.00 | 62550 | 72824
9 | 16:11.00 | 2:59.00 | 72825 | 86249
10 | 19:10.00 | 5:40.00 | 86250 | 111749
11 | 24:50.00 | 0:58.00 | 111750 | 116099
12 | 25:48.00 | 1:29.00 | 116100 | 122774
13 | 27:17.00 | 1:14.00 | 122775 | 128324
14 | 28:31.00 | 3:10.00 | 128325 | 142574
15 | 31:41.00 | 0:55.30 | 142575 | 146729
16 | 32:36.30 | 2:20.00 | 146730 | 157229
17 | 34:56.30 | 0:21.45 | 157230 | 158849
18 | 35:18.00 | 1:40.00 | 158850 | 166349
19 | 36:58.00 | 2:20.00 | 166350 | 176849
20 | 39:18.00 | 1:58.00 | 176850 | 185699
21 | 41:16.00 | 1:05.00 | 185700 | 190574
22 | 42:21.00 | 1:52.00 | 190575 | 198974
23 | 44:13.00 | 0:45.00 | 198975 | 202349


Range status and errors

Selected range

Filename C:\Users\Grant\Desktop\The Queen's Chamber Band - A. Scarlatti - La Giuditta CD1.wav

Peak level 70.4 %
Extraction speed 4.4 X
Range quality 100.0 %
Test CRC 3DC70DD2
Copy CRC 3DC70DD2
Copy OK

No errors occurred


AccurateRip summary

Track 1 not present in database
Track 2 not present in database
Track 3 not present in database
Track 4 not present in database
Track 5 not present in database
Track 6 not present in database
Track 7 not present in database
Track 8 not present in database
Track 9 not present in database
Track 10 not present in database
Track 11 not present in database
Track 12 not present in database
Track 13 not present in database
Track 14 not present in database
Track 15 not present in database
Track 16 not present in database
Track 17 not present in database
Track 18 not present in database
Track 19 not present in database
Track 20 not present in database
Track 21 not present in database
Track 22 not present in database
Track 23 not present in database

None of the tracks are present in the AccurateRip database

End of status report

–– CUETools DB Plugin V2.1.6

[CTDB TOCID: AH3x5lTcrSw5r0qvnamVqlSgMV4-] disk not present in database
Submit result: AH3x5lTcrSw5r0qvnamVqlSgMV4- has been uploaded


==== Log checksum F88CDE2B9ED65F7645A56D616E9D96A49299ECA7D685470D7A5B58BD8F65BE46 ====


Exact Audio Copy V1.3 from 2. September 2016

EAC extraction logfile from 28. December 2019, 11:14

The Queen's Chamber Band / A. Scarlatti - La Giuditta CD2

Used drive : HL-DT-STBD-RE WH16NS40 Adapter: 1 ID: 0

Read mode : Secure
Utilize accurate stream : Yes
Defeat audio cache : Yes
Make use of C2 pointers : No

Read offset correction : 6
Overread into Lead-In and Lead-Out : No
Fill up missing offset samples with silence : Yes
Delete leading and trailing silent blocks : No
Null samples used in CRC calculations : Yes
Used interface : Native Win32 interface for Win NT & 2000

Used output format : User Defined Encoder
Selected bitrate : 1024 kBit/s
Quality : High
Add ID3 tag : No
Command line compressor : C:\Program Files (x86)\Exact Audio Copy\FLAC\FLAC.EXE
Additional command line options : -6 -V -T "ARTIST=%artist%" -T "TITLE=%title%" -T "ALBUM=%albumtitle%" -T "DATE=%year%" -T "TRACKNUMBER=%tracknr%" -T "GENRE=%genre%" -T "COMMENT=%comment%" -T "BAND=%albuminterpret%" -T "ALBUMARTIST=%albuminterpret%" -T "COMPOSER=%composer%" %haslyrics%–tag-from-file=LYRICS="%lyricsfile%"%haslyrics% -T "DISCNUMBER=%cdnumber%" -T "TOTALDISCS=%totalcds%" -T "TOTALTRACKS=%numtracks%" %hascover%–picture="%coverfile%"%hascover% %source% -o %dest%


TOC of the extracted CD

Track | Start | Length | Start sector | End sector
––––––––––––––––––––––––––––-
1 | 0:00.00 | 1:07.00 | 0 | 5024
2 | 1:07.00 | 1:20.00 | 5025 | 11024
3 | 2:27.00 | 2:02.45 | 11025 | 20219
4 | 4:29.45 | 2:11.30 | 20220 | 30074
5 | 6:41.00 | 1:12.00 | 30075 | 35474
6 | 7:53.00 | 5:48.00 | 35475 | 61574
7 | 13:41.00 | 1:16.00 | 61575 | 67274
8 | 14:57.00 | 2:20.00 | 67275 | 77774
9 | 17:17.00 | 1:14.00 | 77775 | 83324
10 | 18:31.00 | 1:54.00 | 83325 | 91874
11 | 20:25.00 | 0:51.00 | 91875 | 95699
12 | 21:16.00 | 1:11.00 | 95700 | 101024
13 | 22:27.00 | 1:10.00 | 101025 | 106274
14 | 23:37.00 | 2:31.00 | 106275 | 117599
15 | 26:08.00 | 1:08.00 | 117600 | 122699
16 | 27:16.00 | 1:41.00 | 122700 | 130274
17 | 28:57.00 | 4:58.00 | 130275 | 152624
18 | 33:55.00 | 3:29.30 | 152625 | 168329
19 | 37:24.30 | 3:37.45 | 168330 | 184649
20 | 41:02.00 | 0:57.30 | 184650 | 188954
21 | 41:59.30 | 2:02.45 | 188955 | 198149
22 | 44:02.00 | 2:15.40 | 198150 | 208314
23 | 46:17.40 | 1:44.35 | 208315 | 216149


Range status and errors

Selected range

Filename C:\Users\Grant\Desktop\The Queen's Chamber Band - A. Scarlatti - La Giuditta CD2.wav

Peak level 72.1 %
Extraction speed 4.5 X
Range quality 100.0 %
Test CRC 5BE96FAC
Copy CRC 5BE96FAC
Copy OK

No errors occurred


AccurateRip summary

Track 1 not present in database
Track 2 not present in database
Track 3 not present in database
Track 4 not present in database
Track 5 not present in database
Track 6 not present in database
Track 7 not present in database
Track 8 not present in database
Track 9 not present in database
Track 10 not present in database
Track 11 not present in database
Track 12 not present in database
Track 13 not present in database
Track 14 not present in database
Track 15 not present in database
Track 16 not present in database
Track 17 not present in database
Track 18 not present in database
Track 19 not present in database
Track 20 not present in database
Track 21 not present in database
Track 22 not present in database
Track 23 not present in database

None of the tracks are present in the AccurateRip database

End of status report

–– CUETools DB Plugin V2.1.6

[CTDB TOCID: R0dKwJy_TbUkiXYaBnlUV3rM.Mo-] disk not present in database
Submit result: R0dKwJy_TbUkiXYaBnlUV3rM.Mo- has been uploaded


==== Log checksum 5033CB90F0CD2898B7E4E6C0B770F8C31603548E5F658E61825824DE6B58DA68 ====

Elaine Comparone, The Queen's Chamber Band - Alessandro Scarlatti: La Giuditta (2007)

Thanks to the original releaser