Tags
Language
Tags
July 2024
Su Mo Tu We Th Fr Sa
30 1 2 3 4 5 6
7 8 9 10 11 12 13
14 15 16 17 18 19 20
21 22 23 24 25 26 27
28 29 30 31 1 2 3

Christopher Cross - Albums Collection 1979-2011 (11CD)

Posted By: Designol
Christopher Cross - Albums Collection 1979-2011 (11CD)

Christopher Cross - Albums Collection 1979-2011 (11CD)
EAC | FLAC | Image/Tracks (Cue&Log) ~ 3.6 Gb | Mp3 (CBR320) ~ 1.4 Gb
Genre: Pop/Rock, Soft Rock | Time: 09:39:54 | Scans included

Christopher Cross is an American singer-songwriter. His debut album earned him five Grammys. He is perhaps best known for his US Top Ten hit songs, "Sailing", "Ride Like the Wind", and "Arthur's Theme (Best That You Can Do)", the last of which he recorded for the film Arthur starring Dudley Moore. "Sailing" earned three Grammy Awards in 1981, while "Arthur's Theme" won the Oscar for Best Original Song in 1981 (with co-composers Burt Bacharach, Carole Bayer Sager and Peter Allen).

Christopher Cross was far and away the biggest new star of 1980, virtually defining adult contemporary radio with a series of smoothly sophisticated ballads including the chart-topping "Sailing"; seemingly as quickly as he shot to fame, however, his star descended, although he continued recording and touring for years to come. Born Christopher Geppert in San Antonio, TX on May 3, 1951, Cross first surfaced in the Austin-based cover band Flash before signing a solo contract with Warner Bros. in the autumn of 1978. His self-titled debut LP appeared two years later, with the lead single "Ride Like the Wind" rocketing to the number two spot; the massive success of the second single, "Sailing," made Cross a superstar, and in the wake of two more Top 20 hits, "Never Be the Same" and "Say You'll Be Mine," he walked off with a record-setting five Grammys in 1981, including Best New Artist and Song of the Year for "Sailing." He soon scored a second number one as well as an Academy Award with "Arthur's Theme (Best That You Can Do)," which he co-wrote with Burt Bacharach, Carole Bayer Sager, and Peter Allen for the smash Dudley Moore film comedy Arthur.

Cross' much-anticipated sophomore effort, Another Page, arrived in 1983, but except for the Top Ten entry "Think of Laura" (popularized through its constant presence on the daytime soap phenomenon General Hospital), the album failed to repeat the success of its predecessor, and somewhat amazingly, he never returned to the Top 40 again. Every Turn of the World appeared to little notice in 1985, and when 1988's Back of My Mind failed to chart altogether, Cross was dropped by Warner. His next album, Rendezvous, did not appear until five years later on BMG. Window followed in 1995, and in 1998 he signed to CMC International for Walking in Avalon, a two-disc effort split between new studio material and live recordings of his past hits. Cross returned in the spring of 2000 with The Red Room. Two years later, Rhino released the comprehensive hit collection The Very Best of Christopher Cross. Cross closed out the decade with a Christmas album in 2007 and an acoustic album called The Cafe Carlyle Sessions in 2008. Dr. Faith, his first collection of new songs in ten years, appeared in the fall of 2010.

Biography by Jason Ankeny, Allmusic.com

Christopher Cross - Albums Collection 1979-2011 (11CD)






Christopher Cross - Albums Collection 1979-2011 (11CD)

Christopher Cross - Christopher Cross (1979)
EAC | FLAC | Image (Cue&Log) ~ 230 Mb | Mp3 (CBR320) ~ 94 Mb | Scans included
Label: Warner Bros. Records | # 3383-2 (256 789) | Time: 00:38:34

Christopher Cross' debut was a huge hit and widely acclaimed, at least among industry professionals (critics didn't give it a second listen), leading to multi-platinum success and Grammys. In retrospect, it might seem like the kind of success that's disproportional to the record itself, especially to hipper-than-thou younger generations, but in truth, Christopher Cross was a hell of a record – it just was a hell of a soft rock record, something that doesn't carry a lot of weight among most audiences. That doesn't erase Cross' considerable gifts as a craftsman. Yes, he does favor sentimentality and can be very sweet on the ballads, but his melodicism is rich and construction tight, so there's a sturdy foundation for the classy professional gloss provided by his studio pros and friends, including indelible backing vocals by Michael McDonald. And while the hits like the dreamy "Sailing" and the surging "Ride Like the Wind" deserved all the attention, they're hardly the only highlights here – to borrow a sports metaphor, this has a deep bench, and there's not a weak moment here. In fact, soft rock albums hardly ever came better than this, and it remains one of the best mainstream albums of its time.

Review by Stephen Thomas Erlewine, Allmusic.com

Tracklist:

01. Say You'll Be Mine (02:53)
02. I Really Don't Know Anymore (03:49)
03. Spinning (03:59)
04. Never Be the Same (04:41)
05. Poor Shirley (04:21)
06. Ride Like The Wind (04:29)
07. The Light Is On (04:07)
08. Sailing (04:16)
09. Minstrel Gigolo (05:54)


Exact Audio Copy V0.99 prebeta 5 from 4. May 2009

Отчёт EAC об извлечении, выполненном 17. октября 2010, 13:49

Christopher Cross / Christopher Cross

Дисковод: Optiarc DVD RW AD-7585H Adapter: 0 ID: 1

Режим чтения : Достоверность
Использование точного потока : Да
Отключение кэша аудио : Да
Использование указателей C2 : Нет

Коррекция смещения при чтении : 6
Способность читать области Lead-in и Lead-out : Нет
Заполнение пропущенных сэмплов тишиной : Да
Удаление блоков с тишиной в начале и конце : Нет
При вычислениях CRC использовались нулевые сэмплы : Да
Интерфейс : Встроенный Win32-интерфейс для Win NT/2000

Выходной формат : Внутренние WAV-операции
Формат сэмплов : 44.100 Гц; 16 бит; стерео


TOC извлечённого CD

Трек | Старт | Длительность | Начальный сектор | Конечный сектор
––––––––––––––––––––––––––––––––––-
1 | 0:00.32 | 2:57.33 | 32 | 13339
2 | 2:57.65 | 3:53.10 | 13340 | 30824
3 | 6:51.00 | 4:06.02 | 30825 | 49276
4 | 10:57.02 | 4:46.43 | 49277 | 70769
5 | 15:43.45 | 4:24.62 | 70770 | 90631
6 | 20:08.32 | 4:35.38 | 90632 | 111294
7 | 24:43.70 | 4:11.32 | 111295 | 130151
8 | 28:55.27 | 4:18.65 | 130152 | 149566
9 | 33:14.17 | 5:54.53 | 149567 | 176169


Характеристики диапазона извлечения и сообщения об ошибках

Выбранный диапазон

Имя файла C:\Музыка\22.1979 Christopher Cross - Christopher Cross\Christopher Cross - Christopher Cross.wav

Пиковый уровень 92.3 %
Качество диапазона 100.0 %
CRC теста 38176DFC
CRC копии 38176DFC
Копирование… OK

Ошибок не произошло


AccurateRip: сводка

Трек 1 точное извлечение (доверие 19) [0E2A8B4B]
Трек 2 точное извлечение (доверие 19) [997B8180]
Трек 3 точное извлечение (доверие 19) [FE4EF0E6]
Трек 4 точное извлечение (доверие 20) [8D024A60]
Трек 5 точное извлечение (доверие 19) [8B30FFE2]
Трек 6 точное извлечение (доверие 20) [70F12288]
Трек 7 точное извлечение (доверие 19) [4587A0F9]
Трек 8 точное извлечение (доверие 20) [3F2FC714]
Трек 9 точное извлечение (доверие 19) [6270D5E7]

Все треки извлечены точно

Конец отчёта

foobar2000 1.1.16 / Dynamic Range Meter 1.1.1
log date: 2012-11-16 12:05:59

––––––––––––––––––––––––––––––––––––––––
Analyzed: Christopher Cross / Christopher Cross
––––––––––––––––––––––––––––––––––––––––

DR Peak RMS Duration Track
––––––––––––––––––––––––––––––––––––––––
DR14 -0.79 dB -17.43 dB 2:57 01-Say You'll Be Mine
DR13 -0.86 dB -17.35 dB 3:53 02-I Really Don't Know Anymore
DR15 -2.29 dB -22.01 dB 4:06 03-Spinning
DR14 -1.58 dB -18.82 dB 4:47 04-Never Be the Same
DR14 -0.87 dB -18.21 dB 4:25 05-Poor Shirley
DR14 -0.69 dB -17.27 dB 4:36 06-Ride Like The Wind
DR15 -1.80 dB -20.30 dB 4:11 07-The Light Is On
DR15 -4.11 dB -22.75 dB 4:19 08-Sailing
DR15 -0.80 dB -18.17 dB 5:55 09-Minstrel Gigolo
––––––––––––––––––––––––––––––––––––––––

Number of tracks: 9
Official DR value: DR14

Samplerate: 44100 Hz
Channels: 2
Bits per sample: 16
Bitrate: 805 kbps
Codec: FLAC
================================================================================

Original releaser - Alexpir



Christopher Cross - Albums Collection 1979-2011 (11CD)

Christopher Cross - Another Page (1983)
EAC | FLAC | Image (Cue&Log) ~ 231 Mb | Mp3 (CBR320) ~ 114 Mb | Scans included
Label: Warner Bros. Records | # 7599-23757-2 | Time: 00:42:21

Christopher Cross had a lot to live up to following his self-titled debut album, which had sold a million copies (now up to four million), spawned four Top 40 hits, including the number one hit, "Sailing," and won him five Grammy Awards, including Album of the Year, Song of the Year, Record of the Year (the last two for "Sailing"), and Best New Artist. So, he took three years to make Another Page, which, unsurprisingly, sounded a lot like its predecessor. Cross concentrated on smooth pop arrangements, over which be sang greeting-card romantic sentiments in an innocent, Brian Wilson-like tenor. No one would confuse the result with anything truly heartfelt, or with real rock & roll, but Cross' soothing approach was still good enough to put two of his songs, "All Right" and "No Time for Talk," into the Top 40 and earn a gold record certification. Then, nearly a year after the album's release, TV soap opera General Hospital began featuring the maudlin ballad "Think of Laura," and Another Page suddenly had a third single, this one a Top Ten hit.

Review by William Ruhlmann, Allmusic.com

Tracklist:

01. No Time For Talk (04:20)
02. Baby Says No (06:01)
03. What Am I Supposed To Believe (04:23)
04. Deal 'em Again (03:09)
05. Think Of Laura (03:22)
06. All Right (04:15)
07. Talking In My Sleep (03:35)
08. Nature Of The Game (03:54)
09. Long World (03:31)
10. Words Of Wisdom (05:47)


Exact Audio Copy V0.99 prebeta 5 from 4. May 2009

EAC extraction logfile from 31. October 2010, 21:46

Christopher Cross / Another Page

Used drive : TEAC CD-W54E Adapter: 1 ID: 0

Read mode : Secure
Utilize accurate stream : Yes
Defeat audio cache : Yes
Make use of C2 pointers : No

Read offset correction : 685
Overread into Lead-In and Lead-Out : No
Fill up missing offset samples with silence : Yes
Delete leading and trailing silent blocks : No
Null samples used in CRC calculations : Yes
Used interface : Native Win32 interface for Win NT & 2000

Used output format : User Defined Encoder
Selected bitrate : 1024 kBit/s
Quality : High
Add ID3 tag : No
Command line compressor : E:\Program Files\FLAC\flac.exe
Additional command line options : -V -8 -T "artist=%a" -T "title=%t" -T "album=%g" -T "date=%y" -T "tracknumber=%n" -T "genre=%m" %s


TOC of the extracted CD

Track | Start | Length | Start sector | End sector
––––––––––––––––––––––––––––-
1 | 0:00.00 | 4:27.02 | 0 | 20026
2 | 4:27.02 | 6:07.30 | 20027 | 47581
3 | 10:34.32 | 4:29.15 | 47582 | 67771
4 | 15:03.47 | 3:15.63 | 67772 | 82459
5 | 18:19.35 | 3:24.17 | 82460 | 97776
6 | 21:43.52 | 4:17.50 | 97777 | 117101
7 | 26:01.27 | 3:40.30 | 117102 | 133631
8 | 29:41.57 | 3:59.30 | 133632 | 151586
9 | 33:41.12 | 3:34.48 | 151587 | 167684
10 | 37:15.60 | 5:47.07 | 167685 | 193716


Range status and errors

Selected range

Filename F:\1\Christopher Cross - Another Page.wav

Peak level 78.7 %
Range quality 100.0 %
Test CRC 64021167
Copy CRC 64021167
Copy OK

No errors occurred


AccurateRip summary

Track 1 accurately ripped (confidence 6) [9DDF9EE4]
Track 2 accurately ripped (confidence 6) [3728BF8E]
Track 3 accurately ripped (confidence 6) [1BCF0621]
Track 4 accurately ripped (confidence 6) [3A65B58E]
Track 5 accurately ripped (confidence 6) [7AD810CC]
Track 6 accurately ripped (confidence 6) [72BE4282]
Track 7 accurately ripped (confidence 6) [21D0A6D8]
Track 8 accurately ripped (confidence 6) [6E78C6E3]
Track 9 accurately ripped (confidence 6) [999C4B82]
Track 10 accurately ripped (confidence 6) [75EBA78F]

All tracks accurately ripped

End of status report

foobar2000 1.1.16 / Dynamic Range Meter 1.1.1
log date: 2012-11-16 12:06:12

––––––––––––––––––––––––––––––––––––––––
Analyzed: Christopher Cross / Another Page
––––––––––––––––––––––––––––––––––––––––

DR Peak RMS Duration Track
––––––––––––––––––––––––––––––––––––––––
DR15 -2.07 dB -21.61 dB 4:27 01-No Time For Talk
DR15 -5.07 dB -23.92 dB 6:07 02-Baby Says No
DR15 -5.82 dB -25.38 dB 4:29 03-What Am I Supposed To Believe
DR14 -3.73 dB -22.21 dB 3:16 04-Deal 'em Again
DR14 -5.23 dB -23.48 dB 3:24 05-Think Of Laura
DR13 -4.12 dB -20.15 dB 4:18 06-All Right
DR14 -4.07 dB -22.99 dB 3:40 07-Talking In My Sleep
DR15 -2.85 dB -23.65 dB 3:59 08-Nature Of The Game
DR13 -10.92 dB -27.73 dB 3:35 09-Long World
DR14 -3.93 dB -22.90 dB 5:47 10-Words Of Wisdom
––––––––––––––––––––––––––––––––––––––––

Number of tracks: 10
Official DR value: DR14

Samplerate: 44100 Hz
Channels: 2
Bits per sample: 16
Bitrate: 697 kbps
Codec: FLAC
================================================================================

Original releaser - geen_61



Christopher Cross - Albums Collection 1979-2011 (11CD)

Christopher Cross - Back Of My Mind (1988)
EAC | FLAC | Tracks (Cue&Log) ~ 274 Mb | Mp3 (CBR320) ~ 104 Mb | Scans included
Label: Reprise Records | # 925 685-2 | Time: 00:42:15

A transitional work in the truest sense, this fascinating fourth album finds Christopher straddling the brightest pop work of his past and the soul-searching writing that was to dominate his albums to come. Songs such as "Swept Away," written with John Bettis and Steve Dorff for a special episode of the hit TV series Growing Pains, and "Never Stop Believing," with a fine vocal turn by Fleetwood Mac veteran Christine McVie, sparkle with the soaring excellence of Cross' earlier successes. But a new writing collaboration with long-time cohort Rob Meurer produces a handful of songs bursting with the promise of things to come - contemplative, engaging works such as "Alibi" and the haunting title tune, an approach to music which Christopher would make his own on future albums. Back of My Mind also features "I Will (Take You Forever)," a duet with Frances Ruffelle of Les Miserables fame. Another Michael Omartian production.

Tracklist:

01. Someday (03:12)
02. Never Stop Believing (04:00)
03. Swept Away (04:23)
04. Any Old Time (04:05)
05. I Will (Take You Forever) (04:15)
06. She Told Me So (04:08)
07. Back Of My Mind (03:55)
08. I'll Be Alright (04:54)
09. Alibi (04:41)
10. Just One Look (04:37)


Exact Audio Copy V0.99 prebeta 4 from 23. January 2008

EAC extraction logfile from 27. May 2009, 3:58

Christopher Cross / Back Of My Mind

Used drive : PLEXTOR DVDR PX-760A Adapter: 0 ID: 1

Read mode : Secure
Utilize accurate stream : Yes
Defeat audio cache : Yes
Make use of C2 pointers : No

Read offset correction : 30
Overread into Lead-In and Lead-Out : No
Fill up missing offset samples with silence : Yes
Delete leading and trailing silent blocks : No
Null samples used in CRC calculations : Yes
Used interface : Native Win32 interface for Win NT & 2000
Gap handling : Appended to previous track

Used output format : Internal WAV Routines
Sample format : 44.100 Hz; 16 Bit; Stereo


TOC of the extracted CD

Track | Start | Length | Start sector | End sector
––––––––––––––––––––––––––––-
1 | 0:00.33 | 3:12.07 | 33 | 14439
2 | 3:12.40 | 4:00.70 | 14440 | 32509
3 | 7:13.35 | 4:23.20 | 32510 | 52254
4 | 11:36.55 | 4:05.45 | 52255 | 70674
5 | 15:42.25 | 4:15.40 | 70675 | 89839
6 | 19:57.65 | 4:08.58 | 89840 | 108497
7 | 24:06.48 | 3:55.57 | 108498 | 126179
8 | 28:02.30 | 4:54.30 | 126180 | 148259
9 | 32:56.60 | 4:41.68 | 148260 | 169402
10 | 37:38.53 | 4:37.25 | 169403 | 190202


Track 1

Filename k:\Christopher Cross - Back Of My Mind {1988) [FLAC]\01 - Someday.wav

Pre-gap length 0:00:02.44

Peak level 100.0 %
Track quality 100.0 %
Test CRC F05AD188
Copy CRC F05AD188
Accurately ripped (confidence 8) [0A537420]
Copy OK

Track 2

Filename k:\Christopher Cross - Back Of My Mind {1988) [FLAC]\02 - Never Stop Believing.wav

Pre-gap length 0:00:00.60

Peak level 93.4 %
Track quality 100.0 %
Test CRC 06DBFCA9
Copy CRC 06DBFCA9
Accurately ripped (confidence 8) [BF99926F]
Copy OK

Track 3

Filename k:\Christopher Cross - Back Of My Mind {1988) [FLAC]\03 - Swept Away.wav

Pre-gap length 0:00:04.00

Peak level 100.0 %
Track quality 100.0 %
Test CRC D76C3E39
Copy CRC D76C3E39
Accurately ripped (confidence 8) [C1B8A9AB]
Copy OK

Track 4

Filename k:\Christopher Cross - Back Of My Mind {1988) [FLAC]\04 - Any Old Time.wav

Pre-gap length 0:00:00.89

Peak level 98.0 %
Track quality 100.0 %
Test CRC 41D3D4E2
Copy CRC 41D3D4E2
Accurately ripped (confidence 8) [60A6DB50]
Copy OK

Track 5

Filename k:\Christopher Cross - Back Of My Mind {1988) [FLAC]\05 - I Will (Take You Forever).wav

Pre-gap length 0:00:02.22

Peak level 100.0 %
Track quality 100.0 %
Test CRC 3D6CCD8E
Copy CRC 3D6CCD8E
Accurately ripped (confidence 8) [EEA01A5F]
Copy OK

Track 6

Filename k:\Christopher Cross - Back Of My Mind {1988) [FLAC]\06 - She Told Me So.wav

Pre-gap length 0:00:02.02

Peak level 100.0 %
Track quality 100.0 %
Test CRC FCF77501
Copy CRC FCF77501
Accurately ripped (confidence 8) [AF23DF95]
Copy OK

Track 7

Filename k:\Christopher Cross - Back Of My Mind {1988) [FLAC]\07 - Back Of My Mind.wav

Pre-gap length 0:00:03.00

Peak level 96.2 %
Track quality 99.9 %
Test CRC 95234EA9
Copy CRC 95234EA9
Accurately ripped (confidence 8) [F8C25C11]
Copy OK

Track 8

Filename k:\Christopher Cross - Back Of My Mind {1988) [FLAC]\08 - I'll Be Alright.wav

Pre-gap length 0:00:00.33

Peak level 100.0 %
Track quality 100.0 %
Test CRC 0F0DDB16
Copy CRC 0F0DDB16
Accurately ripped (confidence 8) [4E90E114]
Copy OK

Track 9

Filename k:\Christopher Cross - Back Of My Mind {1988) [FLAC]\09 - Alibi.wav

Pre-gap length 0:00:02.22

Peak level 71.1 %
Track quality 99.9 %
Test CRC 1DEA308A
Copy CRC 1DEA308A
Accurately ripped (confidence 8) [A774DC1E]
Copy OK

Track 10

Filename k:\Christopher Cross - Back Of My Mind {1988) [FLAC]\10 - Just One Look.wav

Pre-gap length 0:00:02.73

Peak level 100.0 %
Track quality 100.0 %
Test CRC F603E756
Copy CRC F603E756
Accurately ripped (confidence 8) [09FF31EB]
Copy OK


All tracks accurately ripped

No errors occurred

End of status report

foobar2000 1.1.16 / Dynamic Range Meter 1.1.1
log date: 2012-11-16 12:06:24

––––––––––––––––––––––––––––––––––––––––
Analyzed: Christopher Cross / Back Of My Mind
––––––––––––––––––––––––––––––––––––––––

DR Peak RMS Duration Track
––––––––––––––––––––––––––––––––––––––––
DR14 0.00 dB -16.67 dB 3:12 01-Someday
DR14 -0.59 dB -16.74 dB 4:01 02-Never Stop Believing
DR15 0.00 dB -17.55 dB 4:23 03-Swept Away
DR14 -0.17 dB -16.87 dB 4:06 04-Any Old Time
DR14 0.00 dB -16.90 dB 4:16 05- I Will (Take You Forever)
DR13 0.00 dB -16.22 dB 4:09 06-She Told Me So
DR15 -0.33 dB -18.08 dB 3:56 07-Back Of My Mind
DR16 0.00 dB -18.24 dB 4:54 08-I'll Be Alright
DR13 -2.96 dB -19.61 dB 4:42 09-Alibi
DR15 0.00 dB -18.17 dB 4:37 10-Just One Look
––––––––––––––––––––––––––––––––––––––––

Number of tracks: 10
Official DR value: DR14

Samplerate: 44100 Hz
Channels: 2
Bits per sample: 16
Bitrate: 861 kbps
Codec: FLAC
================================================================================




Christopher Cross - Albums Collection 1979-2011 (11CD)

Christopher Cross - Rendezvous (1992)
EAC | FLAC | Image (Cue&Log) ~ 322 Mb | Mp3 (CBR320) ~ 140 Mb | Scans included
Label: BMG Ariola München GmbH | # 74321 10291 2 | Time: 00:49:22

Although it went ignored at the time, Rendezvous was Christopher Cross' best album in ten years. It wasn't because he changed his style – he remained an MOR balladeer with a fondness for slick productions and sentimental melodies – but there's a little bit of an edge to his writing, and his songs are uniformly memorable. It may be a minor victory, but it's a victory nonetheless, and it's one that makes Rendezvous welcome to many fans of his first two albums.

Review by Stephen Thomas Erlewine, Allmusic.com

Tracklist:

01. Rendezvous (05:24)
02. Deputy Dan (04:31)
03. Night across the world (03:55)
04. Angry young men (05:05)
05. In the blink of an eye (04:21)
06. Is there something (04:54)
07. Isn't it love (04:14)
08. Nothing will change (04:49)
09. Driftin' away (05:30)
10. A fisherman's tale (06:24)


Exact Audio Copy V0.99 prebeta 5 from 4. May 2009

EAC extraction logfile from 31. October 2010, 20:49

Cross, Christopher / Rendezvous

Used drive : TEAC CD-W54E Adapter: 1 ID: 0

Read mode : Secure
Utilize accurate stream : Yes
Defeat audio cache : Yes
Make use of C2 pointers : No

Read offset correction : 685
Overread into Lead-In and Lead-Out : No
Fill up missing offset samples with silence : Yes
Delete leading and trailing silent blocks : No
Null samples used in CRC calculations : Yes
Used interface : Native Win32 interface for Win NT & 2000

Used output format : User Defined Encoder
Selected bitrate : 1024 kBit/s
Quality : High
Add ID3 tag : No
Command line compressor : E:\Program Files\FLAC\flac.exe
Additional command line options : -V -8 -T "artist=%a" -T "title=%t" -T "album=%g" -T "date=%y" -T "tracknumber=%n" -T "genre=%m" %s


TOC of the extracted CD

Track | Start | Length | Start sector | End sector
––––––––––––––––––––––––––––-
1 | 0:00.00 | 5:24.40 | 0 | 24339
2 | 5:24.40 | 4:32.68 | 24340 | 44807
3 | 9:57.33 | 3:56.15 | 44808 | 62522
4 | 13:53.48 | 5:06.15 | 62523 | 85487
5 | 18:59.63 | 4:24.62 | 85488 | 105349
6 | 23:24.50 | 4:55.15 | 105350 | 127489
7 | 28:19.65 | 4:14.63 | 127490 | 146602
8 | 32:34.53 | 4:49.22 | 146603 | 168299
9 | 37:24.00 | 5:33.25 | 168300 | 193299
10 | 42:57.25 | 6:24.73 | 193300 | 222172


Range status and errors

Selected range

Filename F:\1\Cross, Christopher - Rendezvous.wav

Peak level 100.0 %
Range quality 100.0 %
Test CRC 9658A761
Copy CRC 9658A761
Copy OK

No errors occurred


AccurateRip summary

Track 1 accurately ripped (confidence 19) [A64A63C2]
Track 2 accurately ripped (confidence 19) [B6ED9C6A]
Track 3 accurately ripped (confidence 19) [678A55BF]
Track 4 accurately ripped (confidence 19) [CDB65F51]
Track 5 accurately ripped (confidence 19) [EACBC99A]
Track 6 accurately ripped (confidence 19) [91C44618]
Track 7 accurately ripped (confidence 19) [25A812F3]
Track 8 accurately ripped (confidence 19) [BFF009EC]
Track 9 accurately ripped (confidence 19) [41542949]
Track 10 accurately ripped (confidence 19) [9845B2F3]

All tracks accurately ripped

End of status report

foobar2000 1.1.16 / Dynamic Range Meter 1.1.1
log date: 2012-11-16 12:06:38

––––––––––––––––––––––––––––––––––––––––
Analyzed: Cross, Christopher / Rendezvous
––––––––––––––––––––––––––––––––––––––––

DR Peak RMS Duration Track
––––––––––––––––––––––––––––––––––––––––
DR13 -1.07 dB -16.18 dB 5:25 01-Rendezvous
DR14 0.00 dB -16.23 dB 4:33 02-Deputy Dan
DR13 -1.07 dB -15.70 dB 3:56 03-Night across the world
DR12 -4.49 dB -20.41 dB 5:06 04-Angry young men
DR12 -0.80 dB -15.39 dB 4:25 05-In the blink of an eye
DR13 -1.55 dB -17.67 dB 4:55 06-Is there something
DR13 -0.14 dB -15.51 dB 4:15 07-Isn't it love
DR13 -0.53 dB -15.42 dB 4:49 08-Nothing will change
DR13 -2.60 dB -18.35 dB 5:33 09-Driftin' away
DR14 -3.06 dB -21.03 dB 6:25 10-A fisherman's tale
––––––––––––––––––––––––––––––––––––––––

Number of tracks: 10
Official DR value: DR13

Samplerate: 44100 Hz
Channels: 2
Bits per sample: 16
Bitrate: 837 kbps
Codec: FLAC
================================================================================

Original releaser - geen_61



Christopher Cross - Albums Collection 1979-2011 (11CD)

Christopher Cross - Window (1994)
EAC | FLAC | Image (Cue&Log) ~ 296 Mb | Mp3 (CBR320) ~ 108 Mb | Scans included
Label: BMG Ariola München GmbH | # 74321 24654 2 | Time: 00:46:13

At this writing Christopher's latest release, and surely his most personal. Once again co-written mainly with Rob Meurer, the concerns of the songs run the gamut from the vital support of a loved one to the peculiarities of life in Southern California, from the process of mending a relationship to a look at one's mortality, from the questionable "values" of popular culture to a chilling story of two lost souls, from thoughts of an old lover to Christopher's own Warholian fame. The sparse production gives a deep sense of thematic definition to the songs, and Cross has never been in finer voice. The performances are based around the solid work of the current touring band of Meurer, Chas Thompson, and Jody Cortez, with guests including Mike Finnegan, Ray Pizzi, and Kim Wilson of The Fabulous Thunderbirds. Features the hit duet with Gigi Worth, "Open Up My Window," and a modern reworking of the old Spirit chestnut, "Nature's Way." Produced by Christopher Cross and Rob Meurer.

Tracklist:

01. Been There Done That (04:36)
02. Wild Wild West (03:36)
03. Wishing Well (05:55)
04. Thinkin Bout You (05:17)
05. Jan's Tune (03:16)
06. Open Up My Window (04:10)
07. Natures Way (03:15)
08. Uncharted Hearts (04:41)
09. Before I Go (04:37)
10. Love Is Calling (06:44)


Exact Audio Copy V0.99 prebeta 5 from 4. May 2009

EAC extraction logfile from 28. March 2010, 11:47

Christopher Cross / Window

Used drive : Optiarc DVD RW AD-5200A Adapter: 1 ID: 1

Read mode : Secure
Utilize accurate stream : Yes
Defeat audio cache : Yes
Make use of C2 pointers : No

Read offset correction : 48
Overread into Lead-In and Lead-Out : No
Fill up missing offset samples with silence : Yes
Delete leading and trailing silent blocks : No
Null samples used in CRC calculations : Yes
Used interface : Native Win32 interface for Win NT & 2000

Used output format : Internal WAV Routines
Sample format : 44.100 Hz; 16 Bit; Stereo


TOC of the extracted CD

Track | Start | Length | Start sector | End sector
––––––––––––––––––––––––––––-
1 | 0:00.32 | 4:36.38 | 32 | 20769
2 | 4:36.70 | 3:36.37 | 20770 | 37006
3 | 8:13.32 | 5:55.33 | 37007 | 63664
4 | 14:08.65 | 5:17.37 | 63665 | 87476
5 | 19:26.27 | 3:16.40 | 87477 | 102216
6 | 22:42.67 | 4:10.08 | 102217 | 120974
7 | 26:53.00 | 3:15.25 | 120975 | 135624
8 | 30:08.25 | 4:41.35 | 135625 | 156734
9 | 34:49.60 | 4:37.65 | 156735 | 177574
10 | 39:27.50 | 6:44.57 | 177575 | 207931


Range status and errors

Selected range

Filename E:\torrents\_up\2\Christopher Cross - Window.wav

Peak level 100.0 %
Range quality 99.9 %
Copy CRC 43521EAE
Copy OK

No errors occurred


AccurateRip summary

Track 1 accurately ripped (confidence 6) [9251949B]
Track 2 accurately ripped (confidence 6) [5D04EAA4]
Track 3 accurately ripped (confidence 6) [E4ABB39E]
Track 4 accurately ripped (confidence 6) [BF99D226]
Track 5 accurately ripped (confidence 6) [8526B873]
Track 6 accurately ripped (confidence 6) [3A7D6C4A]
Track 7 accurately ripped (confidence 6) [E96198B3]
Track 8 accurately ripped (confidence 6) [8344400D]
Track 9 accurately ripped (confidence 6) [2B2E5ECB]
Track 10 accurately ripped (confidence 6) [6E3986C4]

All tracks accurately ripped

End of status report

foobar2000 1.1.16 / Dynamic Range Meter 1.1.1
log date: 2012-11-16 12:06:52

––––––––––––––––––––––––––––––––––––––––
Analyzed: Christopher Cross / Window
––––––––––––––––––––––––––––––––––––––––

DR Peak RMS Duration Track
––––––––––––––––––––––––––––––––––––––––
DR12 0.00 dB -13.75 dB 4:37 01-Been There Done That
DR11 0.00 dB -14.69 dB 3:36 02-Wild Wild West
DR12 0.00 dB -14.14 dB 5:55 03-Wishing Well
DR11 0.00 dB -13.33 dB 5:17 04-Thinkin Bout You
DR12 -1.51 dB -16.54 dB 3:17 05-Jan's Tune
DR11 -0.09 dB -14.04 dB 4:10 06-Open Up My Window
DR10 0.00 dB -11.68 dB 3:15 07-Natures Way
DR11 -0.30 dB -13.74 dB 4:41 08-Uncharted Hearts
DR12 -0.46 dB -14.27 dB 4:38 09-Before I Go
DR11 -0.77 dB -15.42 dB 6:45 10-Love Is Calling
––––––––––––––––––––––––––––––––––––––––

Number of tracks: 10
Official DR value: DR11

Samplerate: 44100 Hz
Channels: 2
Bits per sample: 16
Bitrate: 888 kbps
Codec: FLAC
================================================================================




Christopher Cross - Albums Collection 1979-2011 (11CD)

Christopher Cross - Red Room (2000)
EAC | FLAC | Tracks (Cue&Log) ~ 325 Mb | Mp3 (CBR320) ~ 122 Mb | Scans included
Label: CMC International | # 06076 86290-2 | Time: 00:46:42

First of all, Red Room is really a re-release of the first disc of Walking in Avalon. These are all the new studio songs, while the second disc was a collection of live recordings (it, too, was rereleased separately). So don't get this if you already have Walking In Avalon. Or, as good as it is, maybe you should.

After his big debut, each subsequent album seemed to do worse than before, commercially-speaking. But Chris was still growing and developing as a songwriter. With Walking in Avalon, he finally got some more airplay with "When She Smiles", an intelligent, well-written, upbeat love song. Throw in the track "Walking In Avalon", and you've got the essence of upbeat, feel-good pop music well-covered. But this album has more variety than that.

"In a Red Room", the opening track, and "Hunger" will throw you for a loop as they both have a very minimal, intense quality to them, along with Chris singing in a lower range than you usually expect. It won't take long for them to grow on you, though, and you'll wonder why Chris didn't do more like them earlier in his career.

"It's Always Something", "Dream Too Loud", and "Curled Around the World" are just gorgeous. Chris' mastery of lyrics, atmosphere, and production techniques really come to the fore with these. "It's Always Something" tackles the stresses of modern life ("My AOL went down again") and yet passes on a timeless message of making a life worth living. "Dream Too Loud" and "Curled Around The World" are more laid-back, but no less visionary or exquisite in their sounds or message.

"I Know You Well" is another well-written song, but harkens back to earlier Cross love songs, as does "Kind Of I Love You", with Chris once again exploring the love song from another angle. "Kind Of I Love You" seems to me to be the weakest song on the album, an attempt at another up-tempo song that just seems a little too awkward, although that may be what makes it memorable. But it's still a decent, listenable song.

And finally, "Rainy Day In Vancouver" closes out the album wonderfully. I would call it an instrumental, but it has vocal sounds on it, but no lyrics or words. Again, the production and mix really shines, mixing strings and acoustic guitars to create a lush, atmospheric rhythm that brings chills to the listener. After the buildup, (and nobody seems to use strings quite so powerfully and dynamically as Chris does) the song changes gears and rolls out with an extended acoustic guitar solo that leaves you wishing it would never end.

All in all, call it Red Room or the first disc of Walking In Avalon, I think this is the best collection of studio songs Christopher has ever released, even better than his debut album. Fans can only hope that he will release another new album, and if so, that he can match the incredible quality of this album.

Review by Michael A. Clem, Amazon


Tracklist:

01. In a Red Room (03:47)
02. Walking in Avalon (04:56)
03. Hunger (03:34)
04. When She Smiles (04:07)
05. It's Always Something (05:04)
06. Dream Too Loud (04:21)
07. I Know You Well (with Gigi Worth) (04:52)
08. Kind of I Love You (04:38)
09. Curled Around the World (04:28)
10. Rainy Day in Vancouver (06:51)


EAC extraction logfile from 30. June 2007, 14:28 for CD
Christopher Cross / Red Room

Used drive : _NEC DVD_RW ND-4550A Adapter: 1 ID: 2
Read mode : Secure with NO C2, accurate stream, disable cache
Read offset correction : 48
Overread into Lead-In and Lead-Out : No

Used output format : C:\flac-1.1.4-win\bin\flac.exe (User Defined Encoder)
320 kBit/s
Additional command line options : -8 -V -T "artist=%a" -T "title=%t" -T "album=%g" -T "date=%y" -T "tracknumber=%n" -T "genre=%m" %s

Other options :
Fill up missing offset samples with silence : Yes
Delete leading and trailing silent blocks : No
Installed external ASPI interface


Track 1
Filename D:\Christopher Cross - Red Room\01 - In a Red Room.wav

Pre-gap length 0:00:02.00

Peak level 100.0 %
Track quality 99.9 %
Copy CRC 2A986086
Copy OK

Track 2
Filename D:\Christopher Cross - Red Room\02 - Walking in Avalon.wav

Peak level 100.0 %
Track quality 99.9 %
Copy CRC D389CA38
Copy OK

Track 3
Filename D:\Christopher Cross - Red Room\03 - Hunger.wav

Peak level 100.0 %
Track quality 100.0 %
Copy CRC C916EC7C
Copy OK

Track 4
Filename D:\Christopher Cross - Red Room\04 - When She Smiles.wav

Peak level 100.0 %
Track quality 100.0 %
Copy CRC A1F24F40
Copy OK

Track 5
Filename D:\Christopher Cross - Red Room\05 - It's Always Something.wav

Peak level 100.0 %
Track quality 100.0 %
Copy CRC 985156BE
Copy OK

Track 6
Filename D:\Christopher Cross - Red Room\06 - Dream Too Loud.wav

Peak level 100.0 %
Track quality 100.0 %
Copy CRC 6D080520
Copy OK

Track 7
Filename D:\Christopher Cross - Red Room\07 - I Know You Well (with Gigi Worth).wav

Peak level 100.0 %
Track quality 99.9 %
Copy CRC 71C214FD
Copy OK

Track 8
Filename D:\Christopher Cross - Red Room\08 - Kind of I Love You.wav

Peak level 100.0 %
Track quality 100.0 %
Copy CRC 2EB57C4D
Copy OK

Track 9
Filename D:\Christopher Cross - Red Room\09 - Curled Around the World.wav

Peak level 100.0 %
Track quality 99.9 %
Copy CRC 4BD189B4
Copy OK

Track 10
Filename D:\Christopher Cross - Red Room\10 - Rainy Day in Vancouver.wav

Peak level 100.0 %
Track quality 100.0 %
Copy CRC B60D5560
Copy OK

No errors occured


End of status report

––––––––––––––––––––––––––––––

EAC extraction logfile from 30. June 2007, 14:28 for CD
Christopher Cross / Red Room

Used drive : _NEC DVD_RW ND-4550A Adapter: 1 ID: 2
Read mode : Secure with NO C2, accurate stream, disable cache
Read offset correction : 48
Overread into Lead-In and Lead-Out : No

Used output format : C:\flac-1.1.4-win\bin\flac.exe (User Defined Encoder)
320 kBit/s
Additional command line options : -8 -V -T "artist=%a" -T "title=%t" -T "album=%g" -T "date=%y" -T "tracknumber=%n" -T "genre=%m" %s

Other options :
Fill up missing offset samples with silence : Yes
Delete leading and trailing silent blocks : No
Installed external ASPI interface


Track 1
Filename D:\Christopher Cross - Red Room\01 - In a Red Room.wav

Pre-gap length 0:00:02.00

Peak level 100.0 %
Track quality 99.9 %
Copy CRC 2A986086
Copy OK

Track 2
Filename D:\Christopher Cross - Red Room\02 - Walking in Avalon.wav

Peak level 100.0 %
Track quality 99.9 %
Copy CRC D389CA38
Copy OK

Track 3
Filename D:\Christopher Cross - Red Room\03 - Hunger.wav

Peak level 100.0 %
Track quality 100.0 %
Copy CRC C916EC7C
Copy OK

Track 4
Filename D:\Christopher Cross - Red Room\04 - When She Smiles.wav

Peak level 100.0 %
Track quality 100.0 %
Copy CRC A1F24F40
Copy OK

Track 5
Filename D:\Christopher Cross - Red Room\05 - It's Always Something.wav

Peak level 100.0 %
Track quality 100.0 %
Copy CRC 985156BE
Copy OK

Track 6
Filename D:\Christopher Cross - Red Room\06 - Dream Too Loud.wav

Peak level 100.0 %
Track quality 100.0 %
Copy CRC 6D080520
Copy OK

Track 7
Filename D:\Christopher Cross - Red Room\07 - I Know You Well (with Gigi Worth).wav

Peak level 100.0 %
Track quality 99.9 %
Copy CRC 71C214FD
Copy OK

Track 8
Filename D:\Christopher Cross - Red Room\08 - Kind of I Love You.wav

Peak level 100.0 %
Track quality 100.0 %
Copy CRC 2EB57C4D
Copy OK

Track 9
Filename D:\Christopher Cross - Red Room\09 - Curled Around the World.wav

Peak level 100.0 %
Track quality 99.9 %
Copy CRC 4BD189B4
Copy OK

Track 10
Filename D:\Christopher Cross - Red Room\10 - Rainy Day in Vancouver.wav

Peak level 100.0 %
Track quality 100.0 %
Copy CRC B60D5560
Copy OK

No errors occured


End of status report

foobar2000 1.1.16 / Dynamic Range Meter 1.1.1
log date: 2012-11-16 12:07:05

––––––––––––––––––––––––––––––––––––––––
Analyzed: Christopher Cross / Red Room
––––––––––––––––––––––––––––––––––––––––

DR Peak RMS Duration Track
––––––––––––––––––––––––––––––––––––––––
DR7 0.00 dB -9.76 dB 3:48 01-In a Red Room
DR8 0.00 dB -9.99 dB 4:57 02-Walking in Avalon
DR9 0.00 dB -12.17 dB 3:35 03-Hunger
DR8 0.00 dB -9.92 dB 4:07 04-When She Smiles
DR8 0.00 dB -9.01 dB 5:04 05-It's Always Something
DR8 0.00 dB -11.37 dB 4:22 06-Dream Too Loud
DR9 0.00 dB -9.96 dB 4:52 07-I Know You Well (with Gigi Worth)
DR8 0.00 dB -9.66 dB 4:38 08-Kind of I Love You
DR9 0.00 dB -10.09 dB 4:29 09-Curled Around the World
DR9 0.00 dB -10.90 dB 6:51 10-Rainy Day in Vancouver
––––––––––––––––––––––––––––––––––––––––

Number of tracks: 10
Official DR value: DR8

Samplerate: 44100 Hz
Channels: 2
Bits per sample: 16
Bitrate: 822 kbps
Codec: FLAC
================================================================================




Christopher Cross - Albums Collection 1979-2011 (11CD)

Christopher Cross - The Cafe Carlyle Sessions (2008)
EAC | FLAC | Image (Cue&Log) ~ 466 Mb | Mp3 (CBR320) ~ 207 Mb | Scans included
Label: Edel | # 0192272ERE | Time: 01:08:16

The concept for this album came out of my shows in April of 2008 in the legendary Café Carlyle at the Carlyle Hotel in New York. Given the intimacy of the room – eighty seats – I presented the music in a more free, jazz-inflected style quite different from my traditional pop rhythm section format. It is that style which we have tried to recreate for you here.

My old friend and arranger, Chris Walden, has been wanting to produce an album for me in this manner for some time. Chris introduced me to these amazing musicians and the recording sessions were nothing short of magical.

I'm very pleased and excited with this approach to my work; I feel it presents the music with a freshness and honesty that lets the songs speak for themselves, while giving each player ample opportunity to bring his unique talent to the journey.

Tracklist:

01. Never Be The Same (04:59)
02. Deputy Dan (04:32)
03. Swept Away (04:48)
04. Walking In Avalon (05:22)
05. Arthur's Same (04:00)
06. In The Blink Of An Eye (03:52)
07. Think Of Laura (03:24)
08. All Right (04:21)
09. Back Of My Mind (04:36)
10. Sailing (04:59)
11. Open Up My Window (04:45)
12. Driftin' Away (04:52)
13. Words Of Wisdom (04:55)
14. Ride Like The Wind (04:49)
15. Talking In My Sleep (03:55)


Exact Audio Copy V0.99 prebeta 5 from 4. May 2009

EAC extraction logfile from 16. April 2011, 22:14

Christopher Cross / The Cafe Carlyle Sessions

Used drive : TEAC CD-W54E Adapter: 1 ID: 0

Read mode : Secure
Utilize accurate stream : Yes
Defeat audio cache : Yes
Make use of C2 pointers : No

Read offset correction : 685
Overread into Lead-In and Lead-Out : No
Fill up missing offset samples with silence : Yes
Delete leading and trailing silent blocks : No
Null samples used in CRC calculations : Yes
Used interface : Native Win32 interface for Win NT & 2000

Used output format : User Defined Encoder
Selected bitrate : 1024 kBit/s
Quality : High
Add ID3 tag : No
Command line compressor : E:\Program Files\FLAC\flac.exe
Additional command line options : -V -8 -T "artist=%a" -T "title=%t" -T "album=%g" -T "date=%y" -T "tracknumber=%n" -T "genre=%m" %s


TOC of the extracted CD

Track | Start | Length | Start sector | End sector
––––––––––––––––––––––––––––-
1 | 0:00.00 | 4:59.37 | 0 | 22461
2 | 4:59.37 | 4:32.13 | 22462 | 42874
3 | 9:31.50 | 4:48.46 | 42875 | 64520
4 | 14:20.21 | 5:22.26 | 64521 | 88696
5 | 19:42.47 | 4:00.32 | 88697 | 106728
6 | 23:43.04 | 3:52.30 | 106729 | 124158
7 | 27:35.34 | 3:24.62 | 124159 | 139520
8 | 31:00.21 | 4:21.55 | 139521 | 159150
9 | 35:22.01 | 4:36.04 | 159151 | 179854
10 | 39:58.05 | 4:59.24 | 179855 | 202303
11 | 44:57.29 | 4:45.16 | 202304 | 223694
12 | 49:42.45 | 4:52.13 | 223695 | 245607
13 | 54:34.58 | 4:55.18 | 245608 | 267750
14 | 59:30.01 | 4:49.40 | 267751 | 289465
15 | 64:19.41 | 3:55.54 | 289466 | 307144


Range status and errors

Selected range

Filename G:\torrents\rutracker\_UP\Christopher Cross - The Cafe Carlyle Sessions.wav

Peak level 98.8 %
Range quality 100.0 %
Test CRC F44E013B
Copy CRC F44E013B
Copy OK

No errors occurred


AccurateRip summary

Track 1 accurately ripped (confidence 17) [E92758DF]
Track 2 accurately ripped (confidence 17) [7E9C5FCA]
Track 3 accurately ripped (confidence 17) [A3923797]
Track 4 accurately ripped (confidence 17) [EB1A7C9C]
Track 5 accurately ripped (confidence 17) [FEBBD2D5]
Track 6 accurately ripped (confidence 17) [49FC6FA1]
Track 7 accurately ripped (confidence 17) [0D7FAF96]
Track 8 accurately ripped (confidence 17) [D68FC969]
Track 9 accurately ripped (confidence 17) [CC0CA0B4]
Track 10 accurately ripped (confidence 17) [40456034]
Track 11 accurately ripped (confidence 17) [1DC30D52]
Track 12 accurately ripped (confidence 17) [027E7981]
Track 13 accurately ripped (confidence 17) [E92B3E5C]
Track 14 accurately ripped (confidence 17) [4B6CE07E]
Track 15 accurately ripped (confidence 16) [280FECE2]

All tracks accurately ripped

End of status report

foobar2000 1.1.16 / Dynamic Range Meter 1.1.1
log date: 2012-11-16 12:07:25

––––––––––––––––––––––––––––––––––––––––
Analyzed: Christopher Cross / The Cafe Carlyle Sessions
––––––––––––––––––––––––––––––––––––––––

DR Peak RMS Duration Track
––––––––––––––––––––––––––––––––––––––––
DR8 -0.10 dB -9.57 dB 4:59 01-Never Be The Same
DR8 -0.10 dB -9.58 dB 4:32 02-Deputy Dan
DR8 -0.10 dB -10.51 dB 4:49 03-Swept Away
DR8 -0.10 dB -9.63 dB 5:22 04-Walking In Avalon
DR8 -0.10 dB -10.26 dB 4:00 05-Arthur's Same
DR8 -0.12 dB -9.89 dB 3:52 06-In The Blink Of An Eye
DR9 -0.21 dB -11.09 dB 3:25 07-Think Of Laura
DR8 -0.10 dB -9.76 dB 4:22 08-All Right
DR8 -0.10 dB -10.32 dB 4:36 09-Back Of My Mind
DR9 -0.10 dB -12.33 dB 4:59 10-Sailing
DR8 -0.17 dB -10.42 dB 4:45 11-Open Up My Window
DR8 -0.10 dB -10.34 dB 4:52 12-Driftin' Away
DR10 -0.15 dB -12.45 dB 4:55 13-Words Of Wisdom
DR8 -0.10 dB -9.43 dB 4:50 14-Ride Like The Wind
DR9 -0.14 dB -11.37 dB 3:56 15-Talking In My Sleep
––––––––––––––––––––––––––––––––––––––––

Number of tracks: 15
Official DR value: DR8

Samplerate: 44100 Hz
Channels: 2
Bits per sample: 16
Bitrate: 851 kbps
Codec: FLAC
================================================================================

Original releaser - geen_61



Christopher Cross - Albums Collection 1979-2011 (11CD)

Christopher Cross - Christmas Time Is Here (2010)
EAC | FLAC | Image (Cue&Log) ~ 246 Mb | Mp3 (CBR320) ~ 101 Mb | Scans included
Label: Edel Germany GmbH, Ear-Music | # 0206169ERE | Time: 00:42:17

Christmas Time is Here album by Christopher Cross was released Nov 30, 2010 on the Ear label. .2010 holiday release from the Soft Rock veteran. This is an album that goes back to the old tradition of Christmas music, capturing the richness of the melodies and the emotional feeling of such standards as 'Silent Night' and many others performed and arranged by Cross in a way that only top stars can offer.

Tracklist:

01. Silent Night (01:24)
02. Christmas time Is Here (03:05)
03. The Christmas Song (03:10)
04. Does It Feel Like Christmas (02:57)
05. Little Drummer Boy (03:13)
06. I'll Be Home For Christmas (03:01)
07. A Dream Of Peace At Christmastime (03:28)
08. Count You Blessings Instead Of Sheep (03:42)
09. Do You Hear What I Hear (04:44)
10. The Best Christmas (04:09)
11. Have Yourself A Merry Little Christmas (03:49)
12. O Come O Come Emmanuel (05:31)


Exact Audio Copy V0.99 prebeta 5 from 4. May 2009

EAC extraction logfile from 11. June 2011, 8:46

Christopher Cross / Christmas time is here

Used drive : TEAC CD-W54E Adapter: 1 ID: 0

Read mode : Secure
Utilize accurate stream : Yes
Defeat audio cache : Yes
Make use of C2 pointers : No

Read offset correction : 685
Overread into Lead-In and Lead-Out : No
Fill up missing offset samples with silence : Yes
Delete leading and trailing silent blocks : No
Null samples used in CRC calculations : Yes
Used interface : Native Win32 interface for Win NT & 2000

Used output format : Internal WAV Routines
Sample format : 44.100 Hz; 16 Bit; Stereo


TOC of the extracted CD

Track | Start | Length | Start sector | End sector
––––––––––––––––––––––––––––-
1 | 0:00.00 | 1:24.45 | 0 | 6344
2 | 1:24.45 | 3:06.19 | 6345 | 20313
3 | 4:30.64 | 3:10.18 | 20314 | 34581
4 | 7:41.07 | 2:57.65 | 34582 | 47921
5 | 10:38.72 | 3:14.05 | 47922 | 62476
6 | 13:53.02 | 3:02.24 | 62477 | 76150
7 | 16:55.26 | 3:28.51 | 76151 | 91801
8 | 20:24.02 | 3:42.47 | 91802 | 108498
9 | 24:06.49 | 4:44.57 | 108499 | 129855
10 | 28:51.31 | 4:09.67 | 129856 | 148597
11 | 33:01.23 | 3:50.02 | 148598 | 165849
12 | 36:51.25 | 5:31.26 | 165850 | 190700


Range status and errors

Selected range

Filename H:\Christopher Cross - Christmas time is here.wav

Peak level 99.8 %
Range quality 100.0 %
Test CRC 9BD5CEA2
Copy CRC 9BD5CEA2
Copy OK

No errors occurred


AccurateRip summary

Track 1 cannot be verified as accurate (confidence 1) [9F4C9232], AccurateRip returned [AA813B94]
Track 2 cannot be verified as accurate (confidence 1) [01FD3E3B], AccurateRip returned [D14AB9E1]
Track 3 cannot be verified as accurate (confidence 1) [A29E8861], AccurateRip returned [1C2E901D]
Track 4 cannot be verified as accurate (confidence 1) [83764D15], AccurateRip returned [11AC7FF3]
Track 5 cannot be verified as accurate (confidence 1) [389F8BA6], AccurateRip returned [E728C618]
Track 6 cannot be verified as accurate (confidence 1) [AF9B8C06], AccurateRip returned [D44DACF2]
Track 7 cannot be verified as accurate (confidence 1) [EF5E8874], AccurateRip returned [EE83015E]
Track 8 cannot be verified as accurate (confidence 1) [8D139577], AccurateRip returned [DBE362BD]
Track 9 cannot be verified as accurate (confidence 1) [E71B6795], AccurateRip returned [F60B0383]
Track 10 cannot be verified as accurate (confidence 1) [FF631AFC], AccurateRip returned [C776A904]
Track 11 cannot be verified as accurate (confidence 1) [0799CA98], AccurateRip returned [161AA2EC]
Track 12 cannot be verified as accurate (confidence 1) [75696686], AccurateRip returned [CB18F346]

No tracks could be verified as accurate
You may have a different pressing from the one(s) in the database

End of status report

foobar2000 1.1.16 / Dynamic Range Meter 1.1.1
log date: 2012-11-16 12:07:38

––––––––––––––––––––––––––––––––––––––––
Analyzed: Christopher Cross / Christmas time is here
––––––––––––––––––––––––––––––––––––––––

DR Peak RMS Duration Track
––––––––––––––––––––––––––––––––––––––––
DR7 -0.01 dB -10.85 dB 1:25 01-Silent Night
DR9 -0.10 dB -10.50 dB 3:06 02-Christmas time Is Here
DR8 -0.10 dB -9.55 dB 3:10 03-The Christmas Song
DR7 -0.10 dB -9.58 dB 2:58 04-Does It Feel Like Christmas
DR8 -0.10 dB -10.92 dB 3:14 05-Little Drummer Boy
DR8 -0.10 dB -10.05 dB 3:02 06-I'll Be Home For Christmas
DR7 -0.01 dB -9.22 dB 3:29 07-A Dream Of Peace At Christmastime
DR8 -0.10 dB -10.57 dB 3:43 08-Count You Blessings Instead Of Sheep
DR9 -0.10 dB -10.68 dB 4:45 09-Do You Hear What I Hear
DR8 -0.10 dB -10.74 dB 4:10 10-The Best Christmas
DR9 -0.10 dB -11.50 dB 3:50 11-Have Yourself A Merry Little Christmas
DR8 -0.10 dB -11.42 dB 5:31 12-O Come O Come Emmanuel
––––––––––––––––––––––––––––––––––––––––

Number of tracks: 12
Official DR value: DR8

Samplerate: 44100 Hz
Channels: 2
Bits per sample: 16
Bitrate: 797 kbps
Codec: FLAC
================================================================================

Original releaser - geen_61



Christopher Cross - Albums Collection 1979-2011 (11CD)

Christopher Cross - Doctor Faith (2011)
EAC | FLAC | Image (Cue&Log) ~ 349 Mb | Mp3 (CBR320) ~ 132 Mb | Scans included
Label: Edel Germany GmbH, Ear-Music | # 0205682ERE | Time: 00:53:15

Christopher Cross's career arc reminds me a bit of Peter Frampton's as they both had iconic, multi-million selling albums containing hit songs that still get regular radio airplay to this day. In the years following those explosive albums, both artists' cooled off from the white hot glare of the spotlight within the changing musical landscape. Christopher & Peter have both continued to tour and release new music over the years while staying dedicated to their artistry & craft. And after all this time, Frampton even won his first Grammy for an instrumental album he put out in 2006.

Christopher Cross has also stayed busy since the Grammy filled heyday of "Sailing" & "Ride Like The Wind" releasing 7 additional albums along with a greatest hits collection, a Christmas album and 2008's exquisite "Café Carlyle Sessions" featuring tasteful, scaled down jazz arrangements of his work throughout the years. That brings us to his newest full album of original material in 12 years titled DOCTOR FAITH. The immediate observation is that Christopher isn't trying to come off like he's still 29. There's a wisdom and social consciousness within tracks like "Hey Kid"(featuring Eric Johnson on lead guitar) and "I'm Too Old For This" that shines a sorely needed light on how our culture accepts the previously unacceptable. While this subject matter isn't usually what's expected on a Christopher Cross album, he and co-writer Rob Meurer execute this slippery slope with a fearless grace and truth. The track "When You Come Home" returns listeners to more familiar, romantic waters with the gorgeous strings and plaintive melody of a man looking for redemption and a second chance in his relationship. "November" is a delicate, bittersweet ballad about a couple coming to an end. The uptempo "Leave It To Me" with its tip of the hat to the Chicago horn section tells the story of a poorly treated woman's male "pal" lending his support and possibly more. The song "Doctor Faith" re-teams Christopher Cross and Michael McDonald on a track about the struggles of therapy and the search for inner peace as life is not always "sailing" seamlessly. Other strong songs on the album include the amorous "Rescue", the quiet struggle of "Still I Resist" and the simple eloquence of "Prayin'". All songs were composed by Cross and his writing partner Rob Meurer.

Almost 32 years after he first hit the scene, Christopher's amazing voice has not aged a day and still expresses melodic imagery with a clean resonance and unblemished tone. Cross's lead guitar work is the only element that leaves me pining for more on this album. Other musicians contributing masterfully are Dave Beyer on drums, Mark Browne on bass, David Mann on soprano sax & John Thomas on piano. The lustrous strings and horns are arranged by Chris Walden and conducted by Walden & Jules Chakin. DOCTOR FAITH was produced by Christopher Cross

Listeners rediscovering Cross from 30 years ago will notice differences in the tone, subject and feel of this album. If they try to listen with "fresh ears" and without nostalgic expectations, they'll be treated to the work of a true artist in his stride.

Review by Scott Gross, Musicast.com


Tracklist:

01. Hey kid (03:32)
02. I'm too old for this (04:15)
03. When you come home (04:26)
04. Dreamers (04:01)
05. November (03:25)
06. Leave it to me (03:53)
07. Doctor Faith (03:51)
08. Rescue (04:33)
09. Help me cry (04:29)
10. Still I resist (04:51)
11. Poor man's ecstasy (03:40)
12. Everything (04:37)
13. Prayin' (03:20)


Exact Audio Copy V0.99 prebeta 5 from 4. May 2009

EAC extraction logfile from 11. June 2011, 9:30

Christopher Cross / Doctor Faith

Used drive : TEAC CD-W54E Adapter: 1 ID: 0

Read mode : Secure
Utilize accurate stream : Yes
Defeat audio cache : Yes
Make use of C2 pointers : No

Read offset correction : 685
Overread into Lead-In and Lead-Out : No
Fill up missing offset samples with silence : Yes
Delete leading and trailing silent blocks : No
Null samples used in CRC calculations : Yes
Used interface : Native Win32 interface for Win NT & 2000

Used output format : Internal WAV Routines
Sample format : 44.100 Hz; 16 Bit; Stereo


TOC of the extracted CD

Track | Start | Length | Start sector | End sector
––––––––––––––––––––––––––––-
1 | 0:00.00 | 3:34.19 | 0 | 16068
2 | 3:34.19 | 4:17.53 | 16069 | 35396
3 | 7:51.72 | 4:28.48 | 35397 | 55544
4 | 12:20.45 | 4:03.26 | 55545 | 73795
5 | 16:23.71 | 3:27.14 | 73796 | 89334
6 | 19:51.10 | 3:55.29 | 89335 | 106988
7 | 23:46.39 | 3:53.22 | 106989 | 124485
8 | 27:39.61 | 4:35.18 | 124486 | 145128
9 | 32:15.04 | 4:31.65 | 145129 | 165518
10 | 36:46.69 | 4:53.28 | 165519 | 187521
11 | 41:40.22 | 3:42.36 | 187522 | 204207
12 | 45:22.58 | 4:39.65 | 204208 | 225197
13 | 50:02.48 | 3:20.17 | 225198 | 240214


Range status and errors

Selected range

Filename H:\Christopher Cross - Doctor Faith.wav

Peak level 100.0 %
Range quality 100.0 %
Test CRC B0943685
Copy CRC B0943685
Copy OK

No errors occurred


AccurateRip summary

Track 1 cannot be verified as accurate (confidence 2) [A9F4E9CC], AccurateRip returned [88C6BFC6]
Track 2 accurately ripped (confidence 2) [8F081F13]
Track 3 accurately ripped (confidence 2) [F42BBD4D]
Track 4 accurately ripped (confidence 2) [A06F03B4]
Track 5 accurately ripped (confidence 2) [354D7D22]
Track 6 accurately ripped (confidence 2) [5DBF1DFE]
Track 7 accurately ripped (confidence 2) [C4125B9F]
Track 8 accurately ripped (confidence 2) [2BE3CA5E]
Track 9 accurately ripped (confidence 2) [8903573E]
Track 10 accurately ripped (confidence 2) [2265FE0C]
Track 11 accurately ripped (confidence 2) [6BA0F8E3]
Track 12 accurately ripped (confidence 2) [5B41DF3B]
Track 13 accurately ripped (confidence 2) [7F72FEDD]

12 track(s) accurately ripped
1 track(s) could not be verified as accurate

Some tracks could not be verified as accurate

End of status report

foobar2000 1.1.16 / Dynamic Range Meter 1.1.1
log date: 2012-11-16 12:07:54

––––––––––––––––––––––––––––––––––––––––
Analyzed: Christopher Cross / Doctor Faith
––––––––––––––––––––––––––––––––––––––––

DR Peak RMS Duration Track
––––––––––––––––––––––––––––––––––––––––
DR6 -0.10 dB -8.35 dB 3:34 01-Hey kid
DR7 -0.10 dB -8.35 dB 4:18 02-I'm too old for this
DR8 -0.10 dB -9.73 dB 4:29 03-When you come home
DR7 -0.10 dB -9.15 dB 4:03 04-Dreamers
DR8 -0.10 dB -11.35 dB 3:27 05-November
DR8 -0.10 dB -9.36 dB 3:55 06-Leave it to me
DR8 0.00 dB -10.47 dB 3:53 07-Doctor Faith
DR8 0.00 dB -10.29 dB 4:35 08-Rescue
DR8 -0.10 dB -9.55 dB 4:32 09-Help me cry
DR8 0.00 dB -9.53 dB 4:53 10-Still I resist
DR7 -0.10 dB -8.90 dB 3:42 11-Poor man's ecstasy
DR9 -0.10 dB -10.29 dB 4:40 12-Everything
DR11 -0.10 dB -13.03 dB 3:20 13-Prayin'
––––––––––––––––––––––––––––––––––––––––

Number of tracks: 13
Official DR value: DR8

Samplerate: 44100 Hz
Channels: 2
Bits per sample: 16
Bitrate: 889 kbps
Codec: FLAC
================================================================================

Original releaser - geen_61



Christopher Cross - Albums Collection 1979-2011 (11CD)

Christopher Cross - Cross Words: The Best Of Christopher Cross (2011) 2CDs
EAC | FLAC | Tracks (Cue&Log) ~ 934 Mb | Mp3 (CBR320) ~ 360 Mb | Scans included
Label: Music Club Deluxe | # MCDLX519 | Time: 02:29:10

2011 two CD collection from the Soft Rock singer/songwriter. Christopher Cross took 1980 by storm, with a multi-million selling debut album, bristling with smash hits such as `Ride Like The Wind', `Never Be The Same' and `Sailing', eventually going on to win an unprecedented Five Grammy Awards. Cross could craft a winning melody and heartfelt, romantic lyric like no other. This top value double CD contains the hits, as well as `Arthur's Theme (The Best That You Can Do)' and choice album tracks from Cross' excellent back catalog.

Tracklist:

CD1:

01. Arthur's Theme (Best That You Can Do) (03:55)
02. Sailing (04:16)
03. Say You'll Be Mine (02:54)
04. Never Be The Same (04:43)
05. No Time For Talk (04:22)
06. Think Of Laura (03:22)
07. Spinning (04:01)
08. Every Turn Of The World (04:03)
09. Love Is Love (In Any Language) (04:28)
10. I Hear You Call (03:43)
11. I Will (Take You Forever) (04:14)
12. Swept Away (04:23)
13. Back Of My Mind (03:56)
14. Don't Say Goodbye (03:38)
15. It's You That Really Matters (04:03)
16. Never Stop Believing (03:57)
17. She Told Me So (04:06)
18. Charm The Snake (04:26)

CD2:

01. Ride Like The Wind (04:31)
02. All Right (04:16)
03. That Girl (03:29)
04. Someday (03:11)
05. Any Old Time (04:03)
06. The Light Is On (04:08)
07. I Really Don't Know Anymore (03:49)
08. Minstrel Gigolo (05:55)
09. Baby Says No (06:04)
10. What Am I Supposed To Believe (04:23)
11. Deal 'Em Again (03:10)
12. Talking In My Sleep (03:35)
13. Nature Of The Game (03:55)
14. Long World (03:32)
15. Words Of Wisdom (05:52)
16. Love Found A Home (03:33)
17. Swing Street (04:15)
18. Just One Look (04:39)


Exact Audio Copy V1.0 beta 2 from 29. April 2011

EAC extraction logfile from 16. August 2011, 7:53

Christopher Cross / Cross Words - The Best Of Christopher Cross

Used drive : HL-DT-STDVD-RAM GSA-H20N Adapter: 3 ID: 0

Read mode : Secure
Utilize accurate stream : Yes
Defeat audio cache : Yes
Make use of C2 pointers : No

Read offset correction : 102
Overread into Lead-In and Lead-Out : No
Fill up missing offset samples with silence : Yes
Delete leading and trailing silent blocks : No
Null samples used in CRC calculations : Yes
Used interface : Installed external ASPI interface
Gap handling : Appended to previous track

Used output format : Internal WAV Routines
Sample format : 44.100 Hz; 16 Bit; Stereo


TOC of the extracted CD

Track | Start | Length | Start sector | End sector
––––––––––––––––––––––––––––-
1 | 0:00.00 | 3:55.56 | 0 | 17680
2 | 3:55.56 | 4:16.26 | 17681 | 36906
3 | 8:12.07 | 2:54.67 | 36907 | 50023
4 | 11:06.74 | 4:43.02 | 50024 | 71250
5 | 15:50.01 | 4:22.63 | 71251 | 90963
6 | 20:12.64 | 3:22.67 | 90964 | 106180
7 | 23:35.56 | 4:01.19 | 106181 | 124274
8 | 27:37.00 | 4:03.11 | 124275 | 142510
9 | 31:40.11 | 4:28.37 | 142511 | 162647
10 | 36:08.48 | 3:43.63 | 162648 | 179435
11 | 39:52.36 | 4:14.31 | 179436 | 198516
12 | 44:06.67 | 4:23.03 | 198517 | 218244
13 | 48:29.70 | 3:56.22 | 218245 | 235966
14 | 52:26.17 | 3:38.70 | 235967 | 252386
15 | 56:05.12 | 4:03.00 | 252387 | 270611
16 | 60:08.12 | 3:57.72 | 270612 | 288458
17 | 64:06.09 | 4:06.46 | 288459 | 306954
18 | 68:12.55 | 4:26.11 | 306955 | 326915


Track 1

Filename C:\rips\Christopher Cross\Cross Words - The Best Of Christopher Cross\01 - Arthur's Theme (Best That You Can Do).wav

Pre-gap length 0:00:02.00

Peak level 89.7 %
Extraction speed 1.6 X
Track quality 100.0 %
Test CRC 4B933EC2
Copy CRC 4B933EC2
Track not present in AccurateRip database
Copy OK

Track 2

Filename C:\rips\Christopher Cross\Cross Words - The Best Of Christopher Cross\02 - Sailing.wav

Pre-gap length 0:00:01.00

Peak level 99.9 %
Extraction speed 1.9 X
Track quality 100.0 %
Test CRC 678E6111
Copy CRC 678E6111
Track not present in AccurateRip database
Copy OK

Track 3

Filename C:\rips\Christopher Cross\Cross Words - The Best Of Christopher Cross\03 - Say You'll Be Mine.wav

Pre-gap length 0:00:01.00

Peak level 93.3 %
Extraction speed 1.8 X
Track quality 100.0 %
Test CRC 6FD91653
Copy CRC 6FD91653
Track not present in AccurateRip database
Copy OK

Track 4

Filename C:\rips\Christopher Cross\Cross Words - The Best Of Christopher Cross\04 - Never Be The Same.wav

Pre-gap length 0:00:01.00

Peak level 100.0 %
Extraction speed 2.1 X
Track quality 100.0 %
Test CRC 78BECFEE
Copy CRC 78BECFEE
Track not present in AccurateRip database
Copy OK

Track 5

Filename C:\rips\Christopher Cross\Cross Words - The Best Of Christopher Cross\05 - No Time For Talk.wav

Pre-gap length 0:00:01.00

Peak level 91.8 %
Extraction speed 2.2 X
Track quality 100.0 %
Test CRC CA516550
Copy CRC CA516550
Track not present in AccurateRip database
Copy OK

Track 6

Filename C:\rips\Christopher Cross\Cross Words - The Best Of Christopher Cross\06 - Think Of Laura.wav

Pre-gap length 0:00:01.00

Peak level 100.0 %
Extraction speed 2.2 X
Track quality 100.0 %
Test CRC 9B2EDC23
Copy CRC 9B2EDC23
Track not present in AccurateRip database
Copy OK

Track 7

Filename C:\rips\Christopher Cross\Cross Words - The Best Of Christopher Cross\07 - Spinning.wav

Pre-gap length 0:00:01.00

Peak level 100.0 %
Extraction speed 2.4 X
Track quality 100.0 %
Test CRC D7D16CF9
Copy CRC D7D16CF9
Track not present in AccurateRip database
Copy OK

Track 8

Filename C:\rips\Christopher Cross\Cross Words - The Best Of Christopher Cross\08 - Everty Turn Of The World.wav

Pre-gap length 0:00:01.00

Peak level 98.8 %
Extraction speed 2.5 X
Track quality 100.0 %
Test CRC 6A86D62F
Copy CRC 6A86D62F
Track not present in AccurateRip database
Copy OK

Track 9

Filename C:\rips\Christopher Cross\Cross Words - The Best Of Christopher Cross\09 - Love Is Love (In Any Language).wav

Pre-gap length 0:00:01.00

Peak level 100.0 %
Extraction speed 2.7 X
Track quality 100.0 %
Test CRC C0E0EA41
Copy CRC C0E0EA41
Track not present in AccurateRip database
Copy OK

Track 10

Filename C:\rips\Christopher Cross\Cross Words - The Best Of Christopher Cross\10 - I Hear You Call.wav

Pre-gap length 0:00:01.00

Peak level 100.0 %
Extraction speed 2.7 X
Track quality 100.0 %
Test CRC F76EB3F7
Copy CRC F76EB3F7
Track not present in AccurateRip database
Copy OK

Track 11

Filename C:\rips\Christopher Cross\Cross Words - The Best Of Christopher Cross\11 - I Will (Take You Forever).wav

Pre-gap length 0:00:01.00

Peak level 100.0 %
Extraction speed 2.8 X
Track quality 100.0 %
Test CRC 794F31B3
Copy CRC 794F31B3
Track not present in AccurateRip database
Copy OK

Track 12

Filename C:\rips\Christopher Cross\Cross Words - The Best Of Christopher Cross\12 - Swept Away.wav

Pre-gap length 0:00:01.00

Peak level 100.0 %
Extraction speed 3.0 X
Track quality 100.0 %
Test CRC 70FD4FEB
Copy CRC 70FD4FEB
Track not present in AccurateRip database
Copy OK

Track 13

Filename C:\rips\Christopher Cross\Cross Words - The Best Of Christopher Cross\13 - Back Of My Mind.wav

Pre-gap length 0:00:01.00

Peak level 96.2 %
Extraction speed 3.1 X
Track quality 100.0 %
Test CRC FE17C96C
Copy CRC FE17C96C
Track not present in AccurateRip database
Copy OK

Track 14

Filename C:\rips\Christopher Cross\Cross Words - The Best Of Christopher Cross\14 - Don't Say Goodbye.wav

Pre-gap length 0:00:01.00

Peak level 100.0 %
Extraction speed 3.1 X
Track quality 100.0 %
Test CRC 3AE9745C
Copy CRC 3AE9745C
Track not present in AccurateRip database
Copy OK

Track 15

Filename C:\rips\Christopher Cross\Cross Words - The Best Of Christopher Cross\15 - It's You That Really Matters.wav

Pre-gap length 0:00:01.00

Peak level 95.6 %
Extraction speed 2.8 X
Track quality 99.9 %
Test CRC 1AE8F425
Copy CRC 1AE8F425
Track not present in AccurateRip database
Copy OK

Track 16

Filename C:\rips\Christopher Cross\Cross Words - The Best Of Christopher Cross\16 - Never Stop Believing.wav

Pre-gap length 0:00:01.00

Peak level 93.4 %
Extraction speed 3.3 X
Track quality 100.0 %
Test CRC B3C7C712
Copy CRC B3C7C712
Track not present in AccurateRip database
Copy OK

Track 17

Filename C:\rips\Christopher Cross\Cross Words - The Best Of Christopher Cross\17 - She Told Me So.wav

Pre-gap length 0:00:01.00

Peak level 88.1 %
Extraction speed 3.4 X
Track quality 100.0 %
Test CRC E5CD664A
Copy CRC E5CD664A
Track not present in AccurateRip database
Copy OK

Track 18

Filename C:\rips\Christopher Cross\Cross Words - The Best Of Christopher Cross\18 - Charm The Snake.wav

Pre-gap length 0:00:01.00

Peak level 100.0 %
Extraction speed 3.5 X
Track quality 100.0 %
Test CRC 7579FFB1
Copy CRC 7579FFB1
Track not present in AccurateRip database
Copy OK


None of the tracks are present in the AccurateRip database

No errors occurred

End of status report

==== Log checksum 38FAB12378FB759F9DB1092719DB2A089A2C96CA21211D08E9229C8BCB6AC416 ====

foobar2000 1.1.16 / Dynamic Range Meter 1.1.1
log date: 2012-11-16 12:08:15

––––––––––––––––––––––––––––––––––––––––
Analyzed: Christopher Cross / Cross Words - The Best Of Christopher Cross
––––––––––––––––––––––––––––––––––––––––

DR Peak RMS Duration Track
––––––––––––––––––––––––––––––––––––––––
DR11 -0.94 dB -14.53 dB 3:56 01-Arthur's Theme (Best That You Can Do)
DR13 -0.01 dB -16.71 dB 4:16 02-Sailing
DR11 -0.60 dB -14.17 dB 2:55 03-Say You'll Be Mine
DR13 0.00 dB -15.47 dB 4:43 04-Never Be The Same
DR11 -0.74 dB -14.67 dB 4:23 05-No Time For Talk
DR13 0.00 dB -16.01 dB 3:23 06-Think Of Laura
DR14 0.00 dB -17.16 dB 4:01 07-Spinning
DR12 -0.10 dB -13.42 dB 4:03 08-Every Turn Of The World
DR14 0.00 dB -16.07 dB 4:28 09-Love Is Love (In Any Language)
DR13 0.00 dB -14.36 dB 3:44 10-I Hear You Call
DR14 0.00 dB -16.84 dB 4:14 11-I Will (Take You Forever)
DR15 0.00 dB -17.55 dB 4:23 12-Swept Away
DR15 -0.33 dB -18.08 dB 3:56 13-Back Of My Mind
DR13 0.00 dB -15.57 dB 3:39 14-Don't Say Goodbye
DR13 -0.39 dB -16.21 dB 4:03 15-It's You That Really Matters
DR14 -0.59 dB -16.69 dB 3:58 16-Never Stop Believing
DR12 -1.10 dB -15.05 dB 4:07 17-She Told Me So
DR13 0.00 dB -14.60 dB 4:26 18-Charm The Snake
––––––––––––––––––––––––––––––––––––––––

Number of tracks: 18
Official DR value: DR13

Samplerate: 44100 Hz
Channels: 2
Bits per sample: 16
Bitrate: 978 kbps
Codec: FLAC
================================================================================

Exact Audio Copy V1.0 beta 2 from 29. April 2011

EAC extraction logfile from 17. August 2011, 5:59

Christopher Cross / Cross Words - The Best Of Christopher Cross

Used drive : HL-DT-STDVD-RAM GSA-H20N Adapter: 3 ID: 0

Read mode : Secure
Utilize accurate stream : Yes
Defeat audio cache : Yes
Make use of C2 pointers : No

Read offset correction : 102
Overread into Lead-In and Lead-Out : No
Fill up missing offset samples with silence : Yes
Delete leading and trailing silent blocks : No
Null samples used in CRC calculations : Yes
Used interface : Installed external ASPI interface
Gap handling : Appended to previous track

Used output format : Internal WAV Routines
Sample format : 44.100 Hz; 16 Bit; Stereo


TOC of the extracted CD

Track | Start | Length | Start sector | End sector
––––––––––––––––––––––––––––-
1 | 0:00.00 | 4:31.56 | 0 | 20380
2 | 4:31.56 | 4:16.16 | 20381 | 39596
3 | 8:47.72 | 3:29.16 | 39597 | 55287
4 | 12:17.13 | 3:11.64 | 55288 | 69676
5 | 15:29.02 | 4:03.50 | 69677 | 87951
6 | 19:32.52 | 4:08.47 | 87952 | 106598
7 | 23:41.24 | 3:49.70 | 106599 | 123843
8 | 27:31.19 | 5:55.29 | 123844 | 150497
9 | 33:26.48 | 6:04.63 | 150498 | 177860
10 | 39:31.36 | 4:23.70 | 177861 | 197655
11 | 43:55.31 | 3:10.37 | 197656 | 211942
12 | 47:05.68 | 3:35.70 | 211943 | 228137
13 | 50:41.63 | 3:55.48 | 228138 | 245810
14 | 54:37.36 | 3:32.28 | 245811 | 261738
15 | 58:09.64 | 5:52.46 | 261739 | 288184
16 | 64:02.35 | 3:33.51 | 288185 | 304210
17 | 67:36.11 | 4:15.56 | 304211 | 323391
18 | 71:51.67 | 4:39.18 | 323392 | 344334


Track 1

Filename C:\rips\Christopher Cross\Cross Words - The Best Of Christopher Cross\01 - Ride Like The Wind.wav

Pre-gap length 0:00:02.00

Peak level 99.9 %
Extraction speed 1.8 X
Track quality 100.0 %
Test CRC B8488E08
Copy CRC B8488E08
Track not present in AccurateRip database
Copy OK

Track 2

Filename C:\rips\Christopher Cross\Cross Words - The Best Of Christopher Cross\02 - All Right.wav

Pre-gap length 0:00:01.00

Peak level 98.8 %
Extraction speed 2.0 X
Track quality 100.0 %
Test CRC 6B8B5941
Copy CRC 6B8B5941
Track not present in AccurateRip database
Copy OK

Track 3

Filename C:\rips\Christopher Cross\Cross Words - The Best Of Christopher Cross\03 - That Girl.wav

Pre-gap length 0:00:01.00

Peak level 96.6 %
Extraction speed 2.0 X
Track quality 100.0 %
Test CRC 92D9053C
Copy CRC 92D9053C
Track not present in AccurateRip database
Copy OK

Track 4

Filename C:\rips\Christopher Cross\Cross Words - The Best Of Christopher Cross\04 - Someday.wav

Pre-gap length 0:00:01.00

Peak level 98.8 %
Extraction speed 2.1 X
Track quality 100.0 %
Test CRC D51EEBC7
Copy CRC D51EEBC7
Track not present in AccurateRip database
Copy OK

Track 5

Filename C:\rips\Christopher Cross\Cross Words - The Best Of Christopher Cross\05 - Any Old Time.wav

Pre-gap length 0:00:01.00

Peak level 98.0 %
Extraction speed 2.0 X
Track quality 99.9 %
Test CRC 898C306A
Copy CRC 898C306A
Track not present in AccurateRip database
Copy OK

Track 6

Filename C:\rips\Christopher Cross\Cross Words - The Best Of Christopher Cross\06 - The Light Is On.wav

Pre-gap length 0:00:01.00

Peak level 98.8 %
Extraction speed 2.1 X
Track quality 99.9 %
Test CRC 6C12F305
Copy CRC 6C12F305
Track not present in AccurateRip database
Copy OK

Track 7

Filename C:\rips\Christopher Cross\Cross Words - The Best Of Christopher Cross\07 - I Really Don't Know Anymore.wav

Pre-gap length 0:00:01.00

Peak level 98.8 %
Extraction speed 2.4 X
Track quality 100.0 %
Test CRC 9635B17D
Copy CRC 9635B17D
Track not present in AccurateRip database
Copy OK

Track 8

Filename C:\rips\Christopher Cross\Cross Words - The Best Of Christopher Cross\08 - Minstrel Gigolo.wav

Pre-gap length 0:00:01.00

Peak level 97.6 %
Extraction speed 2.6 X
Track quality 100.0 %
Test CRC 7E948051
Copy CRC 7E948051
Track not present in AccurateRip database
Copy OK

Track 9

Filename C:\rips\Christopher Cross\Cross Words - The Best Of Christopher Cross\09 - Baby Says No.wav

Pre-gap length 0:00:01.00

Peak level 96.6 %
Extraction speed 2.7 X
Track quality 99.9 %
Test CRC 4B76E82D
Copy CRC 4B76E82D
Track not present in AccurateRip database
Copy OK

Track 10

Filename C:\rips\Christopher Cross\Cross Words - The Best Of Christopher Cross\10 - What Am I Supposed To Believe.wav

Pre-gap length 0:00:01.00

Peak level 96.6 %
Extraction speed 2.6 X
Track quality 99.9 %
Test CRC 434D8E8C
Copy CRC 434D8E8C
Track not present in AccurateRip database
Copy OK

Track 11

Filename C:\rips\Christopher Cross\Cross Words - The Best Of Christopher Cross\11 - Deal 'Em Again.wav

Pre-gap length 0:00:01.00

Peak level 95.5 %
Extraction speed 2.9 X
Track quality 100.0 %
Test CRC 69339664
Copy CRC 69339664
Track not present in AccurateRip database
Copy OK

Track 12

Filename C:\rips\Christopher Cross\Cross Words - The Best Of Christopher Cross\12 - Talking In My Sleep.wav

Pre-gap length 0:00:01.00

Peak level 96.6 %
Extraction speed 3.0 X
Track quality 100.0 %
Test CRC 95002518
Copy CRC 95002518
Track not present in AccurateRip database
Copy OK

Track 13

Filename C:\rips\Christopher Cross\Cross Words - The Best Of Christopher Cross\13 - Nature Of The Game.wav

Pre-gap length 0:00:01.00

Peak level 96.6 %
Extraction speed 3.2 X
Track quality 100.0 %
Test CRC D498E2B6
Copy CRC D498E2B6
Track not present in AccurateRip database
Copy OK

Track 14

Filename C:\rips\Christopher Cross\Cross Words - The Best Of Christopher Cross\14 - Long World.wav

Pre-gap length 0:00:01.00

Peak level 83.7 %
Extraction speed 3.3 X
Track quality 100.0 %
Test CRC 04ABAA2D
Copy CRC 04ABAA2D
Track not present in AccurateRip database
Copy OK

Track 15

Filename C:\rips\Christopher Cross\Cross Words - The Best Of Christopher Cross\15 - Words Of Wisdom.wav

Pre-gap length 0:00:01.00

Peak level 85.7 %
Extraction speed 3.4 X
Track quality 100.0 %
Test CRC 3F7FA16E
Copy CRC 3F7FA16E
Track not present in AccurateRip database
Copy OK

Track 16

Filename C:\rips\Christopher Cross\Cross Words - The Best Of Christopher Cross\16 - Love Found A Home.wav

Pre-gap length 0:00:01.00

Peak level 87.4 %
Extraction speed 3.4 X
Track quality 100.0 %
Test CRC 782FD20C
Copy CRC 782FD20C
Track not present in AccurateRip database
Copy OK

Track 17

Filename C:\rips\Christopher Cross\Cross Words - The Best Of Christopher Cross\17 - Swing Street.wav

Pre-gap length 0:00:01.00

Peak level 100.0 %
Extraction speed 3.5 X
Track quality 100.0 %
Test CRC D4F88E22
Copy CRC D4F88E22
Track not present in AccurateRip database
Copy OK

Track 18

Filename C:\rips\Christopher Cross\Cross Words - The Best Of Christopher Cross\18 - Just One Look.wav

Pre-gap length 0:00:01.00

Peak level 95.5 %
Extraction speed 3.3 X
Track quality 99.9 %
Test CRC C97F6B2C
Copy CRC C97F6B2C
Track not present in AccurateRip database
Copy OK


None of the tracks are present in the AccurateRip database

No errors occurred

End of status report

==== Log checksum 7326DE016A9CD9A3097A94F19BBDA869BC6DE4332215F9389C0E7115ACE7DFE3 ====

foobar2000 1.1.16 / Dynamic Range Meter 1.1.1
log date: 2012-11-16 12:08:38

––––––––––––––––––––––––––––––––––––––––
Analyzed: Christopher Cross / Cross Words - The Best Of Christopher Cross
––––––––––––––––––––––––––––––––––––––––

DR Peak RMS Duration Track
––––––––––––––––––––––––––––––––––––––––
DR12 -0.01 dB -14.63 dB 4:32 01-Ride Like The Wind
DR11 -0.10 dB -13.48 dB 4:16 02-All Right
DR14 -0.30 dB -15.85 dB 3:29 03-That Girl
DR14 -0.10 dB -16.77 dB 3:12 04-Someday
DR14 -0.17 dB -16.87 dB 4:04 05-Any Old Time
DR14 -0.10 dB -17.45 dB 4:09 06-The Light Is On
DR12 -0.10 dB -14.29 dB 3:50 07-I Really Don't Know Anymore
DR15 -0.20 dB -17.57 dB 5:55 08-Minstrel Gigolo
DR14 -0.30 dB -16.81 dB 6:05 09-Baby Says No
DR14 -0.30 dB -19.21 dB 4:24 10-What Am I Supposed To Believe
DR13 -0.40 dB -15.41 dB 3:10 11-Deal 'Em Again
DR13 -0.30 dB -17.59 dB 3:36 12-Talking In My Sleep
DR13 -0.30 dB -18.23 dB 3:56 13-Nature Of The Game
DR13 -1.54 dB -18.28 dB 3:32 14-Long World
DR11 -1.34 dB -16.13 dB 5:53 15-Words Of Wisdom
DR13 -1.17 dB -16.66 dB 3:34 16-Love Found A Home
DR14 0.00 dB -15.77 dB 4:16 17-Swing Street
DR15 -0.40 dB -18.57 dB 4:39 18-Just One Look
––––––––––––––––––––––––––––––––––––––––

Number of tracks: 18
Official DR value: DR13

Samplerate: 44100 Hz
Channels: 2
Bits per sample: 16
Bitrate: 848 kbps
Codec: FLAC
================================================================================

Original releaser - pedro113



All thanks to original releasers (see CDs info)

More interesting music in My Blog