Tags
Language
Tags
July 2024
Su Mo Tu We Th Fr Sa
30 1 2 3 4 5 6
7 8 9 10 11 12 13
14 15 16 17 18 19 20
21 22 23 24 25 26 27
28 29 30 31 1 2 3

Children of Bodom - I Worship Chaos (2015) [Japanese Edition]

Posted By: gribovar
Children of Bodom - I Worship Chaos (2015) [Japanese Edition]

Children of Bodom - I Worship Chaos (2015) [Japanese Edition]
EAC Rip | FLAC (image+.cue+log) - 459 MB | MP3 CBR 320 kbps (LAME 3.93) - 136 MB | Covers - 117 MB
Genre: Melodic Death Metal | RAR 3% Rec. | Label: Avalon/Marquee Inc. (MIZP-60040)

While Children of Bodom are used to personnel shakeups, the departure of longtime guitarist Roope Latvala before the recording of I Worship Chaos posed a challenge. A member since 2003, he was an integral part of the band's sound. This left vocalist/guitarist Alexi Laiho handling all six-string chores alone for the first time, making this COB's debut as a quartet. It was recorded in a converted warehouse rather than a conventional recording studio, and delivers a more spacious sound. Laiho and bassist Henkka Seppälä tuned half a step lower for each song, resulting in a much darker, heavier attack. Opener "I Hurt" is classic COB with a knotty, technical death metal riff, labyrinthine scalar flights, and piercing melodic interludes. The band's characteristic mastery of rhythmic syncopation is heard best on "My Bodom (I Am the Only One)," with drummer Jaska Raatikainen adding counterpoint as he alternates between martial cadences and blastbeats and the whole tune crisscrosses time signatures. The new bottom-end string throb is most punishing on "Horns" and "Suicide Bomber," insanely tempoed, blackened thrashers heavier than anything COB has recorded in a decade. Keyboardist Janne Wirman becomes more integral to the mix. He adds force to the band's classic melo-tech death metal charge, and provides utterly seductive, sinister atmospherics in these new songs. He can either create swirling chordal backdrops - as on the crunchy, doom-tinged "Prayer for the Afflicted" - or powerful, fleet, single-note exchanges with Laiho - as on the glorious "Morrigan." The latter is a medium-tempo groover and a clear single. Its riff is fueled by an infectious guitar hook as the drums alternate between pronounced swing and double-timed frenzy. It contains a chanted chorus and spiraling crescendoes. This passes for a stadium rock anthem. "All for Nothing" is an outlier even in COB's loopy catalog. It has an Iron Maiden-esque guitar and bass riff, with eloquent acoustic piano lines and transcendent melody atop thundering drums. Laiho delivers a screaming extended solo followed by one from Wirman on synth as they trade lines to take it out. The songwriting on I Worship Chaos is impressive, as if the quartet format forced COB to focus on delivering tunes of real substance before anything else. The performances are equally inspired - the material is so good, it challenge the musicians to pull it off. This is the sound of a grown-up COB; it may not be as unhinged as their earliest records, but it's nearly as misanthropic. This band still has very sharp teeth, a nasty disposition, and a dark, even malevolent sense of humor.
Tracklist:
01. I Hurt
02. My Bodom (I Am the Only One)
03. Morrigan
04. Horns
05. Prayer for the Afflicted
06. I Worship Chaos
07. Hold Your Tongue
08. Suicide Bomber
09. All for Nothing
10. Widdershins
11. Mistress of Taboo (Plasmatics cover) (Bonus track)
12. Danger Zone (Kenny Loggins cover) (Bonus track)
13. Black Winter Day (Amorphis cover) (Bonus track)
14. Cruel Summer (Bananarama cover) (Bonus track)

Total time: 57:47

Exact Audio Copy V1.1 from 23. June 2015

EAC extraction logfile from 27. November 2015, 23:10

Children of Bodom / I Worship Chaos (Japan)

Used drive : ATAPI iHAS122 W Adapter: 2 ID: 0

Read mode : Secure
Utilize accurate stream : Yes
Defeat audio cache : Yes
Make use of C2 pointers : No

Read offset correction : 48
Overread into Lead-In and Lead-Out : No
Fill up missing offset samples with silence : Yes
Delete leading and trailing silent blocks : No
Null samples used in CRC calculations : Yes
Used interface : Installed external ASPI interface

Used output format : User Defined Encoder
Selected bitrate : 1024 kBit/s
Quality : High
Add ID3 tag : No
Command line compressor : C:\Program Files\FLAC\flac.exe
Additional command line options : -V -8 -T "Date=%year%" -T "Genre=%genre%" -T"COMMENT=Ripped by Ilijan" -8 -V %source%


TOC of the extracted CD

Track | Start | Length | Start sector | End sector
––––––––––––––––––––––––––––-
1 | 0:00.00 | 4:29.22 | 0 | 20196
2 | 4:29.22 | 4:19.01 | 20197 | 39622
3 | 8:48.23 | 5:07.00 | 39623 | 62647
4 | 13:55.23 | 3:25.00 | 62648 | 78022
5 | 17:20.23 | 4:55.11 | 78023 | 100158
6 | 22:15.34 | 3:39.70 | 100159 | 116653
7 | 25:55.29 | 4:02.04 | 116654 | 134807
8 | 29:57.33 | 3:33.41 | 134808 | 150823
9 | 33:30.74 | 5:42.46 | 150824 | 176519
10 | 39:13.45 | 5:11.63 | 176520 | 199907
11 | 44:25.33 | 3:37.41 | 199908 | 216223
12 | 48:02.74 | 2:57.68 | 216224 | 229566
13 | 51:00.67 | 3:41.54 | 229567 | 246195
14 | 54:42.46 | 3:04.11 | 246196 | 260006


Range status and errors

Selected range

Filename D:\ilко\Children of Bodom - I Worship Chaos (Japan).wav

Peak level 99.1 %
Extraction speed 3.8 X
Range quality 99.9 %
Test CRC C1C3117C
Copy CRC C1C3117C
Copy OK

No errors occurred


AccurateRip summary

Track 1 accurately ripped (confidence 2) [F5800ED6] (AR v2)
Track 2 accurately ripped (confidence 2) [2A1983ED] (AR v2)
Track 3 accurately ripped (confidence 2) [A08F98E1] (AR v2)
Track 4 accurately ripped (confidence 2) [C4786F44] (AR v2)
Track 5 accurately ripped (confidence 2) [E1FF1CB6] (AR v2)
Track 6 accurately ripped (confidence 2) [4BC991CC] (AR v2)
Track 7 accurately ripped (confidence 2) [47F8FABC] (AR v2)
Track 8 accurately ripped (confidence 2) [54117C1C] (AR v2)
Track 9 accurately ripped (confidence 2) [A98C8A5C] (AR v2)
Track 10 accurately ripped (confidence 2) [2CDE4BA2] (AR v2)
Track 11 accurately ripped (confidence 2) [A6670B91] (AR v2)
Track 12 accurately ripped (confidence 2) [64B640CE] (AR v2)
Track 13 accurately ripped (confidence 2) [443683E7] (AR v2)
Track 14 accurately ripped (confidence 1) [08B7EC62] (AR v2)

All tracks accurately ripped

End of status report

–– CUETools DB Plugin V2.1.6

[CTDB TOCID: ssR1T8hstXSzZcvJbedvAFjMRXc-] found
Submit result: ssR1T8hstXSzZcvJbedvAFjMRXc- has been confirmed
Track | CTDB Status
1 | (22/22) Accurately ripped
2 | (22/22) Accurately ripped
3 | (22/22) Accurately ripped
4 | (22/22) Accurately ripped
5 | (22/22) Accurately ripped
6 | (22/22) Accurately ripped
7 | (22/22) Accurately ripped
8 | (22/22) Accurately ripped
9 | (22/22) Accurately ripped
10 | (22/22) Accurately ripped
11 | (20/22) Accurately ripped
12 | (22/22) Accurately ripped
13 | (22/22) Accurately ripped
14 | (22/22) Accurately ripped


==== Log checksum 480476DAE3CF6A014359C18C366A2E18BF5A7C518C325CC0571FD5E1F63E6442 ====

[CUETools log; Date: 29.05.2023 12:44:14; Version: 2.1.4]
[CTDB TOCID: ssR1T8hstXSzZcvJbedvAFjMRXc-] found.
Track | CTDB Status
1 | (61/61) Accurately ripped
2 | (61/61) Accurately ripped
3 | (61/61) Accurately ripped
4 | (61/61) Accurately ripped
5 | (61/61) Accurately ripped
6 | (61/61) Accurately ripped
7 | (61/61) Accurately ripped
8 | (61/61) Accurately ripped
9 | (61/61) Accurately ripped
10 | (61/61) Accurately ripped
11 | (59/61) Accurately ripped
12 | (61/61) Accurately ripped
13 | (61/61) Accurately ripped
14 | (59/61) Accurately ripped
[AccurateRip ID: 001efefe-0148ba37-c20d8a0e] found.
Track [ CRC | V2 ] Status
01 [2081d0f9|f5800ed6] (00+09/11) Accurately ripped
02 [ff289b83|2a1983ed] (00+10/12) Accurately ripped
03 [9a08dc19|a08f98e1] (00+10/12) Accurately ripped
04 [ee02fe1f|c4786f44] (00+10/12) Accurately ripped
05 [54e8b2de|e1ff1cb6] (00+10/12) Accurately ripped
06 [f2a30df2|4bc991cc] (00+10/12) Accurately ripped
07 [94764528|47f8fabc] (00+10/12) Accurately ripped
08 [177fc488|54117c1c] (00+10/12) Accurately ripped
09 [fd6f53c9|a98c8a5c] (00+10/12) Accurately ripped
10 [2e1d34ff|2cde4ba2] (00+10/12) Accurately ripped
11 [ef962b43|a6670b91] (00+10/12) Accurately ripped
12 [9a20e8f8|64b640ce] (00+10/12) Accurately ripped
13 [9701ef2d|443683e7] (00+10/12) Accurately ripped
14 [33e63da8|08b7ec62] (00+09/11) Accurately ripped
Offsetted by 6:
01 [22ac4af8] (00/11) No match (V2 was not tested)
02 [d73bfc1d] (00/12) No match (V2 was not tested)
03 [e7407f28] (00/12) No match (V2 was not tested)
04 [3b3e1c11] (00/12) No match (V2 was not tested)
05 [fa3686b9] (00/12) No match (V2 was not tested)
06 [a8b2ed3d] (00/12) No match (V2 was not tested)
07 [fe6fd176] (00/12) No match (V2 was not tested)
08 [6597c1c5] (00/12) No match (V2 was not tested)
09 [f21ab17e] (00/12) No match (V2 was not tested)
10 [ad9d1948] (00/12) No match (V2 was not tested)
11 [d937ea90] (00/12) No match (V2 was not tested)
12 [50986a7e] (00/12) No match (V2 was not tested)
13 [7fe3f61d] (00/12) No match (V2 was not tested)
14 [b01219bf] (00/11) No match (V2 was not tested)

Track Peak [ CRC32 ] [W/O NULL] [ LOG ]
– 99,1 [C1C3117C] [9CC244AB] CRC32
01 98,8 [AFF70FEB] [34FDF532]
02 98,8 [18127F01] [EC878608]
03 98,8 [9D1A536C] [7F501673]
04 98,8 [DFB06876] [2BBA51E2]
05 98,8 [98874EFA] [257000F6]
06 98,8 [EEEF67B1] [47BC27F0]
07 98,8 [CB232F0A] [1E0B65DD]
08 98,8 [111715AF] [7962C674]
09 98,8 [5C0897A6] [2FFA81D3]
10 98,8 [F069EFB9] [AD69F898]
11 98,8 [3CE0073A] [787B7808]
12 98,8 [E8C92348] [23686300]
13 98,8 [6DFFE580] [F93DFAB1]
14 99,1 [1060D15B] [C40DB3F8]

Thanks to ilijan