Tags
Language
Tags
July 2024
Su Mo Tu We Th Fr Sa
30 1 2 3 4 5 6
7 8 9 10 11 12 13
14 15 16 17 18 19 20
21 22 23 24 25 26 27
28 29 30 31 1 2 3

Bryn Terfel, Charles Mackerras, Scottish Chamber Orchestra - George Frideric Handel Arias (1997)

Posted By: ArlegZ
Bryn Terfel, Charles Mackerras, Scottish Chamber Orchestra - George Frideric Handel Arias (1997)

Bryn Terfel, Charles Mackerras, Scottish Chamber Orchestra - George Frideric Handel Arias (1997)
EAC | FLAC | Image (Cue & Log) ~ 360 Mb | Total time: 73:24 | Scans included
Classical | Label: Deutsche Grammophon | 453 480-2 | Recorded: 1997

Bryn Terfel has it all. His rich, deep baritone voice is capable of navigating the rapids and doing the vocal leaps and cartwheels that Handel routinely demands of his singers, even the ones with big, deep voices that usually move more slowly. He is Welsh, and in his mastery of words–clarity of projection and precise emotional expression–he calls to mind another great Welsh performer, Richard Burton. This recital, accompanied by Sir Charles Mackerras with skill and sensitivity, runs the whole gamut of Handel's vocal styles, from military bluster (powerfully present in the first aria, "Arm, arm, ye brave") to humble piety (in the second selection, "Vouchsafe, O Lord"). There is erotic awe in "Where'er you walk," comic grotesquerie in "O ruddier than the cherry," and pure splendor in "The trumpet shall sound." A marvelous recital.
–Joe McLellan

Performer:
Bryn Terfel, bass-baritone
Scottish Chamber Orchestra
Sir Charles Mackerras, conductor

Tracklist:
George Frideric Handel (1685-1759)
01. Judas Maccabaeus, HWV 63: I Feel the Deity Within.Arm, Arm Ye Brave
02. Judas Maccabaeus, HWV 63: Arm, Arm Ye Brave
03. Te Deum in D, "Dettingen", HWV 283: Vouchsafe, O Lord
04. Samson, HWV 57: Honour and Arms Scorn Such a Foe
05. Berenice: Si, Tra I Ceppi
06. Alcina: Verdi Prati, Selve Amene
07. Orlando, HWV 31: O Voi, Del Mio Poter
08. Orlando, HWV 31: Sorge Infausta Una Procella
09. Acis and Galatea: "I Rage, I Melt, I Burn!"
10. Acis and Galatea: "O Ruddier Than the Cherry"
11. Semele, HWV 58: Where'er You Walk
12. Alexander's Feast: "Revenge, Revenge, Timotheus Cries" - "Behold, a Ghastly Band"
13. Giulio Cesare: Va Tacito E Nascosto
14. Serse: Recitativo "Frondi Tenere E Belle"
15. Serse: "Ombra Mai Fù"
Messiah:
16. Thus Saith the Lord
17. But Who May Abide the Day of His Coming
18. Why Do the Nations
19. Behold I Tell You
20. The Trumpet Shall Sound


Exact Audio Copy V1.3 from 2. September 2016

EAC extraction logfile from 9. October 2019, 20:10

Bryn Terfel / Handel Arias

Used drive : ATAPI iHAS124 F Adapter: 1 ID: 0

Read mode : Secure
Utilize accurate stream : Yes
Defeat audio cache : Yes
Make use of C2 pointers : No

Read offset correction : 6
Overread into Lead-In and Lead-Out : No
Fill up missing offset samples with silence : Yes
Delete leading and trailing silent blocks : No
Null samples used in CRC calculations : Yes
Used interface : Native Win32 interface for Win NT & 2000

Used output format : User Defined Encoder
Selected bitrate : 1024 kBit/s
Quality : High
Add ID3 tag : No
Command line compressor : C:\Program Files (x86)\Exact Audio Copy\Flac\flac.exe
Additional command line options : -6 -V -T "ARTIST=%artist%" -T "TITLE=%title%" -T "ALBUM=%albumtitle%" -T "DATE=%year%" -T "TRACKNUMBER=%tracknr%" -T "GENRE=%genre%" -T "COMMENT=%comment%" -T "BAND=%albuminterpret%" -T "ALBUMARTIST=%albuminterpret%" -T "COMPOSER=%composer%" %haslyrics%–tag-from-file=LYRICS="%lyricsfile%"%haslyrics% -T "DISCNUMBER=%cdnumber%" -T "TOTALDISCS=%totalcds%" -T "TOTALTRACKS=%numtracks%" %hascover%–picture="%coverfile%"%hascover% %source% -o %dest%


TOC of the extracted CD

Track | Start | Length | Start sector | End sector
––––––––––––––––––––––––––––-
1 | 0:00.00 | 1:05.15 | 0 | 4889
2 | 1:05.15 | 3:25.60 | 4890 | 20324
3 | 4:31.00 | 2:17.00 | 20325 | 30599
4 | 6:48.00 | 5:51.00 | 30600 | 56924
5 | 12:39.00 | 4:17.00 | 56925 | 76199
6 | 16:56.00 | 3:51.00 | 76200 | 93524
7 | 20:47.00 | 1:14.40 | 93525 | 99114
8 | 22:01.40 | 4:39.35 | 99115 | 120074
9 | 26:41.00 | 1:27.37 | 120075 | 126636
10 | 28:08.37 | 3:01.38 | 126637 | 140249
11 | 31:10.00 | 4:37.00 | 140250 | 161024
12 | 35:47.00 | 7:19.00 | 161025 | 193949
13 | 43:06.00 | 6:16.00 | 193950 | 222149
14 | 49:22.00 | 0:46.55 | 222150 | 225654
15 | 50:08.55 | 3:03.20 | 225655 | 239399
16 | 53:12.00 | 1:30.65 | 239400 | 246214
17 | 54:42.65 | 4:20.10 | 246215 | 265724
18 | 59:03.00 | 4:54.00 | 265725 | 287774
19 | 63:57.00 | 0:36.42 | 287775 | 290516
20 | 64:33.42 | 8:51.33 | 290517 | 330374


Range status and errors

Selected range

Filename C:\EACRip\ARIAS\Handel Arias (Bryn Terfel, Charles Mackerras) (1997)\Handel Arias - Bryn Terfel, Charles Mackerras.wav

Peak level 99.1 %
Extraction speed 9.5 X
Range quality 99.9 %
Test CRC CE100CAF
Copy CRC CE100CAF
Copy OK

No errors occurred


AccurateRip summary

Track 1 accurately ripped (confidence 6) [6C78AB3D] (AR v2)
Track 2 accurately ripped (confidence 5) [D0975422] (AR v2)
Track 3 accurately ripped (confidence 5) [5A6F15B9] (AR v2)
Track 4 accurately ripped (confidence 5) [B50C7D31] (AR v2)
Track 5 accurately ripped (confidence 5) [DDEBCCA9] (AR v2)
Track 6 accurately ripped (confidence 5) [220B1831] (AR v2)
Track 7 accurately ripped (confidence 6) [70455D84] (AR v2)
Track 8 accurately ripped (confidence 5) [34FB36AB] (AR v2)
Track 9 accurately ripped (confidence 6) [A2E378FE] (AR v2)
Track 10 accurately ripped (confidence 5) [DF90BE15] (AR v2)
Track 11 accurately ripped (confidence 5) [65880D5C] (AR v2)
Track 12 accurately ripped (confidence 5) [965CBE06] (AR v2)
Track 13 accurately ripped (confidence 5) [590475E3] (AR v2)
Track 14 accurately ripped (confidence 5) [53975200] (AR v2)
Track 15 accurately ripped (confidence 5) [86358F21] (AR v2)
Track 16 accurately ripped (confidence 5) [A7F7B1A1] (AR v2)
Track 17 accurately ripped (confidence 5) [7FE8BA81] (AR v2)
Track 18 accurately ripped (confidence 5) [162664BB] (AR v2)
Track 19 accurately ripped (confidence 5) [C51DB745] (AR v2)
Track 20 accurately ripped (confidence 5) [9FA35B87] (AR v2)

All tracks accurately ripped

End of status report

–– CUETools DB Plugin V2.1.6

[CTDB TOCID: VZ9cYhrL8dNXnCbU.UsRDX1M9fY-] found
Submit result: VZ9cYhrL8dNXnCbU.UsRDX1M9fY- has been confirmed
Track | CTDB Status
1 | (104/106) Accurately ripped
2 | (106/106) Accurately ripped
3 | (106/106) Accurately ripped
4 | (105/106) Accurately ripped
5 | (105/106) Accurately ripped
6 | (104/106) Accurately ripped
7 | (106/106) Accurately ripped
8 | (105/106) Accurately ripped
9 | (106/106) Accurately ripped
10 | (105/106) Accurately ripped
11 | (106/106) Accurately ripped
12 | (105/106) Accurately ripped
13 | (105/106) Accurately ripped
14 | (106/106) Accurately ripped
15 | (105/106) Accurately ripped
16 | (105/106) Accurately ripped
17 | (105/106) Accurately ripped
18 | (105/106) Accurately ripped
19 | (106/106) Accurately ripped
20 | (104/106) Accurately ripped


==== Log checksum 1457B4EA355E70FE439535FAA39A022CD1C636EFE45B5493D9DAAC8D3C4D84EF ====

Bryn Terfel, Charles Mackerras, Scottish Chamber Orchestra - George Frideric Handel Arias (1997)

Thanks to the original releaser