Tags
Language
Tags
July 2024
Su Mo Tu We Th Fr Sa
30 1 2 3 4 5 6
7 8 9 10 11 12 13
14 15 16 17 18 19 20
21 22 23 24 25 26 27
28 29 30 31 1 2 3

Black Sabbath - Anno Domini 1989–1995 (Remastered) (2024)

Posted By: Rtax
Black Sabbath - Anno Domini 1989–1995 (Remastered) (2024)

Black Sabbath - Anno Domini 1989–1995 (Remastered) (2024)
EAC Rip | FLAC (tracks, cue, log) - 1.2 GB | MP3 CBR 320 kbps - 427 MB
3:02:56 | Hard Rock, Heavy Metal | Label: BMG / Rhino

Rhino explores this prolific period from the godfathers of heavy metal in a new collection that brings four albums back into print after an extended absence. ANNO DOMINI 1989-1995 will be available from Rhi
no on May 10 in 4-LP and 4-CD configurations. The set contains newly remastered versions of Headless Cross (1989), Tyr (1990), and Cross Purposes (1994), plus a new version of Forbidden (1995) that guitarist Tony Iommi remixed specially for the collection. Several albums make their vinyl debut in the LP version of ANNO DOMINI, while the CD version contains three exclusive bonus tracks: the B-side “Cloak & Dagger” and the Japan-only releases “What’s The Use” and “Loser Gets It All.” A booklet comes with the set featuring photos, artwork, and liner notes by Hugh Gilmour. The collection also contains a Headless Cross poster and a replica concert book from the “Headless Cross Tour.” ANNO DOMINI picks up Black Sabbath’s story in 1989, two decades and multiple lineup changes into the band’s groundbreaking career as metal originators. At the time, membership had solidified around riffmaster and founding member Tony Iommi, legendary drummer Cozy Powell (Jeff Beck, Rainbow, Whitesnake), singer Tony Martin, and longtime Black Sabbath collaborator and keyboardist Geoff Nicholls (Quartz, Bandy Legs).

Tracklist
Disc: 1
1 The Gates of Hell (2024 Remaster)
2 Headless Cross (2024 Remaster)
3 Devil & Daughter (2024 Remaster)
4 When Death Calls (2024 Remaster)
5 Kill In the Spirit World (2024 Remaster)
6 Call of the Wild (2024 Remaster)
7 Black Moon (2024 Remaster)
8 Nightwing (2024 Remaster)
9 Cloak and Dagger (2024 Remaster)

Disc: 2
1 Anno Mundi (2024 Remaster)
2 The Law Maker (2024 Remaster)
3 Jerusalem (2024 Remaster)
4 The Sabbath Stones (2024 Remaster)
5 The Battle of Tyr (2024 Remaster)
6 Odin's Court (2024 Remaster)
7 Valhalla (2024 Remaster)
8 Feels Good to Me (2024 Remaster)
9 Heaven in Black (2024 Remaster)

Disc: 3
1 I Witness (2024 Remaster)
2 Cross of Thorns (2024 Remaster)
3 Psychophobia (2024 Remaster)
4 Virtual Death (2024 Remaster)
5 Immaculate Deception (2024 Remaster)
6 Dying for Love (2024 Remaster)
7 Back to Eden (2024 Remaster)
8 The Hand That Rocks the Cradle (2024 Remaster)
9 Cardinal Sin (2024 Remaster)
10 Evil Eye (2024 Remaster)
11 What's the Use (2024 Remaster)

Disc: 4
1 The Illusion of Power (2024 Tony Iommi Remix)
2 Get a Grip (2024 Tony Iommi Remix)
3 Can't Get Close Enough (2024 Tony Iommi Remix)
4 Shaking Off the Chains (2024 Tony Iommi Remix)
5 I Won't Cry for You (2024 Tony Iommi Remix)
6 Guilty as Hell (2024 Tony Iommi Remix)
7 Sick and Tired (2024 Tony Iommi Remix)
8 Rusty Angels (2024 Tony Iommi Remix)
9 Forbidden (2024 Tony Iommi Remix)
10 Kiss of Death (2024 Tony Iommi Remix)
11 Loser Gets It All (2024 Tony Iommi Remix)
Exact Audio Copy V1.6 from 23. October 2020

EAC extraction logfile from 10. June 2024, 20:34

Black Sabbath / Headless Cross

Used drive : HL-DT-STBD-RE WH16NS40 Adapter: 1 ID: 1

Read mode : Secure
Utilize accurate stream : Yes
Defeat audio cache : Yes
Make use of C2 pointers : No

Read offset correction : 6
Overread into Lead-In and Lead-Out : No
Fill up missing offset samples with silence : Yes
Delete leading and trailing silent blocks : No
Null samples used in CRC calculations : Yes
Used interface : Native Win32 interface for Win NT & 2000
Gap handling : Appended to previous track

Used output format : User Defined Encoder
Selected bitrate : 1024 kBit/s
Quality : High
Add ID3 tag : No
Command line compressor : C:\Program Files (x86)\Exact Audio Copy\Flac\flac.exe
Additional command line options : -8 –verify -T "ARTIST=%artist%" -T "TITLE=%title%" -T "ALBUM=%albumtitle%" -T "DATE=%year%" -T "GENRE=%genre%" -T "TRACKNUMBER=%tracknr%" -T "TOTALTRACKS=%numtracks%" %source% -T "DISCNUMBER=%cdnumber%" -T "TOTALDISCS=%totalcds%"


TOC of the extracted CD

Track | Start | Length | Start sector | End sector
––––––––––––––––––––––––––––-
1 | 0:00.00 | 1:06.02 | 0 | 4951
2 | 1:06.02 | 6:29.16 | 4952 | 34142
3 | 7:35.18 | 4:44.51 | 34143 | 55493
4 | 12:19.69 | 6:55.46 | 55494 | 86664
5 | 19:15.40 | 5:11.26 | 86665 | 110015
6 | 24:26.66 | 5:18.64 | 110016 | 133929
7 | 29:45.55 | 4:06.18 | 133930 | 152397
8 | 33:51.73 | 6:36.27 | 152398 | 182124
9 | 40:28.25 | 4:39.55 | 182125 | 203104


Track 1

Filename C:\EAC Rips\Black Sabbath - Anno Domini 1989-1995 (2024) [FLAC] {R2 712560}\Disc 1of4\01 - The Gates Of Hell.wav

Pre-gap length 0:00:02.00

Peak level 69.5 %
Extraction speed 3.2 X
Track quality 100.0 %
Test CRC 6EEB6DAC
Copy CRC 6EEB6DAC
Track not present in AccurateRip database
Copy OK

Track 2

Filename C:\EAC Rips\Black Sabbath - Anno Domini 1989-1995 (2024) [FLAC] {R2 712560}\Disc 1of4\02 - Headless Cross.wav

Peak level 97.3 %
Extraction speed 5.0 X
Track quality 100.0 %
Test CRC 97D338DA
Copy CRC 97D338DA
Track not present in AccurateRip database
Copy OK

Track 3

Filename C:\EAC Rips\Black Sabbath - Anno Domini 1989-1995 (2024) [FLAC] {R2 712560}\Disc 1of4\03 - Devil & Daughter.wav

Peak level 97.1 %
Extraction speed 5.5 X
Track quality 100.0 %
Test CRC D3E662AD
Copy CRC D3E662AD
Track not present in AccurateRip database
Copy OK

Track 4

Filename C:\EAC Rips\Black Sabbath - Anno Domini 1989-1995 (2024) [FLAC] {R2 712560}\Disc 1of4\04 - When Death Calls.wav

Peak level 97.7 %
Extraction speed 6.4 X
Track quality 100.0 %
Test CRC 420A4076
Copy CRC 420A4076
Track not present in AccurateRip database
Copy OK

Track 5

Filename C:\EAC Rips\Black Sabbath - Anno Domini 1989-1995 (2024) [FLAC] {R2 712560}\Disc 1of4\05 - Kill In The Spirit World.wav

Peak level 97.7 %
Extraction speed 6.8 X
Track quality 100.0 %
Test CRC 261F4FD4
Copy CRC 261F4FD4
Track not present in AccurateRip database
Copy OK

Track 6

Filename C:\EAC Rips\Black Sabbath - Anno Domini 1989-1995 (2024) [FLAC] {R2 712560}\Disc 1of4\06 - Call Of The Wild.wav

Peak level 96.5 %
Extraction speed 7.2 X
Track quality 100.0 %
Test CRC 6948B64C
Copy CRC 6948B64C
Track not present in AccurateRip database
Copy OK

Track 7

Filename C:\EAC Rips\Black Sabbath - Anno Domini 1989-1995 (2024) [FLAC] {R2 712560}\Disc 1of4\07 - Black Moon.wav

Peak level 97.7 %
Extraction speed 7.4 X
Track quality 100.0 %
Test CRC 8C764F0B
Copy CRC 8C764F0B
Track not present in AccurateRip database
Copy OK

Track 8

Filename C:\EAC Rips\Black Sabbath - Anno Domini 1989-1995 (2024) [FLAC] {R2 712560}\Disc 1of4\08 - Nightwing.wav

Peak level 97.7 %
Extraction speed 8.2 X
Track quality 100.0 %
Test CRC EAD572A3
Copy CRC EAD572A3
Track not present in AccurateRip database
Copy OK

Track 9

Filename C:\EAC Rips\Black Sabbath - Anno Domini 1989-1995 (2024) [FLAC] {R2 712560}\Disc 1of4\09 - Cloak And Dagger.wav

Peak level 97.7 %
Extraction speed 8.3 X
Track quality 100.0 %
Test CRC 6CAEEA49
Copy CRC 6CAEEA49
Track not present in AccurateRip database
Copy OK


None of the tracks are present in the AccurateRip database

No errors occurred

End of status report

–– CUETools DB Plugin V2.1.6

[CTDB TOCID: 0t1SbOjV.LUFTFK616jMAu89L2w-] found
Submit result: 0t1SbOjV.LUFTFK616jMAu89L2w- has been confirmed
Track | CTDB Status
1 | (67/67) Accurately ripped
2 | (67/67) Accurately ripped
3 | (67/67) Accurately ripped
4 | (67/67) Accurately ripped
5 | (67/67) Accurately ripped
6 | (67/67) Accurately ripped
7 | (67/67) Accurately ripped
8 | (67/67) Accurately ripped
9 | (67/67) Accurately ripped


==== Log checksum CD48390FF6993A4C395D4E4CFD13FDFB3AC4FF57833A4DBC39268CD6A1AB8260 ====


Exact Audio Copy V1.6 from 23. October 2020

EAC extraction logfile from 10. June 2024, 21:00

Black Sabbath / Tyr

Used drive : HL-DT-STBD-RE WH16NS40 Adapter: 1 ID: 1

Read mode : Secure
Utilize accurate stream : Yes
Defeat audio cache : Yes
Make use of C2 pointers : No

Read offset correction : 6
Overread into Lead-In and Lead-Out : No
Fill up missing offset samples with silence : Yes
Delete leading and trailing silent blocks : No
Null samples used in CRC calculations : Yes
Used interface : Native Win32 interface for Win NT & 2000
Gap handling : Appended to previous track

Used output format : User Defined Encoder
Selected bitrate : 1024 kBit/s
Quality : High
Add ID3 tag : No
Command line compressor : C:\Program Files (x86)\Exact Audio Copy\Flac\flac.exe
Additional command line options : -8 –verify -T "ARTIST=%artist%" -T "TITLE=%title%" -T "ALBUM=%albumtitle%" -T "DATE=%year%" -T "GENRE=%genre%" -T "TRACKNUMBER=%tracknr%" -T "TOTALTRACKS=%numtracks%" %source% -T "DISCNUMBER=%cdnumber%" -T "TOTALDISCS=%totalcds%"


TOC of the extracted CD

Track | Start | Length | Start sector | End sector
––––––––––––––––––––––––––––-
1 | 0:00.00 | 6:12.33 | 0 | 27932
2 | 6:12.33 | 3:54.60 | 27933 | 45542
3 | 10:07.18 | 3:59.62 | 45543 | 63529
4 | 14:07.05 | 6:48.03 | 63530 | 94132
5 | 20:55.08 | 1:08.55 | 94133 | 99287
6 | 22:03.63 | 2:42.60 | 99288 | 111497
7 | 24:46.48 | 4:42.51 | 111498 | 132698
8 | 29:29.24 | 5:44.10 | 132699 | 158508
9 | 35:13.34 | 4:05.49 | 158509 | 176932


Track 1

Filename C:\EAC Rips\Black Sabbath - Anno Domini 1989-1995 (2024) [FLAC] {R2 712560}\Disc 2of4\01 - Anno Mundi.wav

Pre-gap length 0:00:02.00

Peak level 97.2 %
Extraction speed 4.8 X
Track quality 100.0 %
Test CRC 53377224
Copy CRC 53377224
Track not present in AccurateRip database
Copy OK

Track 2

Filename C:\EAC Rips\Black Sabbath - Anno Domini 1989-1995 (2024) [FLAC] {R2 712560}\Disc 2of4\02 - The Law Maker.wav

Peak level 97.2 %
Extraction speed 5.2 X
Track quality 100.0 %
Test CRC 2B458A7B
Copy CRC 2B458A7B
Track not present in AccurateRip database
Copy OK

Track 3

Filename C:\EAC Rips\Black Sabbath - Anno Domini 1989-1995 (2024) [FLAC] {R2 712560}\Disc 2of4\03 - Jerusalem.wav

Peak level 97.7 %
Extraction speed 5.6 X
Track quality 100.0 %
Test CRC F8A79EB5
Copy CRC F8A79EB5
Track not present in AccurateRip database
Copy OK

Track 4

Filename C:\EAC Rips\Black Sabbath - Anno Domini 1989-1995 (2024) [FLAC] {R2 712560}\Disc 2of4\04 - The Sabbath Stones.wav

Peak level 97.7 %
Extraction speed 5.8 X
Track quality 99.9 %
Test CRC C8D13A43
Copy CRC C8D13A43
Track not present in AccurateRip database
Copy OK

Track 5

Filename C:\EAC Rips\Black Sabbath - Anno Domini 1989-1995 (2024) [FLAC] {R2 712560}\Disc 2of4\05 - The Battle Of Tyr.wav

Peak level 95.5 %
Extraction speed 3.1 X
Track quality 99.8 %
Test CRC 197FFF98
Copy CRC 197FFF98
Track not present in AccurateRip database
Copy OK

Track 6

Filename C:\EAC Rips\Black Sabbath - Anno Domini 1989-1995 (2024) [FLAC] {R2 712560}\Disc 2of4\06 - Odin's Court.wav

Peak level 95.4 %
Extraction speed 6.3 X
Track quality 100.0 %
Test CRC A56B132E
Copy CRC A56B132E
Track not present in AccurateRip database
Copy OK

Track 7

Filename C:\EAC Rips\Black Sabbath - Anno Domini 1989-1995 (2024) [FLAC] {R2 712560}\Disc 2of4\07 - Valhalla.wav

Peak level 97.0 %
Extraction speed 7.1 X
Track quality 100.0 %
Test CRC 1824658F
Copy CRC 1824658F
Track not present in AccurateRip database
Copy OK

Track 8

Filename C:\EAC Rips\Black Sabbath - Anno Domini 1989-1995 (2024) [FLAC] {R2 712560}\Disc 2of4\08 - Feels Good To Me.wav

Peak level 96.1 %
Extraction speed 7.7 X
Track quality 100.0 %
Test CRC 8FF51268
Copy CRC 8FF51268
Track not present in AccurateRip database
Copy OK

Track 9

Filename C:\EAC Rips\Black Sabbath - Anno Domini 1989-1995 (2024) [FLAC] {R2 712560}\Disc 2of4\09 - Heaven In Black.wav

Peak level 92.2 %
Extraction speed 7.7 X
Track quality 100.0 %
Test CRC E036D0C9
Copy CRC E036D0C9
Track not present in AccurateRip database
Copy OK


None of the tracks are present in the AccurateRip database

No errors occurred

End of status report

–– CUETools DB Plugin V2.1.6

[CTDB TOCID: YprivTmwKSFX6NN6YZefYumMnxM-] found
Submit result: YprivTmwKSFX6NN6YZefYumMnxM- has been confirmed
Track | CTDB Status
1 | (67/67) Accurately ripped
2 | (67/67) Accurately ripped
3 | (67/67) Accurately ripped
4 | (67/67) Accurately ripped
5 | (67/67) Accurately ripped
6 | (67/67) Accurately ripped
7 | (67/67) Accurately ripped
8 | (67/67) Accurately ripped
9 | (67/67) Accurately ripped


==== Log checksum D29FC08637E63D30262435715896DF53BD6B3913DE828C7FE9A0354BEE50F74E ====


Exact Audio Copy V1.6 from 23. October 2020

EAC extraction logfile from 10. June 2024, 21:19

Black Sabbath / Cross Purposes

Used drive : HL-DT-STBD-RE WH16NS40 Adapter: 1 ID: 1

Read mode : Secure
Utilize accurate stream : Yes
Defeat audio cache : Yes
Make use of C2 pointers : No

Read offset correction : 6
Overread into Lead-In and Lead-Out : No
Fill up missing offset samples with silence : Yes
Delete leading and trailing silent blocks : No
Null samples used in CRC calculations : Yes
Used interface : Native Win32 interface for Win NT & 2000
Gap handling : Appended to previous track

Used output format : User Defined Encoder
Selected bitrate : 1024 kBit/s
Quality : High
Add ID3 tag : No
Command line compressor : C:\Program Files (x86)\Exact Audio Copy\Flac\flac.exe
Additional command line options : -8 –verify -T "ARTIST=%artist%" -T "TITLE=%title%" -T "ALBUM=%albumtitle%" -T "DATE=%year%" -T "GENRE=%genre%" -T "TRACKNUMBER=%tracknr%" -T "TOTALTRACKS=%numtracks%" %source% -T "DISCNUMBER=%cdnumber%" -T "TOTALDISCS=%totalcds%"


TOC of the extracted CD

Track | Start | Length | Start sector | End sector
––––––––––––––––––––––––––––-
1 | 0:00.00 | 4:55.63 | 0 | 22187
2 | 4:55.63 | 4:33.38 | 22188 | 42700
3 | 9:29.26 | 3:12.18 | 42701 | 57118
4 | 12:41.44 | 5:48.28 | 57119 | 83246
5 | 18:29.72 | 4:13.48 | 83247 | 102269
6 | 22:43.45 | 5:50.32 | 102270 | 128551
7 | 28:34.02 | 3:54.57 | 128552 | 146158
8 | 32:28.59 | 4:28.10 | 146159 | 166268
9 | 36:56.69 | 4:18.63 | 166269 | 185681
10 | 41:15.57 | 5:59.38 | 185682 | 212644
11 | 47:15.20 | 3:04.04 | 212645 | 226448


Track 1

Filename C:\EAC Rips\Black Sabbath - Anno Domini 1989-1995 (2024) [FLAC] {R2 712560}\Disc 3of4\01 - I Witness.wav

Pre-gap length 0:00:02.00

Peak level 97.7 %
Extraction speed 4.6 X
Track quality 100.0 %
Test CRC 2D415D4F
Copy CRC 2D415D4F
Track not present in AccurateRip database
Copy OK

Track 2

Filename C:\EAC Rips\Black Sabbath - Anno Domini 1989-1995 (2024) [FLAC] {R2 712560}\Disc 3of4\02 - Cross Of Thorns.wav

Peak level 95.7 %
Extraction speed 5.2 X
Track quality 100.0 %
Test CRC D37BAD86
Copy CRC D37BAD86
Track not present in AccurateRip database
Copy OK

Track 3

Filename C:\EAC Rips\Black Sabbath - Anno Domini 1989-1995 (2024) [FLAC] {R2 712560}\Disc 3of4\03 - Psychophobia.wav

Peak level 95.5 %
Extraction speed 4.3 X
Track quality 99.9 %
Test CRC 8CBCD983
Copy CRC 8CBCD983
Track not present in AccurateRip database
Copy OK

Track 4

Filename C:\EAC Rips\Black Sabbath - Anno Domini 1989-1995 (2024) [FLAC] {R2 712560}\Disc 3of4\04 - Virtual Death.wav

Peak level 96.7 %
Extraction speed 6.2 X
Track quality 100.0 %
Test CRC 100DD978
Copy CRC 100DD978
Track not present in AccurateRip database
Copy OK

Track 5

Filename C:\EAC Rips\Black Sabbath - Anno Domini 1989-1995 (2024) [FLAC] {R2 712560}\Disc 3of4\05 - Immaculate Deception.wav

Peak level 96.5 %
Extraction speed 5.4 X
Track quality 99.9 %
Test CRC 92ADEFBB
Copy CRC 92ADEFBB
Track not present in AccurateRip database
Copy OK

Track 6

Filename C:\EAC Rips\Black Sabbath - Anno Domini 1989-1995 (2024) [FLAC] {R2 712560}\Disc 3of4\06 - Dying For Love.wav

Peak level 97.7 %
Extraction speed 7.2 X
Track quality 100.0 %
Test CRC 21877D5A
Copy CRC 21877D5A
Track not present in AccurateRip database
Copy OK

Track 7

Filename C:\EAC Rips\Black Sabbath - Anno Domini 1989-1995 (2024) [FLAC] {R2 712560}\Disc 3of4\07 - Back To Eden.wav

Peak level 96.4 %
Extraction speed 7.2 X
Track quality 100.0 %
Test CRC C1D7408D
Copy CRC C1D7408D
Track not present in AccurateRip database
Copy OK

Track 8

Filename C:\EAC Rips\Black Sabbath - Anno Domini 1989-1995 (2024) [FLAC] {R2 712560}\Disc 3of4\08 - The Hand That Rocks The Cradle.wav

Peak level 96.3 %
Extraction speed 7.7 X
Track quality 100.0 %
Test CRC 59FA5866
Copy CRC 59FA5866
Track not present in AccurateRip database
Copy OK

Track 9

Filename C:\EAC Rips\Black Sabbath - Anno Domini 1989-1995 (2024) [FLAC] {R2 712560}\Disc 3of4\09 - Cardinal Sin.wav

Peak level 97.0 %
Extraction speed 8.0 X
Track quality 100.0 %
Test CRC 0CF60D45
Copy CRC 0CF60D45
Track not present in AccurateRip database
Copy OK

Track 10

Filename C:\EAC Rips\Black Sabbath - Anno Domini 1989-1995 (2024) [FLAC] {R2 712560}\Disc 3of4\10 - Evil Eye.wav

Peak level 97.7 %
Extraction speed 7.4 X
Track quality 99.9 %
Test CRC 6B58993E
Copy CRC 6B58993E
Track not present in AccurateRip database
Copy OK

Track 11

Filename C:\EAC Rips\Black Sabbath - Anno Domini 1989-1995 (2024) [FLAC] {R2 712560}\Disc 3of4\11 - What's The Use.wav

Peak level 97.0 %
Extraction speed 8.1 X
Track quality 100.0 %
Test CRC 1316711A
Copy CRC 1316711A
Track not present in AccurateRip database
Copy OK


None of the tracks are present in the AccurateRip database

No errors occurred

End of status report

–– CUETools DB Plugin V2.1.6

[CTDB TOCID: UrEv8D_DH_nvTEnL2YioyDskf9I-] found
Submit result: UrEv8D_DH_nvTEnL2YioyDskf9I- has been confirmed
Track | CTDB Status
1 | (62/62) Accurately ripped
2 | (62/62) Accurately ripped
3 | (62/62) Accurately ripped
4 | (62/62) Accurately ripped
5 | (62/62) Accurately ripped
6 | (62/62) Accurately ripped
7 | (62/62) Accurately ripped
8 | (62/62) Accurately ripped
9 | (62/62) Accurately ripped
10 | (62/62) Accurately ripped
11 | (62/62) Accurately ripped


==== Log checksum 792AB998C524A8061288C90B5F8E4AD785BEB05F6FCE7BEC513CBA11505AFAF1 ====


Exact Audio Copy V1.6 from 23. October 2020

EAC extraction logfile from 10. June 2024, 21:38

Black Sabbath / Forbidden

Used drive : HL-DT-STBD-RE WH16NS40 Adapter: 1 ID: 1

Read mode : Secure
Utilize accurate stream : Yes
Defeat audio cache : Yes
Make use of C2 pointers : No

Read offset correction : 6
Overread into Lead-In and Lead-Out : No
Fill up missing offset samples with silence : Yes
Delete leading and trailing silent blocks : No
Null samples used in CRC calculations : Yes
Used interface : Native Win32 interface for Win NT & 2000
Gap handling : Appended to previous track

Used output format : User Defined Encoder
Selected bitrate : 1024 kBit/s
Quality : High
Add ID3 tag : No
Command line compressor : C:\Program Files (x86)\Exact Audio Copy\Flac\flac.exe
Additional command line options : -8 –verify -T "ARTIST=%artist%" -T "TITLE=%title%" -T "ALBUM=%albumtitle%" -T "DATE=%year%" -T "GENRE=%genre%" -T "TRACKNUMBER=%tracknr%" -T "TOTALTRACKS=%numtracks%" %source% -T "DISCNUMBER=%cdnumber%" -T "TOTALDISCS=%totalcds%"


TOC of the extracted CD

Track | Start | Length | Start sector | End sector
––––––––––––––––––––––––––––-
1 | 0:00.00 | 4:50.25 | 0 | 21774
2 | 4:50.25 | 4:01.57 | 21775 | 39906
3 | 8:52.07 | 4:32.05 | 39907 | 60311
4 | 13:24.12 | 4:07.50 | 60312 | 78886
5 | 17:31.62 | 5:24.41 | 78887 | 103227
6 | 22:56.28 | 3:30.31 | 103228 | 119008
7 | 26:26.59 | 3:30.70 | 119009 | 134828
8 | 29:57.54 | 5:14.16 | 134829 | 158394
9 | 35:11.70 | 3:46.47 | 158395 | 175391
10 | 38:58.42 | 6:11.43 | 175392 | 203259
11 | 45:10.10 | 2:56.71 | 203260 | 216530


Track 1

Filename C:\EAC Rips\Black Sabbath - Anno Domini 1989-1995 (2024) [FLAC] {R2 712560}\Disc 4of4\01 - The Illusion Of Power.wav

Pre-gap length 0:00:02.00

Peak level 97.7 %
Extraction speed 4.6 X
Track quality 100.0 %
Test CRC AD42E05E
Copy CRC AD42E05E
Track not present in AccurateRip database
Copy OK

Track 2

Filename C:\EAC Rips\Black Sabbath - Anno Domini 1989-1995 (2024) [FLAC] {R2 712560}\Disc 4of4\02 - Get A Grip.wav

Peak level 97.7 %
Extraction speed 5.1 X
Track quality 100.0 %
Test CRC 66ED7800
Copy CRC 66ED7800
Track not present in AccurateRip database
Copy OK

Track 3

Filename C:\EAC Rips\Black Sabbath - Anno Domini 1989-1995 (2024) [FLAC] {R2 712560}\Disc 4of4\03 - Can't Get Close Enough.wav

Peak level 97.7 %
Extraction speed 5.7 X
Track quality 100.0 %
Test CRC BA61E326
Copy CRC BA61E326
Track not present in AccurateRip database
Copy OK

Track 4

Filename C:\EAC Rips\Black Sabbath - Anno Domini 1989-1995 (2024) [FLAC] {R2 712560}\Disc 4of4\04 - Shaking Off The Chains.wav

Peak level 97.7 %
Extraction speed 5.0 X
Track quality 99.9 %
Test CRC 9F6ACF43
Copy CRC 9F6ACF43
Track not present in AccurateRip database
Copy OK

Track 5

Filename C:\EAC Rips\Black Sabbath - Anno Domini 1989-1995 (2024) [FLAC] {R2 712560}\Disc 4of4\05 - I Won't Cry For You.wav

Peak level 97.7 %
Extraction speed 6.7 X
Track quality 100.0 %
Test CRC C1334CD1
Copy CRC C1334CD1
Track not present in AccurateRip database
Copy OK

Track 6

Filename C:\EAC Rips\Black Sabbath - Anno Domini 1989-1995 (2024) [FLAC] {R2 712560}\Disc 4of4\06 - Guilty As Hell.wav

Peak level 97.7 %
Extraction speed 6.7 X
Track quality 100.0 %
Test CRC 4C61476E
Copy CRC 4C61476E
Track not present in AccurateRip database
Copy OK

Track 7

Filename C:\EAC Rips\Black Sabbath - Anno Domini 1989-1995 (2024) [FLAC] {R2 712560}\Disc 4of4\07 - Sick And Tired.wav

Peak level 97.7 %
Extraction speed 6.9 X
Track quality 100.0 %
Test CRC F6E4DCB3
Copy CRC F6E4DCB3
Track not present in AccurateRip database
Copy OK

Track 8

Filename C:\EAC Rips\Black Sabbath - Anno Domini 1989-1995 (2024) [FLAC] {R2 712560}\Disc 4of4\08 - Rusty Angels.wav

Peak level 97.7 %
Extraction speed 7.6 X
Track quality 100.0 %
Test CRC 42AFC52B
Copy CRC 42AFC52B
Track not present in AccurateRip database
Copy OK

Track 9

Filename C:\EAC Rips\Black Sabbath - Anno Domini 1989-1995 (2024) [FLAC] {R2 712560}\Disc 4of4\09 - Forbidden.wav

Peak level 97.7 %
Extraction speed 7.7 X
Track quality 100.0 %
Test CRC 2F81AA9E
Copy CRC 2F81AA9E
Track not present in AccurateRip database
Copy OK

Track 10

Filename C:\EAC Rips\Black Sabbath - Anno Domini 1989-1995 (2024) [FLAC] {R2 712560}\Disc 4of4\10 - Kiss Of Death.wav

Peak level 97.7 %
Extraction speed 8.5 X
Track quality 100.0 %
Test CRC E60BB77D
Copy CRC E60BB77D
Track not present in AccurateRip database
Copy OK

Track 11

Filename C:\EAC Rips\Black Sabbath - Anno Domini 1989-1995 (2024) [FLAC] {R2 712560}\Disc 4of4\11 - Loser Gets It All.wav

Peak level 97.7 %
Extraction speed 6.1 X
Track quality 99.9 %
Test CRC 14271D5C
Copy CRC 14271D5C
Track not present in AccurateRip database
Copy OK


None of the tracks are present in the AccurateRip database

No errors occurred

End of status report

–– CUETools DB Plugin V2.1.6

[CTDB TOCID: ceUiZd79kwMDlfBqb1TzDMDuY18-] found
Submit result: ceUiZd79kwMDlfBqb1TzDMDuY18- has been confirmed
Track | CTDB Status
1 | (64/64) Accurately ripped
2 | (64/64) Accurately ripped
3 | (64/64) Accurately ripped
4 | (64/64) Accurately ripped
5 | (64/64) Accurately ripped
6 | (64/64) Accurately ripped
7 | (64/64) Accurately ripped
8 | (64/64) Accurately ripped
9 | (64/64) Accurately ripped
10 | (64/64) Accurately ripped
11 | (64/64) Accurately ripped


==== Log checksum EC0E24CC9720D6608B04F8AB8E0DF0F7D88F1A98684CAAE54E42915A8431A96F ====