Tags
Language
Tags
July 2024
Su Mo Tu We Th Fr Sa
30 1 2 3 4 5 6
7 8 9 10 11 12 13
14 15 16 17 18 19 20
21 22 23 24 25 26 27
28 29 30 31 1 2 3

Terri Nunn & Berlin - All The Way In (2009) CD+DVD

Posted By: Designol
Terri Nunn & Berlin - All The Way In (2009) CD+DVD

Terri Nunn & Berlin - All The Way In (2009) CD+DVD
EAC | FLAC | Image (Cue&Log) ~ 415 Mb | Mp3 (CBR320) ~ 155 Mb | Time: 01:07:40
DVD5 | NTSC | 16:9 (720x480) VBR | AC3 2.0, 192 kbps or LPCM | Time: 00:49:00 | ~ 3.19 Gb
New Wave, Post-Punk, Dance-Rock, Synthpop | Label: Fuel | # 302 061 7772 | Scans ~ 41 Mb

2009 CD/DVD live release from the veteran Synth Pop band fronted by Terri Nunn includes a bonus DVD. Berlin's Electro-Pop sound features the enduring and assertive voice of Nunn, which is why All The Way In is the most preferable place to hear this Los Angeles-based group's music. Berlin made its first national impression with the provocative single 'Sex (I'm A…)' from the gold-selling debut EP Pleasure Victim in 1982. The Synth-soaked punch of 'No More Words' from 1984's Love Life album and the number one ballad 'Take My Breath Away' from the film Top Gun are the album's high points. Berlin's '80s poignancy provided some rather palatable music, even if the charts didn't say so. Songs like 'Dancing In Berlin' and 'Scream' could compete with anything Depeche Mode or Duran spouted at the time, and the range of Nunn's vocals elevated most of Berlin's efforts above the norm of the run-of-the-mill synthesizer glitz. All The Way In captures Berlin at their best in front of a hometown Los Angeles crowd.

At times, it was hard to figure out whether Berlin were an average synth pop band trying to carve out their own niche or just a mediocre rock band jumping on the new wave bandwagon. Sure, they had some good singles and radio hits, but as an album band, they left a lot to be desired. Terri Nunn was beautiful and sexy, but it seemed like Berlin wanted to be more than just a commercial band with a hot vocalist: they seemed to be striving for greatness but settled for "that'll do." Unfortunately, they never had a chance to really prove themselves, breaking up after their commercially disappointing Count Three & Pray album, released in 1986. Nunn has kept the Berlin name alive over the years, touring with a different group of musicians and playing all the hits while releasing the occasional studio or live album. With a recorded output that seems to dwindle in quality with every release, one might hope that All the Way In would deviate from the standard "live hits" collection and offer up something really special. Sadly, that's not entirely the case. All the Way In was recorded live at The House of Blues in Anaheim, CA. The HOB is located very near the heart of the OC music scene, where Berlin started more than two decades ago. This homecoming show promised much but delivered very little.

Backed by three musicians who look like Nine Inch Nails refugees, Nunn is still as beautiful and sexy as ever, and her voice sounds great, but there doesn't seem to be much heart and soul, at least on the CD. Nunn pulls out all the live rock clichés she can muster while performing the big hits, dulling their overall impact. She then throws in covers of "Somebody to Love" (Jefferson Airplane) and "Ordinary World" (Duran Duran) where lesser-known Berlin tunes would have been more appropriate for the diehards. The CD is not a total disaster, but is hardly necessary unless you are a hardcore fan. The DVD is far more interesting and entertaining than the CD, especially Nunn's shoulder-riding journey through the audience during "Take My Breath Away." Visually, she seems to be having more fun than the CD lets on. Nunn looks like she enjoys the adulation but is a bit bored by performing songs like "No More Words" and "The Metro" for quite possibly the millionth time. At times, Nunn and the band do kick things up a bit, but it's hard to get past the notion that the three guys in the band are just hired hands and exist as Berlin in name only. There are tracks on the CD that are not included on the DVD (and vice versa), but even though the DVD has a shorter running time, it's a far more enjoyable experience. So, get this for the DVD and do what you will with the CD.

Review by Steve "Spaz" Schnee, Allmusic.com

Terri Nunn & Berlin - All The Way In (2009) CD+DVD



CD Tracklist:

01. Dancing In Berlin (04:29)
02. No More Words (05:04)
03. Matter Of Time (04:14)
04. Somebody To Love (03:27)
05. Scream (03:30)
06. The Metro (04:50)
07. Ordinary World (06:17)
08. Last Day On Earth (04:43)
09. You Don't Know (05:05)
10. Ordinary Girl (04:24)
11. The Dope Show (04:36)
12. Sex (I'm A…) (05:02)
13. Take My Breath Away (05:43)
14. Masquerade (06:08)


Exact Audio Copy V0.99 prebeta 5 from 4. May 2009

Отчёт EAC об извлечении, выполненном 24. января 2011, 18:11

Berlin / All The Way In

Дисковод: Optiarc DVD RW AD-7173S Adapter: 1 ID: 0

Режим чтения : Достоверность
Использование точного потока : Да
Отключение кэша аудио : Да
Использование указателей C2 : Нет

Коррекция смещения при чтении : 48
Способность читать области Lead-in и Lead-out : Нет
Заполнение пропущенных сэмплов тишиной : Да
Удаление блоков с тишиной в начале и конце : Нет
При вычислениях CRC использовались нулевые сэмплы : Да
Интерфейс : Установленный внешний ASPI-интерфейс

Выходной формат : Monkey's Audio (без потерь)
Выбранный битрейт : Extra High Lossless Compression
Качество : Высокий
Добавление ID3-тэга : Да
Утилита сжатия : E:\Program Files\Monkey's Audio\MAC.exe


TOC извлечённого CD

Трек | Старт | Длительность | Начальный сектор | Конечный сектор
––––––––––––––––––––––––––––––––––-
1 | 0:00.00 | 4:29.44 | 0 | 20218
2 | 4:29.44 | 5:04.66 | 20219 | 43084
3 | 9:34.35 | 4:14.72 | 43085 | 62206
4 | 13:49.32 | 3:27.35 | 62207 | 77766
5 | 17:16.67 | 3:30.72 | 77767 | 93588
6 | 20:47.64 | 4:50.49 | 93589 | 115387
7 | 25:38.38 | 6:17.55 | 115388 | 143717
8 | 31:56.18 | 4:43.72 | 143718 | 165014
9 | 36:40.15 | 5:05.69 | 165015 | 187958
10 | 41:46.09 | 4:24.16 | 187959 | 207774
11 | 46:10.25 | 4:36.23 | 207775 | 228497
12 | 50:46.48 | 5:02.49 | 228498 | 251196
13 | 55:49.22 | 5:43.26 | 251197 | 276947
14 | 61:32.48 | 6:08.26 | 276948 | 304573


Характеристики диапазона извлечения и сообщения об ошибках

Выбранный диапазон

Имя файла G:\Новая папка\Berlin - All The Way In.wav

Пиковый уровень 100.0 %
Качество диапазона 99.8 %
CRC теста 4A612C19
CRC копии 4A612C19
Копирование… OK

Ошибок не произошло


AccurateRip: сводка

Трек 1 точное извлечение (доверие 3) [7D105D1E]
Трек 2 точное извлечение (доверие 3) [A6887653]
Трек 3 точное извлечение (доверие 3) [09539D1A]
Трек 4 точное извлечение (доверие 3) [7D21505C]
Трек 5 точное извлечение (доверие 3) [093F8378]
Трек 6 точное извлечение (доверие 3) [CC71A303]
Трек 7 точное извлечение (доверие 3) [16C673CF]
Трек 8 точное извлечение (доверие 3) [D3D5D81E]
Трек 9 точное извлечение (доверие 3) [046E6344]
Трек 10 точное извлечение (доверие 3) [5AA157AC]
Трек 11 точное извлечение (доверие 3) [91D14FD5]
Трек 12 точное извлечение (доверие 3) [D8DF52A9]
Трек 13 точное извлечение (доверие 3) [C6FAAC5F]
Трек 14 точное извлечение (доверие 3) [E50C2AB3]

Все треки извлечены точно

Конец отчёта

[CUETools log; Date: 16.04.2024 15:58:34; Version: 2.1.7]
[CTDB TOCID: v2OupUm8rkXDe1huMc8JZCx2RbI-] found.
Track | CTDB Status
1 | (28/28) Accurately ripped
2 | (28/28) Accurately ripped
3 | (28/28) Accurately ripped
4 | (28/28) Accurately ripped
5 | (28/28) Accurately ripped
6 | (28/28) Accurately ripped
7 | (28/28) Accurately ripped
8 | (28/28) Accurately ripped
9 | (28/28) Accurately ripped
10 | (28/28) Accurately ripped
11 | (28/28) Accurately ripped
12 | (28/28) Accurately ripped
13 | (28/28) Accurately ripped
14 | (28/28) Accurately ripped
[AccurateRip ID: 00213b93-01658384-bb0fdc0e] found.
Track [ CRC | V2 ] Status
01 [7d105d1e|2d03a035] (03+18/23) Accurately ripped
02 [a6887653|9fce5426] (03+18/23) Accurately ripped
03 [09539d1a|c616d4d2] (03+18/23) Accurately ripped
04 [7d21505c|63080db1] (03+18/23) Accurately ripped
05 [093f8378|7ddb5f39] (03+18/23) Accurately ripped
06 [cc71a303|87a5f804] (03+18/23) Accurately ripped
07 [16c673cf|6fc3cc7a] (03+18/23) Accurately ripped
08 [d3d5d81e|4c7df1c2] (03+18/23) Accurately ripped
09 [046e6344|e297826e] (03+18/23) Accurately ripped
10 [5aa157ac|3c0eb427] (03+18/23) Accurately ripped
11 [91d14fd5|3b518de9] (03+18/23) Accurately ripped
12 [d8df52a9|7a280bff] (03+18/23) Accurately ripped
13 [c6faac5f|e866fa70] (03+18/23) Accurately ripped
14 [e50c2ab3|68acaef0] (03+18/23) Accurately ripped
Offsetted by -6:
01 [cb840c9c] (00/23) No match (V2 was not tested)
02 [e55d3c35] (00/23) No match (V2 was not tested)
03 [e4ffe866] (00/23) No match (V2 was not tested)
04 [1b482d1a] (00/23) No match (V2 was not tested)
05 [c0ad5d3c] (00/23) No match (V2 was not tested)
06 [e7eda50c] (00/23) No match (V2 was not tested)
07 [170354cd] (00/23) No match (V2 was not tested)
08 [9a437e17] (00/23) No match (V2 was not tested)
09 [40ddc29b] (00/23) No match (V2 was not tested)
10 [6ef979f1] (00/23) No match (V2 was not tested)
11 [3341522c] (00/23) No match (V2 was not tested)
12 [5fa17ea9] (00/23) No match (V2 was not tested)
13 [794ae64f] (00/23) No match (V2 was not tested)
14 [b14a0ef1] (00/23) No match (V2 was not tested)

Track Peak [ CRC32 ] [W/O NULL] [ LOG ]
– 99,9 [4A612C19] [298124E6] CRC32
01 99,9 [E34F8954] [4C4F50FF]
02 98,8 [12A5070B] [D0B878AC]
03 99,9 [2D52CCBA] [E0A72323]
04 99,9 [DBFB466A] [D8EA17E3]
05 99,6 [F2610D57] [368D042B]
06 99,9 [A1326676] [E5539BC2]
07 90,7 [9DFECC19] [E081D7D4]
08 88,3 [36F07E85] [1E18BA26]
09 99,5 [0FB7FC2B] [C85C48C1]
10 98,8 [D66E3ED2] [3800A15C]
11 99,9 [DBFEBABE] [E619D5BF]
12 99,9 [0E96FFDE] [64B9C93B]
13 99,9 [F8B20EE5] [0BA1C71B]
14 99,9 [FD6A7A3C] [84047E8A]

foobar2000 1.6.3 / Dynamic Range Meter 1.1.1
log date: 2024-04-16 16:03:28

––––––––––––––––––––––––––––––––––––––––
Analyzed: Berlin / All the Way In
––––––––––––––––––––––––––––––––––––––––

DR Peak RMS Duration Track
––––––––––––––––––––––––––––––––––––––––
DR13 0.00 dB -15.38 dB 4:30 01-Dancing in Berlin
DR13 -0.10 dB -16.10 dB 5:05 02-No More Words
DR12 0.00 dB -14.41 dB 4:15 03-Matter of Time
DR11 0.00 dB -13.81 dB 3:27 04-Somebody to Love
DR13 -0.03 dB -15.71 dB 3:31 05-Scream
DR12 0.00 dB -14.54 dB 4:51 06-The Metro
DR13 -0.85 dB -18.98 dB 6:18 07-Ordinary World
DR12 -1.08 dB -17.99 dB 4:44 08-Last Day on Earth
DR11 -0.04 dB -13.81 dB 5:06 09-You Don’t Know
DR13 -0.10 dB -15.05 dB 4:24 10-Ordinary Girl
DR11 0.00 dB -13.70 dB 4:36 11-The Dope Show
DR9 0.00 dB -12.15 dB 5:03 12-Sex (I’m A)
DR10 0.00 dB -13.19 dB 5:43 13-Take My Breath Away
DR9 0.00 dB -12.65 dB 6:08 14-Masquerade
––––––––––––––––––––––––––––––––––––––––

Number of tracks: 14
Official DR value: DR12

Samplerate: 44100 Hz
Channels: 2
Bits per sample: 16
Bitrate: 857 kbps
Codec: FLAC
================================================================================




Terri Nunn & Berlin - All The Way In (2009) CD+DVD

Terri Nunn & Berlin - All The Way In (2009) CD+DVD

Terri Nunn & Berlin - All The Way In (2009) CD+DVD

Terri Nunn & Berlin - All The Way In (2009) CD+DVD


DVD Tracklist:

01. Dancing In Berlin
02. No More Words
03. Toch
04. Scream
05. The Metro
06. Ordinary Girl
07. Sex (I'm A…)
08. Take My Breath Away
09. Masquerade
10. Picture Of You




Terri Nunn & Berlin - All The Way In (2009) CD+DVD

Terri Nunn & Berlin - All The Way In (2009) CD+DVD

All thanks to original releaser

More interesting music in My Blog