Tags
Language
Tags
February 2024
Su Mo Tu We Th Fr Sa
28 29 30 31 1 2 3
4 5 6 7 8 9 10
11 12 13 14 15 16 17
18 19 20 21 22 23 24
25 26 27 28 29 1 2
Attention❗ To save your time, in order to download anything on this site, you must be registered 👉 HERE. If you do not have a registration yet, it is better to do it right away. ✌

( • )( • ) ( ͡⚆ ͜ʖ ͡⚆ ) (‿ˠ‿)
SpicyMags.xyz

Albert King & Stevie Ray Vaughan - In Session (2010) {Deluxe Edition}

Posted By: popsakov
Albert King & Stevie Ray Vaughan - In Session (2010) {Deluxe Edition}

Albert King & Stevie Ray Vaughan - In Session (2010) {Deluxe Edition}
EAC Rip | FLAC (Img) + Cue + Log ~ 489 Mb | MP3 CBR320 ~ 180 Mb
DVD5 | MPEG-2, NTCS 4:3 (720x480), 29.970 fps, VBR 6337 Kbps
DD 2.0, 48kHz/16-bit, 224 Kbps | 01:28:11 | ~ 4,24 Gb | Full Scans | RAR 5% Recovery
Electric Blues | STAX Records #0888072318397 / STX-31838-09

Originally recorded for the Canadian television program In Session in 1983, this was a historic meeting of two artists that has been proven to be a very special moment This famed live jam session by Albert King and Stevie Ray Vaughan has proven to be an evening that will never be forgotten.

"It was evident from the first choruses," writes liner notes author/musicologist Samuel Charters, "that they were playing for each other. And that was the best audience either of them could ever have. The music never lost its intensity, its quality of something very important being handed back and forth and there was time for Stevie and Albert to see where their ideas took them."

Accolades have showered upon this momentous encounter. "As a document of what was probably one of the greatest nights in the musical life of SRV, this belongs in the collection of every true fan," said the Austin American-Statesman. Sonic Boomers added, "Both men are gone now, but rare recordings like In Session remind us of a time when blues giants still walked the earth side by side." Elmore magazine called it "an indispensible part of any blues fan's collection." And BluesWax noted, "thank goodness, this disc lives on and on."

Now this previously unavilable visual document featuring two giants of American blues can be enjoyed by audiences the world over. Sadly, King and Vaughan would not share a stage together ever again. Vaughan, 31 years King's junior, died in a helicopter crash in the fog on the way back from a concert in 1990. King outlived him by two years, dying of a heart attack in 1992. They didn't meet often, and their careers took different paths. But we can all be grateful for that one long day in a television studio when sparks flew and this timeless performance was forever captured.

***************

Albert King & Stevie Ray Vaughan - In Session (2010) {Deluxe Edition}

Track List:

01. Call it stormy Monday [09:01]
02. 'Old times' [01:16]
03. Pride and joy [05:59]
04. Ask me no questions [05:04]
05. 'Pep talk' [00:53]
06. Blues at sunrise [15:11]
07. 'Turn it over' [00:52]
08. Overall junction [08:21]
09. Match box blues [07:40]
10. 'Who is Stevie' [00:44]
11. Don't lie to me [08:58]

Exact Audio Copy V0.99 prebeta 5 from 4. May 2009

EAC extraction logfile from 20. December 2015, 11:07

Albert King & Stevie Ray Vaughan / In session

Used drive : ATAPI iHAS122 C Adapter: 1 ID: 1

Read mode : Secure
Utilize accurate stream : Yes
Defeat audio cache : Yes
Make use of C2 pointers : No

Read offset correction : 6
Overread into Lead-In and Lead-Out : No
Fill up missing offset samples with silence : Yes
Delete leading and trailing silent blocks : No
Null samples used in CRC calculations : Yes
Used interface : Native Win32 interface for Win NT & 2000

Used output format : Internal WAV Routines
Sample format : 44.100 Hz; 16 Bit; Stereo


TOC of the extracted CD

Track | Start | Length | Start sector | End sector
––––––––––––––––––––––––––––-
1 | 0:00.00 | 9:00.43 | 0 | 40542
2 | 9:00.43 | 1:15.51 | 40543 | 46218
3 | 10:16.19 | 5:58.43 | 46219 | 73111
4 | 16:14.62 | 5:03.28 | 73112 | 95864
5 | 21:18.15 | 0:52.06 | 95865 | 99770
6 | 22:10.21 | 15:10.36 | 99771 | 168056
7 | 37:20.57 | 0:51.36 | 168057 | 171917
8 | 38:12.18 | 8:20.44 | 171918 | 209461
9 | 46:32.62 | 7:39.34 | 209462 | 243920
10 | 54:12.21 | 0:43.56 | 243921 | 247201
11 | 54:56.02 | 8:57.67 | 247202 | 287543


Range status and errors

Selected range

Filename C:\Users\arthu\Desktop\Albert King & Stevie Ray Vaughan - In session.wav

Peak level 98.8 %
Range quality 100.0 %
Test CRC 54907833
Copy CRC 54907833
Copy OK

No errors occurred


AccurateRip summary

Track 1 accurately ripped (confidence 38) [AB564DC2]
Track 2 accurately ripped (confidence 39) [ACAABDF2]
Track 3 accurately ripped (confidence 39) [94B77E95]
Track 4 accurately ripped (confidence 39) [9D3BE196]
Track 5 accurately ripped (confidence 39) [F89DDCEB]
Track 6 accurately ripped (confidence 39) [4A02F18A]
Track 7 accurately ripped (confidence 39) [D2CFAFF1]
Track 8 accurately ripped (confidence 38) [C27EA45D]
Track 9 accurately ripped (confidence 38) [41EE6DFF]
Track 10 accurately ripped (confidence 39) [27D4D1E5]
Track 11 accurately ripped (confidence 39) [1FEC0557]

All tracks accurately ripped

End of status report

foobar2000 1.4 / Dynamic Range Meter 1.1.1
log date: 2019-09-09 02:43:27

––––––––––––––––––––––––––––––––––––––––
Analyzed: Albert King & Stevie Ray Vaughan / In session
––––––––––––––––––––––––––––––––––––––––

DR Peak RMS Duration Track
––––––––––––––––––––––––––––––––––––––––
DR6 -0.10 dB -8.11 dB 9:01 01-Call it stormy Monday
DR18 -0.10 dB -21.36 dB 1:16 02-'Old times'
DR5 -0.10 dB -6.14 dB 5:59 03-Pride and joy
DR5 -0.10 dB -6.70 dB 5:03 04-Ask me no questions
DR15 -0.10 dB -25.21 dB 0:52 05-'Pep talk'
DR6 -0.10 dB -9.46 dB 15:10 06-Blues at sunrise
DR16 -0.10 dB -20.31 dB 0:51 07-'Turn it over'
DR5 -0.10 dB -6.52 dB 8:21 08-Overall junction
DR6 -0.10 dB -8.81 dB 7:39 09-Match box blues
DR15 -0.10 dB -20.18 dB 0:44 10-'Who is Stevie'
DR6 -0.10 dB -7.00 dB 8:58 11-Don't lie to me
––––––––––––––––––––––––––––––––––––––––

Number of tracks: 11
Official DR value: DR9

Samplerate: 44100 Hz
Channels: 2
Bits per sample: 16
Bitrate: 961 kbps
Codec: FLAC
================================================================================

[CUETools log; Date: 09.09.2019 2:43:22; Version: 2.1.6]
[CTDB TOCID: YkhzXhxw.IrslkYwZOIzHddLoZc-] found.
Track | CTDB Status
1 | (374/378) Accurately ripped
2 | (376/378) Accurately ripped
3 | (375/378) Accurately ripped
4 | (375/378) Accurately ripped
5 | (376/378) Accurately ripped
6 | (374/378) Accurately ripped, or (2/378) differs in 539 samples @11:32:49,12:29:04,14:32:57
7 | (376/378) Accurately ripped
8 | (372/378) Accurately ripped
9 | (373/378) Accurately ripped
10 | (375/378) Accurately ripped
11 | (368/378) Accurately ripped
[AccurateRip ID: 0019b09e-00df53e4-9b0ef90b] found.
Track [ CRC | V2 ] Status
01 [ab564dc2|0a9840cc] (039+200/245) Accurately ripped
02 [acaabdf2|a06f92dc] (040+200/248) Accurately ripped
03 [94b77e95|722b6fab] (040+200/248) Accurately ripped
04 [9d3be196|94224db3] (040+200/248) Accurately ripped
05 [f89ddceb|1fe420de] (040+200/248) Accurately ripped
06 [4a02f18a|ff07d123] (040+200/248) Accurately ripped
07 [d2cfaff1|dee2eb0a] (040+200/248) Accurately ripped
08 [c27ea45d|5b2dc1f5] (039+200/247) Accurately ripped
09 [41ee6dff|3d5b17b1] (039+200/247) Accurately ripped
10 [27d4d1e5|98486788] (040+200/248) Accurately ripped
11 [1fec0557|1d03cd2a] (040+200/248) Accurately ripped
Offsetted by -114:
01 [e2b1c0a9] (000/245) No match (V2 was not tested)
02 [10c04d7b] (002/248) Accurately ripped
03 [724dd078] (002/248) Accurately ripped
04 [8c446363] (002/248) Accurately ripped
05 [94283699] (002/248) Accurately ripped
06 [57c4838e] (002/248) Accurately ripped
07 [c482474b] (002/248) Accurately ripped
08 [92a1972f] (002/247) Accurately ripped
09 [a6c26118] (002/247) Accurately ripped
10 [2da129fc] (002/248) Accurately ripped
11 [edc88ae3] (002/248) Accurately ripped
Offsetted by 6:
01 [47c28395] (000/245) No match (V2 was not tested)
02 [7963d3b1] (000/248) No match (V2 was not tested)
03 [44794399] (000/248) No match (V2 was not tested)
04 [3555084b] (000/248) No match (V2 was not tested)
05 [fd4b0d92] (000/248) No match (V2 was not tested)
06 [bf37a303] (000/248) No match (V2 was not tested)
07 [ed09a9d1] (000/248) No match (V2 was not tested)
08 [59290654] (000/247) No match (V2 was not tested)
09 [a22ecfd8] (000/247) No match (V2 was not tested)
10 [f2cb25c8] (000/248) No match (V2 was not tested)
11 [5348103f] (000/248) No match (V2 was not tested)

Track Peak [ CRC32 ] [W/O NULL] [ LOG ]
– 98,8 [54907833] [0888C0CA] CRC32
01 98,8 [AFBD1A25] [2FE8535D]
02 98,8 [70218974] [E4991BDC]
03 98,8 [F9EB44F0] [4344FE7F]
04 98,8 [8EAC4407] [BE57D916]
05 98,8 [CA7637A8] [97305B1E]
06 98,8 [1E01C4D2] [8AA35708]
07 98,8 [C5116AE4] [7DE3C12C]
08 98,8 [3C515ACF] [EE795746]
09 98,8 [B8CCA53A] [002CC8D3]
10 98,8 [8F022C9F] [B881A815]
11 98,8 [E5BC4E0F] [DE0676CE]

Albert King & Stevie Ray Vaughan - In Session (2010) {Deluxe Edition}

Track List DVD:

ACT I
01. Introduction
02. Born Under A Bad Sign
03. Texas Flood
04. Call It Stormy Monday
05. "Old Times"

ACT II
06. Matchbox Blues
07. "Pep Talk"
08. Don't Lie To Me
09. "Who Is Stevie?"
10. Pride And Joy

THE FINALE
11. I'm Gonna Move To The Outskirts Of Town
12. Outtro

General
Complete name : K:\_005\Albert King & Stevie Ray Vaughan - In session (DVD)\DVD\VIDEO_TS\VTS_01_1.VOB
Format : MPEG-PS
File size : 1 024 MiB
Duration : 22mn 35s
Overall bit rate mode : Variable
Overall bit rate : 6 337 Kbps

Video
ID : 224 (0xE0)
Format : MPEG Video
Format version : Version 2
Format profile : Main@Main
Format settings, BVOP : Yes
Format settings, Matrix : Default
Format settings, GOP : M=3, N=15
Format settings, picture structure : Frame
Duration : 22mn 35s
Bit rate mode : Variable
Bit rate : 5 987 Kbps
Maximum bit rate : 8 500 Kbps
Width : 720 pixels
Height : 480 pixels
Display aspect ratio : 4:3
Frame rate : 29.970 fps
Standard : NTSC
Color space : YUV
Chroma subsampling : 4:2:0
Bit depth : 8 bits
Scan type : Interlaced
Scan order : Bottom Field First
Compression mode : Lossy
Bits/(Pixel*Frame) : 0.578
Time code of first frame : 00:00:00:00
Time code source : Group of pictures header
GOP, Open/Closed : Open
Stream size : 967 MiB (94%)
GOP, Open/Closed of first frame : Closed

Audio
ID : 189 (0xBD)-128 (0x80)
Format : AC-3
Format/Info : Audio Coding 3
Mode extension : CM (complete main)
Format settings, Endianness : Big
Muxing mode : DVD-Video
Duration : 22mn 35s
Bit rate mode : Constant
Bit rate : 224 Kbps
Channel(s) : 2 channels
Channel positions : Front: L R
Sampling rate : 48.0 KHz
Bit depth : 16 bits
Compression mode : Lossy
Stream size : 36.2 MiB (4%)

Menu

General
Complete name : K:\_005\Albert King & Stevie Ray Vaughan - In session (DVD)\DVD\VIDEO_TS\VTS_01_2.VOB
Format : MPEG-PS
File size : 1 024 MiB
Duration : 22mn 36s
Overall bit rate mode : Variable
Overall bit rate : 6 332 Kbps

Video
ID : 224 (0xE0)
Format : MPEG Video
Format version : Version 2
Format profile : Main@Main
Format settings, BVOP : Yes
Format settings, Matrix : Default
Format settings, GOP : M=3, N=15
Format settings, picture structure : Frame
Duration : 22mn 36s
Bit rate mode : Variable
Bit rate : 5 982 Kbps
Maximum bit rate : 8 500 Kbps
Width : 720 pixels
Height : 480 pixels
Display aspect ratio : 4:3
Frame rate : 29.970 fps
Standard : NTSC
Color space : YUV
Chroma subsampling : 4:2:0
Bit depth : 8 bits
Scan type : Interlaced
Scan order : Bottom Field First
Compression mode : Lossy
Bits/(Pixel*Frame) : 0.578
Time code of first frame : 00:22:34:05
Time code source : Group of pictures header
GOP, Open/Closed : Open
Stream size : 967 MiB (94%)

Audio
ID : 189 (0xBD)-128 (0x80)
Format : AC-3
Format/Info : Audio Coding 3
Mode extension : CM (complete main)
Format settings, Endianness : Big
Muxing mode : DVD-Video
Duration : 22mn 36s
Bit rate mode : Constant
Bit rate : 224 Kbps
Channel(s) : 2 channels
Channel positions : Front: L R
Sampling rate : 48.0 KHz
Bit depth : 16 bits
Compression mode : Lossy
Delay relative to video : -355ms
Stream size : 36.2 MiB (4%)

Menu

General
Complete name : K:\_005\Albert King & Stevie Ray Vaughan - In session (DVD)\DVD\VIDEO_TS\VTS_01_3.VOB
Format : MPEG-PS
File size : 1 024 MiB
Duration : 22mn 32s
Overall bit rate mode : Variable
Overall bit rate : 6 352 Kbps

Video
ID : 224 (0xE0)
Format : MPEG Video
Format version : Version 2
Format profile : Main@Main
Format settings, BVOP : Yes
Format settings, Matrix : Default
Format settings, GOP : M=3, N=15
Format settings, picture structure : Frame
Duration : 22mn 32s
Bit rate mode : Variable
Bit rate : 6 002 Kbps
Maximum bit rate : 8 500 Kbps
Width : 720 pixels
Height : 480 pixels
Display aspect ratio : 4:3
Frame rate : 29.970 fps
Standard : NTSC
Color space : YUV
Chroma subsampling : 4:2:0
Bit depth : 8 bits
Scan type : Interlaced
Scan order : Bottom Field First
Compression mode : Lossy
Bits/(Pixel*Frame) : 0.579
Time code of first frame : 00:45:09:15
Time code source : Group of pictures header
GOP, Open/Closed : Open
Stream size : 967 MiB (94%)

Audio
ID : 189 (0xBD)-128 (0x80)
Format : AC-3
Format/Info : Audio Coding 3
Mode extension : CM (complete main)
Format settings, Endianness : Big
Muxing mode : DVD-Video
Duration : 22mn 32s
Bit rate mode : Constant
Bit rate : 224 Kbps
Channel(s) : 2 channels
Channel positions : Front: L R
Sampling rate : 48.0 KHz
Bit depth : 16 bits
Compression mode : Lossy
Delay relative to video : -404ms
Stream size : 36.1 MiB (4%)

Menu

General
Complete name : K:\_005\Albert King & Stevie Ray Vaughan - In session (DVD)\DVD\VIDEO_TS\VTS_01_4.VOB
Format : MPEG-PS
File size : 933 MiB
Duration : 20mn 31s
Overall bit rate mode : Variable
Overall bit rate : 6 356 Kbps

Video
ID : 224 (0xE0)
Format : MPEG Video
Format version : Version 2
Format profile : Main@Main
Format settings, BVOP : Yes
Format settings, Matrix : Default
Format settings, GOP : M=3, N=15
Format settings, picture structure : Frame
Duration : 20mn 31s
Bit rate mode : Variable
Bit rate : 6 005 Kbps
Maximum bit rate : 8 500 Kbps
Width : 720 pixels
Height : 480 pixels
Display aspect ratio : 4:3
Frame rate : 29.970 fps
Standard : NTSC
Color space : YUV
Chroma subsampling : 4:2:0
Bit depth : 8 bits
Scan type : Interlaced
Scan order : Bottom Field First
Compression mode : Lossy
Bits/(Pixel*Frame) : 0.580
Time code of first frame : 01:07:40:20
Time code source : Group of pictures header
Stream size : 882 MiB (94%)

Audio
ID : 189 (0xBD)-128 (0x80)
Format : AC-3
Format/Info : Audio Coding 3
Mode extension : CM (complete main)
Format settings, Endianness : Big
Muxing mode : DVD-Video
Duration : 20mn 30s
Bit rate mode : Constant
Bit rate : 224 Kbps
Channel(s) : 2 channels
Channel positions : Front: L R
Sampling rate : 48.0 KHz
Bit depth : 16 bits
Compression mode : Lossy
Delay relative to video : -602ms
Stream size : 32.9 MiB (4%)

Menu

Albert King & Stevie Ray Vaughan - In Session (2010) {Deluxe Edition}

Albert King & Stevie Ray Vaughan - In Session (2010) {Deluxe Edition}

Albert King & Stevie Ray Vaughan - In Session (2010) {Deluxe Edition}

Albert King & Stevie Ray Vaughan - In Session (2010) {Deluxe Edition}

Albert King & Stevie Ray Vaughan - In Session (2010) {Deluxe Edition}

Albert King & Stevie Ray Vaughan - In Session (2010) {Deluxe Edition}