Tags
Language
Tags
July 2024
Su Mo Tu We Th Fr Sa
30 1 2 3 4 5 6
7 8 9 10 11 12 13
14 15 16 17 18 19 20
21 22 23 24 25 26 27
28 29 30 31 1 2 3

Al Jarreau - Very Best Of Al Jarreau: An Excellent Adventure (Remastered) (2009)

Posted By: Rtax
Al Jarreau - Very Best Of Al Jarreau: An Excellent Adventure (Remastered) (2009)

Al Jarreau - Very Best Of Al Jarreau: An Excellent Adventure (Remastered) (2009)
XLD Rip | FLAC (tracks, cue, log, scans) - 484 MB | MP3 CBR 320 kbps - 184 MB
1:08:46 | Jazz, Soul-Jazz, Fusion, Rhythm & Blues, Soul, Theme | Label: Rhino

Considered by many to be the greatest living jazz singer, Al Jarreau is an artist of stunning range. He’s spent decades bending genres with his lithe voice, earning him the rare distinction of beingthe only artist to have won Grammy® Awards in three different categories: pop, jazz and R&B. Rhino honors the superlative vocalist’s musical achievements with a collection that spans his entire career titled AL JARREAU – THE VERY BEST OF: AN EXCELLENT ADVENTURE. The 16-song compilation bridges the past and the present, bringing together Jarreau’s greatest recordings with his latest “Excellent Adventure,” recorded especially for this release. The track was produced by Richard Nichols and The Randy Watson Experience (Grammy® winning songwriter James Poyser, and drummer for The Roots Ahmir "?uestlove" Thompson, who have produced songs for Erykah Badu, Al Green and The Roots).

Tracklist
1 After All (Single Version) [2009 Remaster]
2 Moonlighting (Theme) [2009 Remaster]
3 Never Givin' Up (2009 Remaster)
4 Roof Garden
5 Spain (I Can Recall) [2009 Remaster]
6 Take Five (Edit Version)
7 We're in This Love Together
8 Rainbow in Your Eyes (2009 Remaster)
9 Just To Be Loved
10 Cold Duck
11 We Got By (2009 Remaster)
12 Boogie Down (2009 Remaster)
13 (Round, Round, Round) Blue Rondo a La Turk
14 Mornin' (2009 Remaster)
15 So Good (2009 Remaster)
16 Excellent Adventure
X Lossless Decoder version 20170729 (150.3)

XLD extraction logfile from 2017-08-10 14:20:53 -0700

Al Jarreau / The Very Best Of: An Excellent Adventure

Used drive : TSSTcorp BDDVDW SE-506BB (revision TS00)
Media type : Pressed CD

Ripper mode : XLD Secure Ripper
Disable audio cache : OK for the drive with a cache less than 1375KiB
Make use of C2 pointers : NO
Read offset correction : 6
Max retry count : 100
Gap status : Analyzed, Appended (except HTOA)

TOC of the extracted CD
Track | Start | Length | Start sector | End sector
––––––––––––––––––––––––––––-
1 | 00:00:00 | 04:01:38 | 0 | 18112
2 | 04:01:38 | 03:04:08 | 18113 | 31920
3 | 07:05:46 | 03:57:16 | 31921 | 49711
4 | 11:02:62 | 06:21:10 | 49712 | 78296
5 | 17:23:72 | 06:35:32 | 78297 | 107953
6 | 23:59:29 | 03:31:40 | 107954 | 123818
7 | 27:30:69 | 03:46:40 | 123819 | 140808
8 | 31:17:34 | 03:06:30 | 140809 | 154788
9 | 34:23:64 | 04:19:70 | 154789 | 174283
10 | 38:43:59 | 03:46:34 | 174284 | 191267
11 | 42:30:18 | 05:03:71 | 191268 | 214063
12 | 47:34:14 | 04:03:37 | 214064 | 232325
13 | 51:37:51 | 04:45:30 | 232326 | 253730
14 | 56:23:06 | 04:16:27 | 253731 | 272957
15 | 60:39:33 | 04:17:02 | 272958 | 292234
16 | 64:56:35 | 03:50:46 | 292235 | 309530

List of alternate offset correction values
# | Absolute | Relative | Confidence
–––––––––––––––––––––
1 | 12 | 6 | 77
2 | -41 | -47 | 3

AccurateRip Summary (DiscID: 00285f33-01e4df1a-f1101f10)
Track 01 : OK (v1+v2, confidence 16/96)
Track 02 : OK (v1+v2, confidence 16/96)
Track 03 : OK (v1+v2, confidence 16/95)
Track 04 : OK (v1+v2, confidence 16/95)
Track 05 : OK (v1+v2, confidence 16/95)
Track 06 : OK (v1+v2, confidence 17/95)
Track 07 : OK (v1+v2, confidence 17/95)
Track 08 : OK (v1+v2, confidence 16/95)
Track 09 : OK (v1+v2, confidence 16/95)
Track 10 : OK (v1+v2, confidence 16/95)
Track 11 : OK (v1+v2, confidence 16/95)
Track 12 : OK (v1+v2, confidence 16/95)
Track 13 : OK (v1+v2, confidence 18/97)
Track 14 : OK (v1+v2, confidence 17/97)
Track 15 : OK (v1+v2, confidence 16/92)
Track 16 : OK (v1+v2, confidence 16/92)
->All tracks accurately ripped.

All Tracks
Album gain : -8.00 dB
Peak : 1.000000
Statistics
Read error : 0
Jitter error (maybe fixed) : 0
Retry sector count : 234
Damaged sector count : 0

Track 01
Filename : /Volumes/Hollywood and Vine/Rips/Al Jarreau - The Very Best Of: An Excellent Adventure (2009) [FLAC]/01 After All.flac
Pre-gap length : 00:02:00

Track gain : -7.89 dB
Peak : 0.991913
CRC32 hash (test run) : 7EC17E3C
CRC32 hash : 7EC17E3C
CRC32 hash (skip zero) : 49EF7D2F
AccurateRip v1 signature : 6CFA15F9
AccurateRip v2 signature : 5E3D9916
->Accurately ripped (v1+v2, confidence 3+13/96)
Statistics
Read error : 0
Jitter error (maybe fixed) : 0
Retry sector count : 0
Damaged sector count : 0

Track 02
Filename : /Volumes/Hollywood and Vine/Rips/Al Jarreau - The Very Best Of: An Excellent Adventure (2009) [FLAC]/02 Moonlighting (Theme).flac
Pre-gap length : 00:01:20

Track gain : -8.12 dB
Peak : 1.000000
CRC32 hash (test run) : C1FF554B
CRC32 hash : C1FF554B
CRC32 hash (skip zero) : 70E3C72C
AccurateRip v1 signature : EBA04509
AccurateRip v2 signature : 99AE8BB2
->Accurately ripped (v1+v2, confidence 4+12/96)
Statistics
Read error : 0
Jitter error (maybe fixed) : 0
Retry sector count : 1
Damaged sector count : 0

Track 03
Filename : /Volumes/Hollywood and Vine/Rips/Al Jarreau - The Very Best Of: An Excellent Adventure (2009) [FLAC]/03 Never Givin' Up.flac
Pre-gap length : 00:01:30

Track gain : -9.23 dB
Peak : 1.000000
CRC32 hash (test run) : 5AE7B9A5
CRC32 hash : 5AE7B9A5
CRC32 hash (skip zero) : 434C38D8
AccurateRip v1 signature : D803422B
AccurateRip v2 signature : B4C42439
->Accurately ripped (v1+v2, confidence 4+12/95)
Statistics
Read error : 0
Jitter error (maybe fixed) : 0
Retry sector count : 0
Damaged sector count : 0

Track 04
Filename : /Volumes/Hollywood and Vine/Rips/Al Jarreau - The Very Best Of: An Excellent Adventure (2009) [FLAC]/04 Roof Garden.flac
Pre-gap length : 00:01:20

Track gain : -7.98 dB
Peak : 0.999969
CRC32 hash (test run) : B05EA9DE
CRC32 hash : B05EA9DE
CRC32 hash (skip zero) : 4913EDFF
AccurateRip v1 signature : 36741D71
AccurateRip v2 signature : 1674D8E4
->Accurately ripped (v1+v2, confidence 4+12/95)
Statistics
Read error : 0
Jitter error (maybe fixed) : 0
Retry sector count : 0
Damaged sector count : 0

Track 05
Filename : /Volumes/Hollywood and Vine/Rips/Al Jarreau - The Very Best Of: An Excellent Adventure (2009) [FLAC]/05 Spain (I Can Recall).flac
Pre-gap length : 00:01:50

Track gain : -6.93 dB
Peak : 1.000000
CRC32 hash (test run) : 67AB2B40
CRC32 hash : 67AB2B40
CRC32 hash (skip zero) : 99D90EA0
AccurateRip v1 signature : AE2B3EF3
AccurateRip v2 signature : 37AC6C3A
->Accurately ripped (v1+v2, confidence 4+12/95)
Statistics
Read error : 0
Jitter error (maybe fixed) : 0
Retry sector count : 0
Damaged sector count : 0

Track 06
Filename : /Volumes/Hollywood and Vine/Rips/Al Jarreau - The Very Best Of: An Excellent Adventure (2009) [FLAC]/06 Take Five (edit version).flac
Pre-gap length : 00:01:30

Track gain : -7.73 dB
Peak : 0.978577
CRC32 hash (test run) : D2C5F5CB
CRC32 hash : D2C5F5CB
CRC32 hash (skip zero) : BAE92325
AccurateRip v1 signature : CF72A767
AccurateRip v2 signature : 0ECE6D6E
->Accurately ripped (v1+v2, confidence 4+13/95)
Statistics
Read error : 0
Jitter error (maybe fixed) : 0
Retry sector count : 216
Damaged sector count : 0

Track 07
Filename : /Volumes/Hollywood and Vine/Rips/Al Jarreau - The Very Best Of: An Excellent Adventure (2009) [FLAC]/07 We're in This Love Together.flac
Pre-gap length : 00:01:20

Track gain : -8.91 dB
Peak : 1.000000
CRC32 hash (test run) : 028ACFEB
CRC32 hash : 028ACFEB
CRC32 hash (skip zero) : BB1B7CF9
AccurateRip v1 signature : A4D14E5F
AccurateRip v2 signature : A51F9596
->Accurately ripped (v1+v2, confidence 4+13/95)
Statistics
Read error : 0
Jitter error (maybe fixed) : 0
Retry sector count : 0
Damaged sector count : 0

Track 08
Filename : /Volumes/Hollywood and Vine/Rips/Al Jarreau - The Very Best Of: An Excellent Adventure (2009) [FLAC]/08 Rainbow in Your Eyes.flac
Pre-gap length : 00:01:20

Track gain : -7.91 dB
Peak : 1.000000
CRC32 hash (test run) : 1D5E4744
CRC32 hash : 1D5E4744
CRC32 hash (skip zero) : C9D4E8C4
AccurateRip v1 signature : 900BA794
AccurateRip v2 signature : BF3EA8E5
->Accurately ripped (v1+v2, confidence 4+12/95)
Statistics
Read error : 0
Jitter error (maybe fixed) : 0
Retry sector count : 0
Damaged sector count : 0

Track 09
Filename : /Volumes/Hollywood and Vine/Rips/Al Jarreau - The Very Best Of: An Excellent Adventure (2009) [FLAC]/09 Just to Be Loved.flac
Pre-gap length : 00:01:40

Track gain : -6.21 dB
Peak : 0.999969
CRC32 hash (test run) : B457DB1D
CRC32 hash : B457DB1D
CRC32 hash (skip zero) : D6E6AE80
AccurateRip v1 signature : 84589495
AccurateRip v2 signature : 7EF2D47E
->Accurately ripped (v1+v2, confidence 4+12/95)
Statistics
Read error : 0
Jitter error (maybe fixed) : 0
Retry sector count : 0
Damaged sector count : 0

Track 10
Filename : /Volumes/Hollywood and Vine/Rips/Al Jarreau - The Very Best Of: An Excellent Adventure (2009) [FLAC]/10 Cold Duck.flac
Pre-gap length : 00:01:20

Track gain : -6.54 dB
Peak : 1.000000
CRC32 hash (test run) : 1D48C577
CRC32 hash : 1D48C577
CRC32 hash (skip zero) : 822BB265
AccurateRip v1 signature : 14D823E5
AccurateRip v2 signature : AED158E1
->Accurately ripped (v1+v2, confidence 4+12/95)
Statistics
Read error : 0
Jitter error (maybe fixed) : 0
Retry sector count : 0
Damaged sector count : 0

Track 11
Filename : /Volumes/Hollywood and Vine/Rips/Al Jarreau - The Very Best Of: An Excellent Adventure (2009) [FLAC]/11 We Got By.flac
Pre-gap length : 00:02:00

Track gain : -8.01 dB
Peak : 0.993225
CRC32 hash (test run) : D5B8F4F8
CRC32 hash : D5B8F4F8
CRC32 hash (skip zero) : 88271516
AccurateRip v1 signature : 57A05459
AccurateRip v2 signature : 713917E2
->Accurately ripped (v1+v2, confidence 4+12/95)
Statistics
Read error : 0
Jitter error (maybe fixed) : 0
Retry sector count : 17
Damaged sector count : 0

Track 12
Filename : /Volumes/Hollywood and Vine/Rips/Al Jarreau - The Very Best Of: An Excellent Adventure (2009) [FLAC]/12 Boogie Down.flac
Pre-gap length : 00:01:30

Track gain : -8.68 dB
Peak : 0.993134
CRC32 hash (test run) : 9294656C
CRC32 hash : 9294656C
CRC32 hash (skip zero) : DF4945E5
AccurateRip v1 signature : 6BCC4B4D
AccurateRip v2 signature : 86B92140
->Accurately ripped (v1+v2, confidence 4+12/95)
Statistics
Read error : 0
Jitter error (maybe fixed) : 0
Retry sector count : 0
Damaged sector count : 0

Track 13
Filename : /Volumes/Hollywood and Vine/Rips/Al Jarreau - The Very Best Of: An Excellent Adventure (2009) [FLAC]/13 (Round, Round, Round) Blue / Rondo a La Turk.flac
Pre-gap length : 00:01:20

Track gain : -8.59 dB
Peak : 0.999969
CRC32 hash (test run) : 1F40E598
CRC32 hash : 1F40E598
CRC32 hash (skip zero) : E7F8463A
AccurateRip v1 signature : 44CA3447
AccurateRip v2 signature : 77763D05
->Accurately ripped (v1+v2, confidence 4+14/97)
Statistics
Read error : 0
Jitter error (maybe fixed) : 0
Retry sector count : 0
Damaged sector count : 0

Track 14
Filename : /Volumes/Hollywood and Vine/Rips/Al Jarreau - The Very Best Of: An Excellent Adventure (2009) [FLAC]/14 Mornin'.flac
Pre-gap length : 00:01:20

Track gain : -7.99 dB
Peak : 1.000000
CRC32 hash (test run) : 5B09287A
CRC32 hash : 5B09287A
CRC32 hash (skip zero) : CC97E988
AccurateRip v1 signature : 8AB3A7D0
AccurateRip v2 signature : 01646E4D
->Accurately ripped (v1+v2, confidence 4+13/97)
Statistics
Read error : 0
Jitter error (maybe fixed) : 0
Retry sector count : 0
Damaged sector count : 0

Track 15
Filename : /Volumes/Hollywood and Vine/Rips/Al Jarreau - The Very Best Of: An Excellent Adventure (2009) [FLAC]/15 So Good.flac
Pre-gap length : 00:01:00

Track gain : -7.71 dB
Peak : 1.000000
CRC32 hash (test run) : 249A487E
CRC32 hash : 249A487E
CRC32 hash (skip zero) : BFD73DE2
AccurateRip v1 signature : 741F4E1C
AccurateRip v2 signature : 48DA1EA6
->Accurately ripped (v1+v2, confidence 4+12/92)
Statistics
Read error : 0
Jitter error (maybe fixed) : 0
Retry sector count : 0
Damaged sector count : 0

Track 16
Filename : /Volumes/Hollywood and Vine/Rips/Al Jarreau - The Very Best Of: An Excellent Adventure (2009) [FLAC]/16 Excellent Adventure.flac
Pre-gap length : 00:01:50

Track gain : -7.29 dB
Peak : 0.987488
CRC32 hash (test run) : 9D4E3229
CRC32 hash : 9D4E3229
CRC32 hash (skip zero) : AF09A815
AccurateRip v1 signature : 9AA6DF64
AccurateRip v2 signature : 2DA5A5C1
->Accurately ripped (v1+v2, confidence 3+13/92)
Statistics
Read error : 0
Jitter error (maybe fixed) : 0
Retry sector count : 0
Damaged sector count : 0

No errors occurred

End of status report

––-BEGIN XLD SIGNATURE––-
nJ3xFtqZkO6aErNvgAuwCUSJRrjN8teARKiMIn_iD.N1QGT3waNk963vP4PKJgnRRDJYRO_s8ig9BWhOom8BiOsSnS_X4CgmUoTRxAG
––-END XLD SIGNATURE––-