Tags
Language
Tags
March 2024
Su Mo Tu We Th Fr Sa
25 26 27 28 29 1 2
3 4 5 6 7 8 9
10 11 12 13 14 15 16
17 18 19 20 21 22 23
24 25 26 27 28 29 30
31 1 2 3 4 5 6

JISR - Wah Wah! (2023) [Official Digital Download 24/96]

Posted By: delpotro
JISR - Wah Wah! (2023) [Official Digital Download 24/96]

JISR - Wah Wah! (2023)
FLAC (tracks) 24-bit/96 kHz | Front Cover | Time - 33:48 minutes | 685 MB
World Fusion | Label: Yellowbird Records, Official Digital Download

For the album Wah Wah!, the international Munich-based ensemble JISR collaborated with the virtuoso vocalist of the Carnatic vocal tradition Ramamani R.A. and the German guitarist and oud player Roman Bunka to create an intercontinental opus magnum. The work is the result of an extensive tour in South Asia, during which JISR explored the music of the Indian subcontinent. A considerable wealth of musical styles meet and converge here, inspired from diverse Indian musical traditions, Gnawa music from Morocco, Arabic Maqam, German Jazz-Rock and more.

In an unconventional instrumentation, the collective experiments congenially on the highest artistic level in search of a homogeneous musical synthesis. With original compositions and traditional works, the musicians launch a unique attempt at interweaving the trance rhythms of South India and Morocco, wrapped in unifying melodic ornaments and familiar intuitive improvisation. Grounded, modern, groovy and immensely engaging.

Musical wanderings - a relevant concern that the album Wah Wah! puts out into the world as a matter of course.

Tracklist:
01. Wah Wah!
02. Samawi, Bhagyada Lakshmi Baramma
03. Heartsky
04. Dapa
05. Afrodite
06. Myrocc, Laung Gawacha

foobar2000 1.4.1 / Dynamic Range Meter 1.1.1
log date: 2023-11-18 20:55:44

––––––––––––––––––––––––––––––––––––––––
Analyzed: JISR / Wah Wah!
––––––––––––––––––––––––––––––––––––––––

DR Peak RMS Duration Track
––––––––––––––––––––––––––––––––––––––––
DR12 -1.01 dB -15.06 dB 6:47 01-Wah Wah!
DR10 -1.01 dB -13.58 dB 6:56 02-Samawi, Bhagyada Lakshmi Baramma
DR11 -1.01 dB -14.51 dB 6:29 03-Heartsky
DR10 -0.98 dB -14.42 dB 4:16 04-Dapa
DR11 -1.01 dB -13.82 dB 5:17 05-Afrodite
DR12 -1.30 dB -14.95 dB 4:04 06-Myrocc, Laung Gawacha
––––––––––––––––––––––––––––––––––––––––

Number of tracks: 6
Official DR value: DR11

Samplerate: 96000 Hz
Channels: 2
Bits per sample: 24
Bitrate: 2856 kbps
Codec: FLAC
================================================================================


Thanks to the Original customer!