Tags
Language
Tags

Hank Jones - The Jazz Trio Of Hank Jones (1955/2022)

Posted By: v3122
Hank Jones - The Jazz Trio Of Hank Jones (1955/2022)

Hank Jones - The Jazz Trio Of Hank Jones (1955/2022)
FLAC (Tracks) 24-bit/44.1 kHz | Official Digital Download | Time: 00:40:48
Jazz | Remastered | ~ 402 Mb

This is a superb Hank Jones date; highly recommended for fans of piano trio music. In 1955, most jazz pianists were immersed in the school of Bud Powell. Jones is unique in that he developed his harmonic concept prior to Powell's ascendancy and the bebop revolution, but went on to fully assimilate the melodic vocabulary of bop. He has synthesized important elements from many great players into his own recognizable style. His versatility is evident on these eight selections. Jones plays swinging bop lines on his original "We're All Together" and his blues head, "Odd Number," displays the Powell influence most clearly. Upon hearing the delicate touch and harmonic subtlety with which Jones plays ballads – including "We Could Make Such Beautiful Music Together," "Cyrano," "There's a Small Hotel," and "My Funny Valentine" – one can imagine that a young Bill Evans was quite familiar with this recording. Jones' mastery of block chords is particularly impressive. Occasionally reissued under drummer Kenny Clarke's name, this important Savoy session also includes bassist Wendell Marshall, who had spent the previous seven years with Duke Ellington's band.
Hank Jones - The Jazz Trio Of Hank Jones (1955/2022):

Tracklist:

01 - We're All Together 04:09
02 - Odd Number 04:32
03 - We Could Make Such Beautiful Music Together 04:52
04 - Now's The Time 03:31
05 - When Hearts Are Young 04:18
06 - Cyrano 05:17
07 - There's A Small Hotel 08:15
08 - My Funny Valentine 05:54

Hank Jones - piano
Wendell Marshall - bass
Kenny Clarke - drums


foobar2000 1.4.3 / Dynamic Range Meter 1.1.1
log date: 2022-06-23 16:25:30

––––––––––––––––––––––––––––––––––––––––
Analyzed: Hank Jones / The Jazz Trio Of Hank Jones
––––––––––––––––––––––––––––––––––––––––

DR Peak RMS Duration Track
––––––––––––––––––––––––––––––––––––––––
DR12 0.00 dB -13.57 dB 4:09 01-We're All Together (Remastered 2022)
DR12 0.00 dB -14.37 dB 4:33 02-Odd Number (Remastered 2022)
DR12 0.00 dB -14.09 dB 4:52 03-We Could Make Such Beautiful Music Together (Remastered 2022)
DR14 0.00 dB -16.03 dB 3:31 04-Now's The Time (Remastered 2022)
DR13 -0.05 dB -15.20 dB 4:18 05-When Hearts Are Young (Remastered 2022)
DR12 0.00 dB -14.50 dB 5:18 06-Cyrano (Remastered 2022)
DR12 -0.02 dB -14.68 dB 8:15 07-There's A Small Hotel (Remastered 2022)
DR14 -0.10 dB -16.93 dB 5:54 08-My Funny Valentine (Remastered 2022)
––––––––––––––––––––––––––––––––––––––––

Number of tracks: 8
Official DR value: DR12

Samplerate: 44100 Hz
Channels: 2
Bits per sample: 24
Bitrate: 1253 kbps
Codec: FLAC

All thanks go to the original releaser

Download Hank Jones - The Jazz Trio Of Hank Jones (1955/2022):