Tags
Language
Tags
July 2024
Su Mo Tu We Th Fr Sa
30 1 2 3 4 5 6
7 8 9 10 11 12 13
14 15 16 17 18 19 20
21 22 23 24 25 26 27
28 29 30 31 1 2 3

Martin Sasse - Trio Classics 1-3 (2022)

Posted By: v3122
Martin Sasse - Trio Classics 1-3 (2022)

Martin Sasse - Trio Classics 1-3 (2022)
FLAC (Tracks) 24-bit/44.1 kHz | Official Digital Download | Time: 02:45:21
Jazz | Label: JazzJazz | ~ 1.84 Gb

In the course of his stage career Martin Sasse has worked with nearly all legends in the international jazz scene and Sasse himself ranks as one of the most outstanding jazz pianists in Europe. He has released ten albums under his own name and plays as a guest on countless recordings and at concerts worldwide. Jazz legends have influenced him, including Al Foster, Jimmy Cobb, Steve Grossman and Lee Konitz. For Billy Cobham and Hiram Bullock he switched from the piano to the hammond B3 and presents himself as an outstanding organist.

The Martin Sasse Trio has existed in changing formations for almost thirty years. Even their first album Here we come (2000) received best international reviews. Later albums include Vincent Herring, the Miles Davis saxophonist Steve Grossmann and the guitarist Peter Bernstein. For the album Good Times with Charlie Mariano, the trio received the famous German Record Critics' Award in 2010.
Martin Sasse - Trio Classics 1-3 (2022):

Trio Classics 1:

01 - Temperance (00:05:49)
02 - Sassy (00:05:41)
03 - Manteca (00:04:01)
04 - Cry Me a River (00:07:22)
05 - This Here (00:06:02)
06 - Whisper Not (00:05:18)
07 - Bebop (00:04:56)
08 - I Should Care (00:04:34)
09 - Come Rain or Come Shine (00:05:34)
10 - Two Bass Hit (00:02:44)

foobar2000 1.6.11 / Dynamic Range Meter 1.1.1
log date: 2022-07-26 21:23:07

––––––––––––––––––––––––––––––––––––––––
Analyzed: Martin Sasse / Trio Classics 1
––––––––––––––––––––––––––––––––––––––––

DR Peak RMS Duration Track
––––––––––––––––––––––––––––––––––––––––
DR10 -1.10 dB -12.77 dB 5:49 01-Temperance
DR11 -1.10 dB -14.00 dB 5:41 02-Sassy
DR9 -1.10 dB -11.40 dB 4:01 03-Manteca
DR13 -1.10 dB -16.83 dB 7:22 04-Cry Me a River
DR12 -1.10 dB -16.30 dB 6:02 05-This Here
DR10 -1.10 dB -13.54 dB 5:19 06-Whisper Not
DR11 -1.10 dB -13.75 dB 4:57 07-Bebop
DR11 -1.10 dB -13.62 dB 4:34 08-I Should Care
DR12 -1.10 dB -15.14 dB 5:34 09-Come Rain or Come Shine
DR10 -1.10 dB -12.69 dB 2:44 10-Two Bass Hit
––––––––––––––––––––––––––––––––––––––––

Number of tracks: 10
Official DR value: DR11

Samplerate: 44100 Hz
Channels: 2
Bits per sample: 24
Bitrate: 1663 kbps
Codec: FLAC

Trio Classics 2:

01 - Bouncing with Bud (00:04:22)
02 - Soulville (00:06:18)
03 - Conception (00:04:38)
04 - Django (00:04:15)
05 - Chacha-Twist (00:04:38)
06 - Pannonica (00:04:18)
07 - September in the Rain (00:05:07)
08 - Dat Dere (00:05:28)
09 - How My Heart Sings (00:03:35)
10 - Holy Land (00:04:50)
11 - Inception (00:03:20)
12 - You Look Good to Me (00:04:42)
13 - But Not for Me (00:03:19)

foobar2000 1.6.11 / Dynamic Range Meter 1.1.1
log date: 2022-07-26 21:23:38

––––––––––––––––––––––––––––––––––––––––
Analyzed: Martin Sasse / Trio Classics 2
––––––––––––––––––––––––––––––––––––––––

DR Peak RMS Duration Track
––––––––––––––––––––––––––––––––––––––––
DR10 -1.10 dB -12.48 dB 4:23 01-Bouncing with Bud
DR12 -1.11 dB -15.81 dB 6:19 02-Soulville
DR11 -1.10 dB -13.44 dB 4:39 03-Conception
DR13 -1.10 dB -15.45 dB 4:15 04-Django
DR9 -1.10 dB -13.11 dB 4:38 05-Chacha-Twist
DR14 -1.10 dB -17.70 dB 4:19 06-Pannonica
DR10 -1.10 dB -12.94 dB 5:07 07-September in the Rain
DR9 -1.10 dB -12.65 dB 5:29 08-Dat Dere
DR12 -1.10 dB -16.00 dB 3:35 09-How My Heart Sings
DR10 -1.10 dB -13.22 dB 4:51 10-Holy Land
DR9 -1.10 dB -11.83 dB 3:21 11-Inception
DR9 -1.10 dB -13.29 dB 4:43 12-You Look Good to Me
DR12 -1.10 dB -15.02 dB 3:20 13-But Not for Me
––––––––––––––––––––––––––––––––––––––––

Number of tracks: 13
Official DR value: DR11

Samplerate: 44100 Hz
Channels: 2
Bits per sample: 24
Bitrate: 1469 kbps
Codec: FLAC

Trio Classics 3:

01 - Just Squeeze Me (00:07:49)
02 - Waltz for Debby (00:05:04)
03 - Billie Boy (00:05:10)
04 - Moanin' (00:05:19)
05 - In the Wee Small Hours of the Morning (00:04:53)
06 - Effendi (00:05:12)
07 - FSR (00:03:35)
08 - Poinciana (00:07:49)
09 - Tricotism (00:04:57)
10 - Firm Roots (00:04:29)

foobar2000 1.6.11 / Dynamic Range Meter 1.1.1
log date: 2022-07-26 21:24:01

––––––––––––––––––––––––––––––––––––––––
Analyzed: Martin Sasse / Trio Classics 3
––––––––––––––––––––––––––––––––––––––––

DR Peak RMS Duration Track
––––––––––––––––––––––––––––––––––––––––
DR11 -1.10 dB -15.54 dB 7:49 01-Just Squeeze Me
DR13 -1.10 dB -16.31 dB 5:04 02-Waltz for Debby
DR12 -1.10 dB -14.81 dB 5:11 03-Billie Boy
DR11 -1.10 dB -14.14 dB 5:19 04-Moanin'
DR12 -2.53 dB -18.75 dB 4:54 05-In the Wee Small Hours of the Morning
DR12 -1.10 dB -15.09 dB 5:12 06-Effendi
DR12 -1.10 dB -15.38 dB 3:36 07-FSR
DR12 -1.10 dB -14.43 dB 7:49 08-Poinciana
DR14 -1.46 dB -17.94 dB 4:57 09-Tricotism
DR11 -1.10 dB -13.95 dB 4:30 10-Firm Roots
––––––––––––––––––––––––––––––––––––––––

Number of tracks: 10
Official DR value: DR12

Samplerate: 44100 Hz
Channels: 2
Bits per sample: 24
Bitrate: 1599 kbps
Codec: FLAC

All thanks go to the original releaser

Download Martin Sasse - Trio Classics 1-3 (2022):