David Sylvian - Camphor (2002) (2xCD. Limited Edtion)

Posted By: ruskaval
David Sylvian  - Camphor (2002) (2xCD. Limited Edtion)

David Sylvian - Camphor (2002) [2CD, Limited Edtion]
EAC rip (secure mode) | FLAC+CUE+LOG -> 501 Mb | MP3 @320 -> 231 Mb
Full Artwork @ 400 dpi (jpg) -> 31 Mb
© 2002 Virgin Records | CDVEX962 / 7243 8 12201 2 2
Experimental Rock / Experimental Ambient / Electronica


David Sylvian  - Camphor (2002) (2xCD. Limited Edtion)

2002 compilation of instrumental tracks from the former lead singer of Japan and Rain Tree Crow. 'Wave', 'Plight' nand 'Upon This Earth' were all newly remixed by Sylvian. 'Red Earth', 'New Moon At Deer Wallow' and 'Big Wheels In Shanty Town' were originally recorded by Rain Tree Crow.
Limited Edtion 2002 Compilation of Instrumental Tracks from the Former Lead Singer of Japan and Rain Tree Crow. Camphor showcases the instrumental side of David Sylvian's oeuvre, being a compilation of various instrumental directions from 1986 to 2000 (when he parted company with Virgin) As with all compilations, there are many tracks left off, fans will have the majority of tracks here & the various stand-alone albums (Plight&Premonition, Alchemy, Flux&Mutability, Approaching Silence, the second disc of Gone to Earth etc) all work completely…but Camphor does hold together well and showcases Sylvian's ambient-credentials.
Personnel: David Sylvian (vocals, arranger, guitar, slide guitar, Fender Rhodes piano, harmonium, Hammond B-3 organ, keyboards, synthesizer, vibraphone, drums, samples, sound effects); Djanka Diabate, Djene Doumbouya (vocals); David Torn (acoustic guitar); Marc Ribot, Robert Fripp (guitar); Nils Potter Molvaer (trumpet); Ryuichi Sakamoto (piano, Fender Rhodes piano, Hammond B-3 organ); Holger Czukay (piano, organ, samples, sound effects); John Taylor (piano); Chris Minh Doky (acoustic bass); Scooter Warner (drums); Talvin Singh (tabla, percussion); Danny Cummings (percussion).

tracklist:
CD1
1. All My Mother's Names
2. Red Earth (As Summertime Ends)
3. Answered Prayers
4. The Song Which Gives The Key To Perfection
5. New Moon At Red Deer Wallow
6. Praise (pratah Smarami)
7. Wave (Version)
8. Mother And Child
9. Plight (The Spiralling Of Winter Ghosts) Detail
10. Upon This Earth
11. Big Wheels In Shanty Town
12. The Healing Place
13. Camphor
14. A Brief Conversation Ending In Divorce

Bonus CD
1. Plight (The Spiralling Of Winter Ghosts)
2. Mutability (A New Beginning Is In The Offing) Detail
3. Premonition (Giant Empty Iron Vessel)

David Sylvian  - Camphor (2002) (2xCD. Limited Edtion)

Exact Audio Copy V0.99 prebeta 5 from 4. May 2009

EAC extraction logfile from 20. August 2009, 20:18

David Sylvian / Camphor (CD1)

Used drive : PIONEER DVD-RW DVR-111L Adapter: 3 ID: 0

Read mode : Secure
Utilize accurate stream : Yes
Defeat audio cache : Yes
Make use of C2 pointers : No

Read offset correction : 48
Overread into Lead-In and Lead-Out : No
Fill up missing offset samples with silence : Yes
Delete leading and trailing silent blocks : No
Null samples used in CRC calculations : Yes
Used interface : Native Win32 interface for Win NT & 2000
Gap handling : Appended to previous track

Used output format : User Defined Encoder
Selected bitrate : 1024 kBit/s
Quality : High
Add ID3 tag : No
Command line compressor : C:\Program Files\FLAC\flac.exe
Additional command line options : -8 -V -T "ARTIST=%a" -T "TITLE=%t" -T "ALBUM=%g" -T "DATE=%y" -T "TRACKNUMBER=%n" -T "GENRE=%m" -T "COMMENT=EAC FLAC -8" %s


TOC of the extracted CD

Track | Start | Length | Start sector | End sector
––––––––––––––––––––––––––––-
1 | 0:00.00 | 6:06.07 | 0 | 27456
2 | 6:06.07 | 3:34.51 | 27457 | 43557
3 | 9:40.58 | 2:45.32 | 43558 | 55964
4 | 12:26.15 | 5:52.41 | 55965 | 82405
5 | 18:18.56 | 5:14.08 | 82406 | 105963
6 | 23:32.64 | 3:55.42 | 105964 | 123630
7 | 27:28.31 | 3:58.68 | 123631 | 141548
8 | 31:27.24 | 4:03.55 | 141549 | 159828
9 | 35:31.04 | 2:30.69 | 159829 | 171147
10 | 38:01.73 | 4:14.05 | 171148 | 190202
11 | 42:16.03 | 6:56.53 | 190203 | 221455
12 | 49:12.56 | 4:52.13 | 221456 | 243368
13 | 54:04.69 | 3:10.24 | 243369 | 257642
14 | 57:15.18 | 3:27.18 | 257643 | 273185


Track 1

Filename C:\David Sylvian - Camphor (2002) [2CD]\CD1\01 - All of My Mother's Names.wav

Pre-gap length 0:00:02.00

Peak level 97.3 %
Track quality 100.0 %
Test CRC D848FC69
Copy CRC D848FC69
Accurately ripped (confidence 20) [9C9DC5BC]
Copy OK

Track 2

Filename C:\David Sylvian - Camphor (2002) [2CD]\CD1\02 - Red Earth (as summertime ends).wav

Peak level 91.3 %
Track quality 100.0 %
Test CRC AE2E0E6A
Copy CRC AE2E0E6A
Accurately ripped (confidence 20) [CC455AFD]
Copy OK

Track 3

Filename C:\David Sylvian - Camphor (2002) [2CD]\CD1\03 - Answered Prayers.wav

Peak level 87.5 %
Track quality 100.0 %
Test CRC 0A7121BD
Copy CRC 0A7121BD
Accurately ripped (confidence 20) [D36EA1BB]
Copy OK

Track 4

Filename C:\David Sylvian - Camphor (2002) [2CD]\CD1\04 - The Song Which Gives the Key to Perfection.wav

Peak level 89.1 %
Track quality 100.0 %
Test CRC 75A75EBE
Copy CRC 75A75EBE
Accurately ripped (confidence 20) [D9448604]
Copy OK

Track 5

Filename C:\David Sylvian - Camphor (2002) [2CD]\CD1\05 - New Moon at Red Deer Wallow.wav

Peak level 93.4 %
Track quality 100.0 %
Test CRC 540DBF4B
Copy CRC 540DBF4B
Accurately ripped (confidence 19) [B2AE6249]
Copy OK

Track 6

Filename C:\David Sylvian - Camphor (2002) [2CD]\CD1\06 - Praise (Pratah Smarami).wav

Peak level 89.8 %
Track quality 100.0 %
Test CRC FB16147D
Copy CRC FB16147D
Accurately ripped (confidence 20) [F2417D9D]
Copy OK

Track 7

Filename C:\David Sylvian - Camphor (2002) [2CD]\CD1\07 - Wave (version).wav

Peak level 86.1 %
Track quality 100.0 %
Test CRC 38E02430
Copy CRC 38E02430
Accurately ripped (confidence 20) [A8A03858]
Copy OK

Track 8

Filename C:\David Sylvian - Camphor (2002) [2CD]\CD1\08 - Mother and Child.wav

Peak level 89.9 %
Track quality 99.9 %
Test CRC F8E5FAA0
Copy CRC F8E5FAA0
Accurately ripped (confidence 20) [B2F8D8F9]
Copy OK

Track 9

Filename C:\David Sylvian - Camphor (2002) [2CD]\CD1\09 - Plight (the spiralling of winter ghosts) - detail.wav

Peak level 70.9 %
Track quality 100.0 %
Test CRC B6344263
Copy CRC B6344263
Accurately ripped (confidence 20) [9836BC4A]
Copy OK

Track 10

Filename C:\David Sylvian - Camphor (2002) [2CD]\CD1\10 - Upon This Earth.wav

Peak level 84.6 %
Track quality 100.0 %
Test CRC 9F5D4E23
Copy CRC 9F5D4E23
Accurately ripped (confidence 20) [0ADFC3FC]
Copy OK

Track 11

Filename C:\David Sylvian - Camphor (2002) [2CD]\CD1\11 - Big Wheels in Shanty Town.wav

Peak level 94.2 %
Track quality 100.0 %
Test CRC 7BC9268C
Copy CRC 7BC9268C
Accurately ripped (confidence 19) [426CD5E3]
Copy OK

Track 12

Filename C:\David Sylvian - Camphor (2002) [2CD]\CD1\12 - The Healing Place.wav

Peak level 84.1 %
Track quality 100.0 %
Test CRC E3253D4B
Copy CRC E3253D4B
Accurately ripped (confidence 20) [BEF6440A]
Copy OK

Track 13

Filename C:\David Sylvian - Camphor (2002) [2CD]\CD1\13 - Camphor.wav

Peak level 85.1 %
Track quality 100.0 %
Test CRC BA594C00
Copy CRC BA594C00
Accurately ripped (confidence 20) [DA0D8783]
Copy OK

Track 14

Filename C:\David Sylvian - Camphor (2002) [2CD]\CD1\14 - A Brief Conversation Ending in Divorce.wav

Peak level 90.0 %
Track quality 99.9 %
Test CRC 5722D7C9
Copy CRC 5722D7C9
Accurately ripped (confidence 20) [E41E0D40]
Copy OK


All tracks accurately ripped

No errors occurred

End of status report

Please don't post the links and passes in your comments…

Linkz