Tags
Language
Tags
July 2024
Su Mo Tu We Th Fr Sa
30 1 2 3 4 5 6
7 8 9 10 11 12 13
14 15 16 17 18 19 20
21 22 23 24 25 26 27
28 29 30 31 1 2 3

Sarah Vaughan - Live at Rosy's (2016)

Posted By: delpotro
Sarah Vaughan - Live at Rosy's (2016)

Sarah Vaughan - Live at Rosy's (2016)
XLD Rip | FLAC (tracks+log+.cue) - 549 Mb | MP3 CBR 320 kbps - 200 Mb | 01:27:06
Vocal Jazz | Label: Resonance Records

Resonance Records with the cooperation of National Public Radio (NPR) is proud to announce the release of Sarah Vaughan's Live At Rosy’s, New Orleans on March 25th, 2016 The deluxe 2-CD set is comprised exclusively of newly discovered recordings by “Sassy” capturing the legendary jazz singer’s live performance at Rosy’s Jazz Club on May 31, 1978.

Sarah Vaughan, along with Billie Holiday and Ella Fitzgerald, was a member of a triumvirate one of the three greatest female jazz singers in jazz history. She first attracted attention at 18 years of age in 1942, when she appeared at the Apollo Theater’s amateur night, first as a pianist accompanying another singer and then a few weeks later in her own right as a singer, when she won the contest. During her weeklong Apollo engagement, which was one of the prizes she earned for her victory, Billy Eckstine, who was then the featured singer with the Earl Hines big band, spotted her. Eckstine recommended her to Hines, who asked her to join his band. Other members of the Hines band were Dizzy Gillespie and Charlie Parker; it was widely regarded as one of the early breeding grounds for bebop. The musical ferment of that grouping of musical geniuses had an enormous influence on Vaughan.

Vaughan had an exceptionally broad vocal range; it extended from a coloratura soprano down to a low alto some might even say she sometimes made her way into the baritone range. Her tone was rich and lush. Vocalist Helen Merrill told Zev Feldman in his interview with her conducted for this release: “When Sarah sang, she might just as well have been a trumpet player playing. Her musical ability, her jazz phrasing . . . it was perfect.” She was a musicians’ singer, yet despite her extraordinary gifts, she was down to earth; she was always accepted by the musicians whom she worked with as one of them “she was like one of the fellas,” says Jimmy Cobb.

When these live recordings at Rosy’s Jazz Club were made in May of 1978, Sarah Vaughan was at her artistic peak (at age 54). That year, a kind of renaissance year for her, set her on a meteoric course during which she would win an Emmy and a Grammy and tour the world several times. Each time she released an album, Johnny Carson and Merv Griffin showcased her proudly on TV. For all the grand orchestras that backed her, Sarah Vaughan seemed happiest with her trio; they gave her the space to spread her wings and explore. I get ideas from all three of them while I’m singing,” she said. “We have a ball together, all of us, and wherever I go to work, they’re going with me.” In 1978, Vaughan and her band pianist Carl Schroeder, bassist Walter Booker, and drummer Jimmy Cobb performed at Rosy’s Jazz Club in New Orleans.

The founder/owner of Rosy’s, Rosalie Wilson, describes her impetus for opening a jazz club in New Orleans in the 1970s: “I was puzzled as to why one seldom experienced these musicians in club settings. Roland Kirk explained this phenomenon during an interview citing the continued reticence of many black artists to play clubs or smaller venues in the South for reasons of safety, treatment by club owners and the general negative conditions. I knew he was being truthful and I found this to be perverse, given the fact that New Orleans had long been anointed the birthplace of jazz. This angered me and provided the cause this rebel had long been seeking: to create a music club or venue in which the safety, respect and needs of the musicians were the first priority. One in which a “zero tolerance” policy would exist regarding any form of prejudice.”

James Gavin writes in his essay “Romance, Family & Heartbreak: The Divine One” within the liner notes of the package: “By the time of Vaughan’s performances at Rosy’s captured in this set, her dark-chocolate voice had more than survived 36 years of professional singing; her art had only grown in splendor. She took dusky plunges and glided up to fluty soprano highs; she colored the three octaves in between with a wealth of textures, from gravel to velvet. Vaughan controlled her famous vibrato like a concert violinist; she could make it swagger, pulse, or vanish entirely.”

Behind the vocal riches was a boundless musical mind. “As soon as I hear an arrangement I get ideas,” she said, “kind of like blowing a horn.” So many came to her that Vaughan was like a child let loose in a candy store. “She had tremendous harmonic conception,” says Carl Schroeder. “Most singers have none.” Her breath control enabled her to skitter tirelessly over daredevil bebop changes and to sing ballads at a luxurious crawl. All this came naturally to her. “I don’t know what I’m doin’!” she said. “I just get onstage and sing. I don’t think about how I’m going to do it—it’s too complicated.”

Journalist and critic Will Friedwald takes us through Live at Rosy’s track-by-track: Gershwin, as always, is a major staple of Vaughan’s repertoire, from her classic Gershwin double songbook in 1957 to her epic symphonic jazz concerts (and album) of 25 years later. “The Man I Love” was the Divine One’s signature ballad. As with Fitzgerald, there were some songs and some lyrics that meant to more to her than others, and this song always occupied an extra special place in her heart. You’ll often hear Vaughan take a serious ballad and completely jazz it up (as she does with “April” here), but when she does this particular song, you can tell she’s only thinking about the man she loves.

In 1978, “Send in the Clowns” was gradually evolving into her climactic, show-stopping number. The Sondheim song kept getting longer and longer, growing bigger and bigger as well as slower and slower, and being pushed farther and farther back in the program. Still, it would be hard to say that Vaughan ever sang it better than she did in New Orleans: She absolutely nails it, and makes it clear why, of all the songs and shows that Sondheim has written over almost 60 years, this is easily his most beloved piece of music.

When the request comes through for “A-Tisket, A-Tasket” which was, famously, her colleague Ella Fitzgerald’s first and biggest hit, Vaughan says, with mock exasperation, “Well, I’ll be damned!” Clearly, it was one thing for Vaughan to make a joke about being mistaken for another singer (earlier she had joked that she was Carmen McRae), and quite another for someone in the crowd to confuse her with Ella Fitzgerald. Yet not to be outdone, she takes it a step further, “[he] thinks I’m Lena Horne, huh?” thereby compounding the joke by dropping the name of yet a third iconic African-American vocal headliner. “Then I’ll tell you who I am when I finish,” she declares, “We got to do this,” and then flies into a whole chorus of the 1938 song.
Tracklist:
01. I'll Remember April (3:45)
02. Anchors Aweigh: I fall In Love Too Easily (3:44)
03. Band Intro (1:27)
04. East Of The Sun (And West Of The Moon) (3:11)
05. Bye Bye Birdie: A Lot Of Livin 'To Do (2:14)
06. It Happened In Brooklyn: Time After Time (3:46)
07. George White's Scandals Of 1924: Somebody Loves Me (2:07)
08. The Big Show: Poor Butterfly (4:58)
09. A-Tisket, A-Tasket (1:49)
10. A Little Night Music: Send In The Clowns (6:01)
11. Sarah's Blues (7:46)
12. Lady, Be Good !: The Man I Love (4:45)
13. I Got It Bad (And That Ain't Good) (5:12)
14. Watch What Happens (2:44)
15. If You Went Away (Preciso Aprender A Ser Só) (5:39)
16. I Could Write A Book (3:01)
17. I Remember You (5:02)
18. Fascinating Rhythm(3:58)
19. Everything Must Change (6:47)
20. Belle Of The Yukon: Like Someone In Love (2:41)
21. Babes In Arms: My Funny Valentine (5:17)
22. Ending Theme ( 1:11)

X Lossless Decoder version 20160920 (149.2)

XLD extraction logfile from 2016-11-09 16:08:28 -0800

Sarah Vaughan / Live at Rosy's (Disc 1)

Used drive : TSSTcorp BDDVDW SE-506BB (revision TS00)
Media type : Pressed CD

Ripper mode : XLD Secure Ripper
Disable audio cache : OK for the drive with a cache less than 1375KiB
Make use of C2 pointers : NO
Read offset correction : 6
Max retry count : 100
Gap status : Analyzed, Appended (except HTOA)

TOC of the extracted CD
Track | Start | Length | Start sector | End sector
––––––––––––––––––––––––––––-
1 | 00:00:00 | 03:45:36 | 0 | 16910
2 | 03:45:36 | 03:42:71 | 16911 | 33631
3 | 07:28:32 | 01:29:52 | 33632 | 40358
4 | 08:58:09 | 03:08:61 | 40359 | 54519
5 | 12:06:70 | 02:13:48 | 54520 | 64542
6 | 14:20:43 | 03:45:53 | 64543 | 81470
7 | 18:06:21 | 02:06:69 | 81471 | 90989
8 | 20:13:15 | 04:57:68 | 90990 | 113332
9 | 25:11:08 | 01:49:09 | 113333 | 121516
10 | 27:00:17 | 06:00:28 | 121517 | 148544
11 | 33:00:45 | 07:47:31 | 148545 | 183600

AccurateRip Summary (DiscID: 000e7cae-007f0dcc-8309900b)
Track 01 : OK (v2, confidence 9/9)
Track 02 : OK (v2, confidence 9/9)
Track 03 : OK (v2, confidence 9/9)
Track 04 : OK (v2, confidence 9/9)
Track 05 : OK (v2, confidence 9/9)
Track 06 : OK (v2, confidence 9/9)
Track 07 : OK (v2, confidence 9/9)
Track 08 : OK (v2, confidence 9/9)
Track 09 : OK (v2, confidence 9/9)
Track 10 : OK (v2, confidence 9/9)
Track 11 : OK (v2, confidence 9/9)
->All tracks accurately ripped.

All Tracks
Album gain : -8.09 dB
Peak : 1.000000
Statistics
Read error : 0
Jitter error (maybe fixed) : 6
Retry sector count : 1441
Damaged sector count : 0

Track 01
Filename : /Volumes/Hollywood and Vine/BT/Sarah Vaughan - Live at Rosy's (Disc 1) (2016) [FLAC]/01 I'll Remember April.flac
Pre-gap length : 00:02:00

Track gain : -6.13 dB
Peak : 1.000000
CRC32 hash (test run) : B30546E2
CRC32 hash : B30546E2
CRC32 hash (skip zero) : 628C991B
AccurateRip v1 signature : 5A23EB1C
AccurateRip v2 signature : 314B128F
->Accurately ripped (v2, confidence 9/9)
Statistics
Read error : 0
Jitter error (maybe fixed) : 0
Retry sector count : 1
Damaged sector count : 0

Track 02
Filename : /Volumes/Hollywood and Vine/BT/Sarah Vaughan - Live at Rosy's (Disc 1) (2016) [FLAC]/02 I Fall in Love Too Easily.flac

Track gain : -8.57 dB
Peak : 0.966217
CRC32 hash (test run) : D4D50AA9
CRC32 hash : D4D50AA9
CRC32 hash (skip zero) : 9BBD8F8C
AccurateRip v1 signature : 0EDC4E2C
AccurateRip v2 signature : 1427850A
->Accurately ripped (v2, confidence 9/9)
Statistics
Read error : 0
Jitter error (maybe fixed) : 0
Retry sector count : 0
Damaged sector count : 0

Track 03
Filename : /Volumes/Hollywood and Vine/BT/Sarah Vaughan - Live at Rosy's (Disc 1) (2016) [FLAC]/03 Band Intro.flac

Track gain : -5.21 dB
Peak : 0.964966
CRC32 hash (test run) : 85B1ECFF
CRC32 hash : 85B1ECFF
CRC32 hash (skip zero) : A92E9958
AccurateRip v1 signature : 8151C723
AccurateRip v2 signature : BE29B585
->Accurately ripped (v2, confidence 9/9)
Statistics
Read error : 0
Jitter error (maybe fixed) : 0
Retry sector count : 0
Damaged sector count : 0

Track 04
Filename : /Volumes/Hollywood and Vine/BT/Sarah Vaughan - Live at Rosy's (Disc 1) (2016) [FLAC]/04 East of the Sun (And West of the Moon).flac

Track gain : -8.62 dB
Peak : 0.966766
CRC32 hash (test run) : 8DEFBD57
CRC32 hash : 8DEFBD57
CRC32 hash (skip zero) : 8C8FCFE6
AccurateRip v1 signature : 910D9735
AccurateRip v2 signature : 5C27E7B8
->Accurately ripped (v2, confidence 9/9)
Statistics
Read error : 0
Jitter error (maybe fixed) : 1
Retry sector count : 0
Damaged sector count : 0

Track 05
Filename : /Volumes/Hollywood and Vine/BT/Sarah Vaughan - Live at Rosy's (Disc 1) (2016) [FLAC]/05 A Lot of Livin' to Do.flac

Track gain : -7.87 dB
Peak : 0.970673
CRC32 hash (test run) : C583EEF7
CRC32 hash : C583EEF7
CRC32 hash (skip zero) : B4708355
AccurateRip v1 signature : 21060676
AccurateRip v2 signature : 09F0FCDA
->Accurately ripped (v2, confidence 9/9)
Statistics
Read error : 0
Jitter error (maybe fixed) : 0
Retry sector count : 0
Damaged sector count : 0

Track 06
Filename : /Volumes/Hollywood and Vine/BT/Sarah Vaughan - Live at Rosy's (Disc 1) (2016) [FLAC]/06 Time After Time.flac

Track gain : -8.96 dB
Peak : 0.967255
CRC32 hash (test run) : 5690458A
CRC32 hash : 5690458A
CRC32 hash (skip zero) : 04914C6C
AccurateRip v1 signature : B1376D79
AccurateRip v2 signature : 634415F9
->Accurately ripped (v2, confidence 9/9)
Statistics
Read error : 0
Jitter error (maybe fixed) : 2
Retry sector count : 942
Damaged sector count : 0

Track 07
Filename : /Volumes/Hollywood and Vine/BT/Sarah Vaughan - Live at Rosy's (Disc 1) (2016) [FLAC]/07 Somebody Loves Me.flac

Track gain : -8.06 dB
Peak : 0.966003
CRC32 hash (test run) : 78A011C8
CRC32 hash : 78A011C8
CRC32 hash (skip zero) : 7C1EB189
AccurateRip v1 signature : 622E0D63
AccurateRip v2 signature : 2F170B05
->Accurately ripped (v2, confidence 9/9)
Statistics
Read error : 0
Jitter error (maybe fixed) : 0
Retry sector count : 0
Damaged sector count : 0

Track 08
Filename : /Volumes/Hollywood and Vine/BT/Sarah Vaughan - Live at Rosy's (Disc 1) (2016) [FLAC]/08 Poor Butterfly.flac

Track gain : -7.67 dB
Peak : 0.968567
CRC32 hash (test run) : 3E4F4F38
CRC32 hash : 3E4F4F38
CRC32 hash (skip zero) : E30DE4D9
AccurateRip v1 signature : C51854A5
AccurateRip v2 signature : EAC9D22B
->Accurately ripped (v2, confidence 9/9)
Statistics
Read error : 0
Jitter error (maybe fixed) : 1
Retry sector count : 0
Damaged sector count : 0

Track 09
Filename : /Volumes/Hollywood and Vine/BT/Sarah Vaughan - Live at Rosy's (Disc 1) (2016) [FLAC]/09 A-Tisket A-Tasket.flac

Track gain : -9.07 dB
Peak : 0.970612
CRC32 hash (test run) : 721A0735
CRC32 hash : 721A0735
CRC32 hash (skip zero) : 5B36EF28
AccurateRip v1 signature : 492BEC3F
AccurateRip v2 signature : 1478D735
->Accurately ripped (v2, confidence 9/9)
Statistics
Read error : 0
Jitter error (maybe fixed) : 1
Retry sector count : 0
Damaged sector count : 0

Track 10
Filename : /Volumes/Hollywood and Vine/BT/Sarah Vaughan - Live at Rosy's (Disc 1) (2016) [FLAC]/10 Send in the Clowns.flac

Track gain : -7.54 dB
Peak : 0.965210
CRC32 hash (test run) : 02A8AB2C
CRC32 hash : 02A8AB2C
CRC32 hash (skip zero) : EDEABE4C
AccurateRip v1 signature : 152989B4
AccurateRip v2 signature : D842CA88
->Accurately ripped (v2, confidence 9/9)
Statistics
Read error : 0
Jitter error (maybe fixed) : 1
Retry sector count : 368
Damaged sector count : 0

Track 11
Filename : /Volumes/Hollywood and Vine/BT/Sarah Vaughan - Live at Rosy's (Disc 1) (2016) [FLAC]/11 Sarah's Blues.flac

Track gain : -8.36 dB
Peak : 0.981537
CRC32 hash (test run) : 90B8A1E5
CRC32 hash : 90B8A1E5
CRC32 hash (skip zero) : C53A0F65
AccurateRip v1 signature : 703B2834
AccurateRip v2 signature : F280EC12
->Accurately ripped (v2, confidence 9/9)
Statistics
Read error : 0
Jitter error (maybe fixed) : 0
Retry sector count : 130
Damaged sector count : 0

No errors occurred

End of status report

––-BEGIN XLD SIGNATURE––-
lHZHj_NpDGC1BrXzB8NXhnYJ7Wgm5zhv4KmbG5SGPUL9fkSnw9pUquIM5e9ad2dNhcQaZpGmXEh_3ZLIWeNi6jOKogosP26WiVdSqCa
––-END XLD SIGNATURE––-
X Lossless Decoder version 20160920 (149.2)

XLD extraction logfile from 2016-11-09 16:53:48 -0800

Sarah Vaughan / Live at Rosy's (Disc 2)

Used drive : TSSTcorp BDDVDW SE-506BB (revision TS00)
Media type : Pressed CD

Ripper mode : XLD Secure Ripper
Disable audio cache : OK for the drive with a cache less than 1375KiB
Make use of C2 pointers : NO
Read offset correction : 6
Max retry count : 100
Gap status : Analyzed, Appended (except HTOA)

TOC of the extracted CD
Track | Start | Length | Start sector | End sector
––––––––––––––––––––––––––––-
1 | 00:00:00 | 04:45:22 | 0 | 21396
2 | 04:45:22 | 05:12:25 | 21397 | 44821
3 | 09:57:47 | 02:43:48 | 44822 | 57094
4 | 12:41:20 | 05:39:43 | 57095 | 82562
5 | 18:20:63 | 03:00:65 | 82563 | 96127
6 | 21:21:53 | 05:01:47 | 96128 | 118749
7 | 26:23:25 | 04:00:62 | 118750 | 136811
8 | 30:24:12 | 06:46:63 | 136812 | 167324
9 | 37:11:00 | 02:40:61 | 167325 | 179385
10 | 39:51:61 | 05:17:31 | 179386 | 203191
11 | 45:09:17 | 01:08:64 | 203192 | 208355

AccurateRip Summary (DiscID: 001413f2-00ad47eb-960ada0b)
Track 01 : OK (v2, confidence 8/8)
Track 02 : OK (v2, confidence 8/8)
Track 03 : OK (v2, confidence 8/8)
Track 04 : OK (v2, confidence 8/8)
Track 05 : OK (v2, confidence 8/8)
Track 06 : OK (v2, confidence 8/8)
Track 07 : OK (v2, confidence 8/8)
Track 08 : OK (v2, confidence 8/8)
Track 09 : OK (v2, confidence 8/8)
Track 10 : OK (v2, confidence 8/8)
Track 11 : OK (v2, confidence 8/8)
->All tracks accurately ripped.

All Tracks
Album gain : -8.26 dB
Peak : 1.000000
Statistics
Read error : 0
Jitter error (maybe fixed) : 1
Retry sector count : 483
Damaged sector count : 0

Track 01
Filename : /Volumes/Hollywood and Vine/BT/Sarah Vaughan - Live at Rosy's (Disc 2) (2016) [FLAC]/01 The Man I Love.flac
Pre-gap length : 00:02:00

Track gain : -7.50 dB
Peak : 0.972839
CRC32 hash (test run) : 2DDC11DE
CRC32 hash : 2DDC11DE
CRC32 hash (skip zero) : 92470942
AccurateRip v1 signature : 073FB98E
AccurateRip v2 signature : FB0E09D0
->Accurately ripped (v2, confidence 8/8)
Statistics
Read error : 0
Jitter error (maybe fixed) : 0
Retry sector count : 0
Damaged sector count : 0

Track 02
Filename : /Volumes/Hollywood and Vine/BT/Sarah Vaughan - Live at Rosy's (Disc 2) (2016) [FLAC]/02 I Got It Bad (And That AIn't Good).flac

Track gain : -8.44 dB
Peak : 0.967407
CRC32 hash (test run) : 5DA10178
CRC32 hash : 5DA10178
CRC32 hash (skip zero) : 40048D59
AccurateRip v1 signature : 5A794A4D
AccurateRip v2 signature : B91BCDB8
->Accurately ripped (v2, confidence 8/8)
Statistics
Read error : 0
Jitter error (maybe fixed) : 0
Retry sector count : 0
Damaged sector count : 0

Track 03
Filename : /Volumes/Hollywood and Vine/BT/Sarah Vaughan - Live at Rosy's (Disc 2) (2016) [FLAC]/03 Watch What Happens.flac

Track gain : -6.87 dB
Peak : 0.966919
CRC32 hash (test run) : 1AADEC8C
CRC32 hash : 1AADEC8C
CRC32 hash (skip zero) : F3DC3C2E
AccurateRip v1 signature : E4980C9D
AccurateRip v2 signature : F7622A65
->Accurately ripped (v2, confidence 8/8)
Statistics
Read error : 0
Jitter error (maybe fixed) : 0
Retry sector count : 0
Damaged sector count : 0

Track 04
Filename : /Volumes/Hollywood and Vine/BT/Sarah Vaughan - Live at Rosy's (Disc 2) (2016) [FLAC]/04 If You Went Away (Preciso Aprender a Ser So).flac

Track gain : -8.55 dB
Peak : 0.967255
CRC32 hash (test run) : 1840E766
CRC32 hash : 1840E766
CRC32 hash (skip zero) : AE42B5FB
AccurateRip v1 signature : 2CF97744
AccurateRip v2 signature : CC20608B
->Accurately ripped (v2, confidence 8/8)
Statistics
Read error : 0
Jitter error (maybe fixed) : 1
Retry sector count : 466
Damaged sector count : 0

Track 05
Filename : /Volumes/Hollywood and Vine/BT/Sarah Vaughan - Live at Rosy's (Disc 2) (2016) [FLAC]/05 I Could Write a Book.flac

Track gain : -8.36 dB
Peak : 0.970184
CRC32 hash (test run) : 7D88998F
CRC32 hash : 7D88998F
CRC32 hash (skip zero) : C147EA04
AccurateRip v1 signature : 2D4B3338
AccurateRip v2 signature : ED311CC0
->Accurately ripped (v2, confidence 8/8)
Statistics
Read error : 0
Jitter error (maybe fixed) : 0
Retry sector count : 17
Damaged sector count : 0

Track 06
Filename : /Volumes/Hollywood and Vine/BT/Sarah Vaughan - Live at Rosy's (Disc 2) (2016) [FLAC]/06 I Remember You.flac

Track gain : -7.99 dB
Peak : 0.968323
CRC32 hash (test run) : 703DFE17
CRC32 hash : 703DFE17
CRC32 hash (skip zero) : DF36E7E2
AccurateRip v1 signature : 76F46BA2
AccurateRip v2 signature : F5080A4E
->Accurately ripped (v2, confidence 8/8)
Statistics
Read error : 0
Jitter error (maybe fixed) : 0
Retry sector count : 0
Damaged sector count : 0

Track 07
Filename : /Volumes/Hollywood and Vine/BT/Sarah Vaughan - Live at Rosy's (Disc 2) (2016) [FLAC]/07 Fascinating Rhythm.flac

Track gain : -7.70 dB
Peak : 1.000000
CRC32 hash (test run) : A0161205
CRC32 hash : A0161205
CRC32 hash (skip zero) : 162308DA
AccurateRip v1 signature : EE87B71C
AccurateRip v2 signature : 2F8E41D3
->Accurately ripped (v2, confidence 8/8)
Statistics
Read error : 0
Jitter error (maybe fixed) : 0
Retry sector count : 0
Damaged sector count : 0

Track 08
Filename : /Volumes/Hollywood and Vine/BT/Sarah Vaughan - Live at Rosy's (Disc 2) (2016) [FLAC]/08 Everything Must Change.flac

Track gain : -8.79 dB
Peak : 0.976990
CRC32 hash (test run) : 492B19C9
CRC32 hash : 492B19C9
CRC32 hash (skip zero) : 613F8592
AccurateRip v1 signature : D4DBB169
AccurateRip v2 signature : DA6922A8
->Accurately ripped (v2, confidence 8/8)
Statistics
Read error : 0
Jitter error (maybe fixed) : 0
Retry sector count : 0
Damaged sector count : 0

Track 09
Filename : /Volumes/Hollywood and Vine/BT/Sarah Vaughan - Live at Rosy's (Disc 2) (2016) [FLAC]/09 Like Someone in Love.flac

Track gain : -7.60 dB
Peak : 0.969635
CRC32 hash (test run) : 5D05912D
CRC32 hash : 5D05912D
CRC32 hash (skip zero) : 736FED84
AccurateRip v1 signature : DB22D9C2
AccurateRip v2 signature : B98808C6
->Accurately ripped (v2, confidence 8/8)
Statistics
Read error : 0
Jitter error (maybe fixed) : 0
Retry sector count : 0
Damaged sector count : 0

Track 10
Filename : /Volumes/Hollywood and Vine/BT/Sarah Vaughan - Live at Rosy's (Disc 2) (2016) [FLAC]/10 My Funny Valentine.flac

Track gain : -8.67 dB
Peak : 0.731506
CRC32 hash (test run) : F788FE4A
CRC32 hash : F788FE4A
CRC32 hash (skip zero) : 22E3C592
AccurateRip v1 signature : E6EF08A7
AccurateRip v2 signature : 3374A839
->Accurately ripped (v2, confidence 8/8)
Statistics
Read error : 0
Jitter error (maybe fixed) : 0
Retry sector count : 0
Damaged sector count : 0

Track 11
Filename : /Volumes/Hollywood and Vine/BT/Sarah Vaughan - Live at Rosy's (Disc 2) (2016) [FLAC]/11 Ending Theme.flac

Track gain : -9.14 dB
Peak : 0.999969
CRC32 hash (test run) : 88374D65
CRC32 hash : 88374D65
CRC32 hash (skip zero) : 22C5D10D
AccurateRip v1 signature : B39AC601
AccurateRip v2 signature : 5D0909DC
->Accurately ripped (v2, confidence 8/8)
Statistics
Read error : 0
Jitter error (maybe fixed) : 0
Retry sector count : 0
Damaged sector count : 0

No errors occurred

End of status report

––-BEGIN XLD SIGNATURE––-
10C96Ptj22fTj3KvXq0FcJN.uKDjCmMbxKiRcWk8SsNCUDS_jWd8WeyM2DFcV0AuYkqfNSpvfLQpqpPC.OIlGjuv9ILAt_6TGq6ppIO
––-END XLD SIGNATURE––-

Thanks to the Original ripper!