Tags
Language
Tags
June 2024
Su Mo Tu We Th Fr Sa
26 27 28 29 30 31 1
2 3 4 5 6 7 8
9 10 11 12 13 14 15
16 17 18 19 20 21 22
23 24 25 26 27 28 29
30 1 2 3 4 5 6

Montserrat Figueras & Jordi Savall - La Voix de l’Emotion - The Voice of Emotion (2012) {2CD Set, Alia Vox AVSA9889}

Posted By: ruskaval
Montserrat Figueras & Jordi Savall - La Voix de l’Emotion - The Voice of Emotion (2012) {2CD Set, Alia Vox AVSA9889}

Montserrat Figueras & Jordi Savall - La Voix de l’Emotion - The Voice of Emotion (2012) {2CD Set, Alia Vox AVSA9889}
EAC rip (secure mode) | FLAC (tracks)+CUE+LOG -> 761 Mb | MP3 @320 -> 394 Mb
Full Artwork @ 300 dpi (png) -> 206 Mb | 5% repair rar
© 2012 Alia Vox | AVSA9889
Classical / Vocal / Chamber Music / Medieval / Renaissance

This album gathers highlights from Montserrat Figueras career for the Astrée, DHM, EMI and Alia Vox labels. 5 of the 35 tracks have already been reissued in a portrait album released in the 1990s by Astrée, La 'Voix de l Emotion'. Jordi Savall wanted to keep the same title for this much more comprehensive double album, in tribute to the late Montserrat Figueras, his wife and collaborator of 43 years. 35 year-career: 35 tracks a dazzlingly clear soprano voice, a line of the purest silk, as strong as it was delicate.
Montserrat Figueras & Jordi Savall - La Voix de l’Emotion - The Voice of Emotion (2012) {2CD Set, Alia Vox AVSA9889}

Montserrat Figueras (1942-2011) was born in Barcelona, where she studied singing and acting. At a very early age, Montserrat Figueras gave her first concert with the Catalan Early Music ensemble, Ars Musicae. In 1968 she left for Basle and studied early and modern music at the Schola Cantorum Baseliensis and the Conservatoire. She worked under Kurt Widmer, Thomas Binkley and later with Eva Krasznai.

Six years later, Jordi Savall (her husband since 1968), Montserrat Figueras, Lorenzo Alpert and Hopkinson Smith founded the ensemble Hesperion XX. In 1987 Jordi Savall founded the vocal and instrumental ensemble La Capella Reial of which Montserrat is a member. Montserrat Figueras has developed a most personal conception of the interpretation of early vocal music, especially from Spain and Catalonia.
Montserrat Figueras & Jordi Savall - La Voix de l’Emotion - The Voice of Emotion (2012) {2CD Set, Alia Vox AVSA9889}


alia-vox.com INFO

Tracklist and personnel:

DISQUE I


1. MEDEA. Invocation : I. Nunc iam cessit pontus et omnis partitur leges - II. Venient annis sæcula
Médée (Tragédie, Acte II) - Sénèque (Ier s. après JC)
Musique Solo : Anonyme XIIe s.
Montserrat Figueras, chant
Dimitri Psonis, santur
Jordi Savall, rebab

2. Berceuse Amazigh
Anonyme berbère (Maroc)
Montserrat Figueras, chant
Driss El Maloumi, oud - Pedro Estevan, pandero

3. Romance : Palestina hermoza y Santa
Anonyme sépharade (Sarajevo)
Montserrat Figueras, chant & cythara
Jordi Savall, rebab - Gaguik Mouradian, kemancha - Michaël Grébil, ceterina

4. Romance : Triste estaba muy quexosa
Luys Milán (av.1500-ap.1561)
Montserrat Figueras, chant
Hopkinson Smith, vihuela

5. Villancico : Si la noche haze escura
Francisco Guerrero (attribué à)
Montserrat Figueras, Maite Arruabarrena, Carlos Mena, chant
Andrew Lawrence-King, harpe
Jordi Savall, Sergi Casademunt, violes de gambe

6. Villancico : Isabel, perdiste la tu faxa
Alonso Mudarra (1510-1580)
Montserrat Figueras, chant
Hopkinson Smith, vihuela

7. Chanson : Anchor che co’l partire
Cipriano Di Rore (ce passage de Rore figure dans le traité de 1594 de Giovanni Battista Bovicelli)
Montserrat Figueras, chant
Jordi Savall, Sergi Casademunt, Christophe Coin, violes de gambe
(Avec l’aimable autorisation de Deutsche Harmonia Mundi)

8. Romance : Como retumban los remos!
Lope de Vega (1562-1635) / Anonyme (Cancionero, 1628)
Montserrat Figueras, chant
José Miguel Moreno, Rolf Lislevand, guitares

9. Antiphone : Salve, Regina à 8 (1572) (extrait)
Tomas Luis De Victoria (1548-1611)
Montserrat Figueras, chant
La Capella Reial de Catalunya
Jordi Savall, direction

10. Lamento della ninfa : “Amor dov’è la fe”
Claudio Monteverdi (1567-1643)
Montserrat Figueras, chant
Lambert Climent, Francesc Garrigosa, ténors
Daniele Carnovich, basse
Andrew Lawrence-King, arpa doppia - Rolf Lislevand, théorbe

11. Con le luci d’un bel ciglio (1614)
Giulio Caccini (1551-1618)
Montserrat Figueras, chant
Hopkinson Smith, luth - Robert Clancy, guitare baroque
Jordi Savall, viole de gambe basse - Xenia Schindler, harpe
(Avec l’aimable autorisation de Deutsche Harmonia Mundi)

12. Canzonetta spirituale sopra la nanna : Hor ch’è tempo di dormire (1639)
Tarquinio Merula (1594-1665)
Montserrat Figueras, chant
Jordi Savall, viole de gambe - Imke David, lirone
Andrew Lawrence-King, arpa doppia

13. Tono humano : Ay que me río de amor
Juan Hidalgo (1612-1685)
BN Ms. 380/824a Madrid
Montserrat Figueras, chant
Xavier Díaz-Latorre, guitare - Arianna Savall, harpe
Jordi Savall, viole de gambe - Pedro Estevan, percussion

14. Tono humano : Sosieguen descansen
(de la Zarzuela “Salir del Amor del Mundo”)
Sebastián Durón (1660-1716)
Montserrat Figueras, chant
Hopkinson Smith, théorbe - Christophe Coin, basse de violon
Ton Koopman, clavecin - Jordi Savall, viole de gambe
(Avec l’aimable autorisation d’EMI)

15. Berceuse : Dors mon enfant (1798)
Chanson d’une malheureuse mère. Imité de l’écossais Johann Friedrich Reichardt (1752-1814)
Montserrat Figueras, chant
Andrew Lawrence-King, arpa doppia
Jordi Savall, viole de gambe basse

16. Aria : Ti ricordi che giurasti
Fernando Sor (1778-1839)
Montserrat Figueras, chant
José Miguel Moreno, guitare romantique

17. Seguidilla : Las Mujeres y cuerdas
Fernando Sor (1778-1839)
Montserrat Figueras, chant
José Miguel Moreno, guitare romantique

18. Avec la poupée
Modest Petrovich Moussorgsky (1839-1881) : La Chambre d’enfants (1872)
Montserrat Figueras, chant
Paul Badura-Skoda, piano

19. Berceuse de Noël (2002)
Arvo Pärt (11.9.1935)
Montserrat Figueras, chant
Jordi Savall, Sergi Casademunt, Sophie Watillon, violes de gambe
Arianna Savall, harpe triple - Begoña Olavide, psalterium - Dimitri Psonis, santur

Montserrat Figueras & Jordi Savall - La Voix de l’Emotion - The Voice of Emotion (2012) {2CD Set, Alia Vox AVSA9889}


DISQUE II

1. Romance : Por que llorax blanca niña (Sarajevo)
Chanson séfardite
Montserrat Figueras, chant
Andrew Lawrence-King, harpe
Pedro Memelsdorff , flûte - Pedro Estevan, percussion
Jordi Savall, viole soprano

2. Sibila Galaica (extrait)
Alfonso X el Sabio, XIIe s. : El Canto de la Sibila
Montserrat Figueras, chant
Andrew Lawrence-King, harpe
La Capella Reial de Catalunya
Jordi Savall, direction

3. Cançó : A chantar m’er de so
Comtessa Beatritz de Dia
Montserrat Figueras, chant
Hespèrion XXI : Jordi Savall, rebab - Driss El Maloumi, oud - Michaël Grébil, luth médiéval - Pierre Hamon, flûte - Pedro Estevan, percussion

4. Planctus : O arbre sanct, digne de honor (Maria)
El Misteri d’Elx (La Vespra)
Montserrat Figueras, chant
Jordi Savall, rebab - Pierre Hamon, flûte - Begoña Olavide, psalterium

5. Villancico : Niña y viña
Anonyme - Cancionero de La Colombina (CMC) XVe s.
Montserrat Figueras, chant
Hespèrion XX, direction Jordi Savall

6. Villancico : Con qué la lavaré
Anonyme / Luys de Narvaez (ca.1500-1550/1560)
Montserrat Figueras, chant
Rolf Lislevand, vihuela
Jordi Savall, Sergi Casademunt, Paolo Pandolfo, violes de gambe

7. Villancico : Yo me soy la morenica
Anonyme - Cancionero de La Colombina (CMC) XVe s.
Montserrat Figueras, chant
Jordi Savall, Fahmi Alqhai, violes de gambe
Xavier Díaz-Latorre, vihuela - Begoña Olavide, psalterium - Pedro Estevan, percussion

8. Motet : Ne timeas, Maria (a 4) (1572)
Tomás Luis de Victoria (1548-1611)
Montserrat Figueras, chant
Jordi Savall, Sergi Casademunt, Eunice Brandão, violes de gambe

9. Madrigal : Aura soave
Luzzasco Luzzaschi (ca.1545-1607)
Montserrat Figueras, chant
Hopkinson Smith, luth
(Avec l’aimable autorisation de Deutsche Harmonia Mundi)

10. Canzonetta : Si dolce è il tormento (libro nono)
Claudio Monteverdi (1567-1643)
Montserrat Figueras, chant
Rolf Lislevand, théorbe

11. Alme Luci Beate
Giulio Caccini
Montserrat Figueras, chant
Hopkinson Smith, théorbe
(Avec l’aimable autorisation de Deutsche Harmonia Mundi)

12. Sentirete una canzonetta
Tarquinio Merula (1595-1665)
Montserrat Figueras, chant
Jordi Savall, viole de gambe - Arianna Savall, harpe - Ferran Savall, théorbe - Pedro Estevan, percussion

13. Canarios : No piense Menguilla ya
José Marín (1618-1699)
Montserrat Figueras, chant
Rolf Lislevand, guitare baroque
Arianna Savall, arpa doppia & chant
Pedro Estevan, percussions - Adela González-Campa, castagnettes

14. Tono Humano : Trompicávalas amor
Juan Hidalgo (1614-1685)
Montserrat Figueras, chant
Enrique Barona, jarana - Leopoldo Novoa, guitarra de son tercera
Jordi Savall, viole de gambe - Andrew Lawrence-King, harpe
Eduardo Eguez, guitare - Dimitri Psonis, percussion

15. Cançó : El Fill del rei
Traditionnel catalan / Jordi Savall
Montserrat Figueras, chant
Rolf Lislevand, guitare
Jordi Savall, viole de gambe

16. Hei mihi (Missa Pro Defunctis : VII)
Joan Cererols (1618-1680)
Montserrat Figueras, chant
La Capella Reial de Catalunya
Jordi Savall, direction

17. Nana : Duérmete, niño, duerme (1914)
Manuel De Falla (1876-1946)
Montserrat Figueras, chant
Xavier Díaz-Latorre, guitare
Jordi Savall, viole de gambe


Montserrat Figueras, chant
Hespèrion XX & XXI
La Capella Reial de Catalunya
Jordi Savall (lira, rebab, violes de gambe & direction)


Exact Audio Copy V1.0 beta 3 from 29. August 2011

EAC extraction logfile from 6. August 2012, 18:54

Montserrat Figueras / The Voice of Emotion

Used drive : PLEXTOR DVDR PX-860A Adapter: 0 ID: 0

Read mode : Secure
Utilize accurate stream : Yes
Defeat audio cache : Yes
Make use of C2 pointers : No

Read offset correction : 96
Overread into Lead-In and Lead-Out : No
Fill up missing offset samples with silence : Yes
Delete leading and trailing silent blocks : No
Null samples used in CRC calculations : Yes
Used interface : Native Win32 interface for Win NT & 2000
Gap handling : Appended to previous track

Used output format : User Defined Encoder
Selected bitrate : 1024 kBit/s
Quality : High
Add ID3 tag : No
Command line compressor : C:\Program Files\Exact Audio Copy\Flac\flac.exe
Additional command line options : -8 -V -T "ARTIST=%artist%" -T "TITLE=%title%" -T "ALBUM=%albumtitle%" -T "DATE=%year%" -T "TRACKNUMBER=%tracknr%" -T "GENRE=%genre%" -T "PERFORMER=%albuminterpret%" -T "COMPOSER=%composer%" %haslyrics%–tag-from-file=LYRICS="%lyricsfile%"%haslyrics% -T "ALBUMARTIST=%albumartist%" -T "DISCNUMBER=%cdnumber%" -T "TOTALDISCS=%totalcds%" -T "TOTALTRACKS=%numtracks%" -T "COMMENT=EAC Secure Mode, Test & Copy, AccurateRip, FLAC -8" %source% -o %dest%


TOC of the extracted CD

Track | Start | Length | Start sector | End sector
––––––––––––––––––––––––––––-
1 | 0:00.00 | 4:54.61 | 0 | 22110
2 | 4:54.61 | 2:32.15 | 22111 | 33525
3 | 7:27.01 | 7:41.20 | 33526 | 68120
4 | 15:08.21 | 3:49.74 | 68121 | 85369
5 | 18:58.20 | 4:32.36 | 85370 | 105805
6 | 23:30.56 | 1:59.26 | 105806 | 114756
7 | 25:30.07 | 3:57.43 | 114757 | 132574
8 | 29:27.50 | 2:59.71 | 132575 | 146070
9 | 32:27.46 | 4:14.14 | 146071 | 165134
10 | 36:41.60 | 4:26.56 | 165135 | 185140
11 | 41:08.41 | 1:53.45 | 185141 | 193660
12 | 43:02.11 | 8:41.35 | 193661 | 232770
13 | 51:43.46 | 1:54.61 | 232771 | 241381
14 | 53:38.32 | 5:21.71 | 241382 | 265527
15 | 59:00.28 | 3:12.06 | 265528 | 279933
16 | 62:12.34 | 4:22.07 | 279934 | 299590
17 | 66:34.41 | 1:09.61 | 299591 | 304826
18 | 67:44.27 | 1:47.26 | 304827 | 312877
19 | 69:31.53 | 5:26.67 | 312878 | 337394


Track 1

Filename I:\DL\Montserrat Figueras - The Voice of Emotion (2012) [FLAC]\01 - MEDEA. Invocation- I Nunc iam cessit pontus et omnis partitur leges - II Venient annis saecula.wav

Pre-gap length 0:00:02.00

Peak level 76.0 %
Extraction speed 4.4 X
Track quality 99.9 %
Test CRC 197B37CE
Copy CRC 197B37CE
Accurately ripped (confidence 1) [0547EEBC] (AR v2)
Copy OK

Track 2

Filename I:\DL\Montserrat Figueras - The Voice of Emotion (2012) [FLAC]\02 - Berceuse Amazigh.wav

Peak level 41.4 %
Extraction speed 4.7 X
Track quality 100.0 %
Test CRC EF55A368
Copy CRC EF55A368
Accurately ripped (confidence 1) [B0F957A9] (AR v2)
Copy OK

Track 3

Filename I:\DL\Montserrat Figueras - The Voice of Emotion (2012) [FLAC]\03 - Romance- Palestina hermoza y Santa.wav

Peak level 81.8 %
Extraction speed 5.9 X
Track quality 100.0 %
Test CRC 3FA3E17B
Copy CRC 3FA3E17B
Accurately ripped (confidence 1) [50DC90BB] (AR v2)
Copy OK

Track 4

Filename I:\DL\Montserrat Figueras - The Voice of Emotion (2012) [FLAC]\04 - Romance- Triste estaba muy quexosa.wav

Peak level 53.8 %
Extraction speed 6.0 X
Track quality 100.0 %
Test CRC 40F57991
Copy CRC 40F57991
Accurately ripped (confidence 1) [96956E91] (AR v2)
Copy OK

Track 5

Filename I:\DL\Montserrat Figueras - The Voice of Emotion (2012) [FLAC]\05 - Villancico- Si la noche haze escura.wav

Peak level 54.6 %
Extraction speed 6.5 X
Track quality 100.0 %
Test CRC 35E91B51
Copy CRC 35E91B51
Accurately ripped (confidence 1) [82050004] (AR v2)
Copy OK

Track 6

Filename I:\DL\Montserrat Figueras - The Voice of Emotion (2012) [FLAC]\06 - Villancico- Isabel, perdiste la tu faxa.wav

Peak level 64.1 %
Extraction speed 5.9 X
Track quality 100.0 %
Test CRC BF73EEA2
Copy CRC BF73EEA2
Accurately ripped (confidence 1) [8D84A1FC] (AR v2)
Copy OK

Track 7

Filename I:\DL\Montserrat Figueras - The Voice of Emotion (2012) [FLAC]\07 - Chanson- Anchor che co'l partire.wav

Peak level 84.0 %
Extraction speed 6.9 X
Track quality 100.0 %
Test CRC 3E4D1842
Copy CRC 3E4D1842
Accurately ripped (confidence 1) [D12FDF12] (AR v2)
Copy OK

Track 8

Filename I:\DL\Montserrat Figueras - The Voice of Emotion (2012) [FLAC]\08 - Romance- Como retumban los remos!.wav

Peak level 67.7 %
Extraction speed 5.9 X
Track quality 99.9 %
Test CRC 27D5A1E3
Copy CRC 27D5A1E3
Accurately ripped (confidence 1) [2995A6D7] (AR v2)
Copy OK

Track 9

Filename I:\DL\Montserrat Figueras - The Voice of Emotion (2012) [FLAC]\09 - Salve, Regina (extrait) a 8,1572.wav

Peak level 63.0 %
Extraction speed 7.4 X
Track quality 100.0 %
Test CRC 69AED2B8
Copy CRC 69AED2B8
Accurately ripped (confidence 1) [0DAE2E0E] (AR v2)
Copy OK

Track 10

Filename I:\DL\Montserrat Figueras - The Voice of Emotion (2012) [FLAC]\10 - Lamento della ninfa- Amor dov'e la fe.wav

Peak level 72.7 %
Extraction speed 7.7 X
Track quality 100.0 %
Test CRC BED81D4A
Copy CRC BED81D4A
Accurately ripped (confidence 1) [83079782] (AR v2)
Copy OK

Track 11

Filename I:\DL\Montserrat Figueras - The Voice of Emotion (2012) [FLAC]\11 - Con le luci d'un bel ciglio, 1614.wav

Peak level 60.2 %
Extraction speed 6.7 X
Track quality 100.0 %
Test CRC D607729A
Copy CRC D607729A
Accurately ripped (confidence 1) [08989ACF] (AR v2)
Copy OK

Track 12

Filename I:\DL\Montserrat Figueras - The Voice of Emotion (2012) [FLAC]\12 - Canzonetta spirituale sopra la nanna - Hor ch'e tempo di dormire,1639.wav

Peak level 59.6 %
Extraction speed 8.6 X
Track quality 100.0 %
Test CRC 7CF9C1E8
Copy CRC 7CF9C1E8
Accurately ripped (confidence 1) [60D5E14A] (AR v2)
Copy OK

Track 13

Filename I:\DL\Montserrat Figueras - The Voice of Emotion (2012) [FLAC]\13 - Tono humano- Ay que me rio de amor.wav

Peak level 55.0 %
Extraction speed 7.1 X
Track quality 100.0 %
Test CRC DED9967C
Copy CRC DED9967C
Accurately ripped (confidence 1) [EF6865A9] (AR v2)
Copy OK

Track 14

Filename I:\DL\Montserrat Figueras - The Voice of Emotion (2012) [FLAC]\14 - Tono humano- Sosieguen descansen.wav

Peak level 59.6 %
Extraction speed 8.8 X
Track quality 100.0 %
Test CRC C62ECB29
Copy CRC C62ECB29
Accurately ripped (confidence 1) [2626BAEC] (AR v2)
Copy OK

Track 15

Filename I:\DL\Montserrat Figueras - The Voice of Emotion (2012) [FLAC]\15 - Berceuse- Dors mon enfant, 1798.wav

Peak level 66.8 %
Extraction speed 8.4 X
Track quality 100.0 %
Test CRC 13EEA0B2
Copy CRC 13EEA0B2
Accurately ripped (confidence 1) [576440FB] (AR v2)
Copy OK

Track 16

Filename I:\DL\Montserrat Figueras - The Voice of Emotion (2012) [FLAC]\16 - Aria- Ti ricordi che giurasti.wav

Peak level 78.4 %
Extraction speed 8.8 X
Track quality 100.0 %
Test CRC 258EB0CE
Copy CRC 258EB0CE
Accurately ripped (confidence 1) [07126BDA] (AR v2)
Copy OK

Track 17

Filename I:\DL\Montserrat Figueras - The Voice of Emotion (2012) [FLAC]\17 - Seguidilla- Las Mujeres y cuerdas.wav

Peak level 73.3 %
Extraction speed 6.6 X
Track quality 100.0 %
Test CRC 18669F6B
Copy CRC 18669F6B
Accurately ripped (confidence 1) [A808E6AB] (AR v2)
Copy OK

Track 18

Filename I:\DL\Montserrat Figueras - The Voice of Emotion (2012) [FLAC]\18 - Avec la poupee - La Chambre des enfants, 1970.wav

Peak level 45.8 %
Extraction speed 7.7 X
Track quality 100.0 %
Test CRC 8E3C6F5C
Copy CRC 8E3C6F5C
Accurately ripped (confidence 1) [F8268A26] (AR v2)
Copy OK

Track 19

Filename I:\DL\Montserrat Figueras - The Voice of Emotion (2012) [FLAC]\19 - Berceuse de Noel, 2002.wav

Peak level 59.8 %
Extraction speed 9.5 X
Track quality 100.0 %
Test CRC 6DD0594B
Copy CRC 6DD0594B
Accurately ripped (confidence 1) [EC595BBE] (AR v2)
Copy OK


All tracks accurately ripped

No errors occurred

End of status report

–– CUETools DB Plugin V2.1.3

[CTDB TOCID: ZNLCeUe6PTHO_EAv.aW_xPE6FR8-] found, Submit result: ZNLCeUe6PTHO_EAv.aW_xPE6FR8- has been confirmed
[2c086deb] (2/2) Accurately ripped


==== Log checksum 00316D83E7697AB53BDF56CD68796E24BAA7C4DFED712F3B1BBEAA4AAF5BF14B ====

Exact Audio Copy V1.0 beta 3 from 29. August 2011

EAC extraction logfile from 6. August 2012, 19:30

Montserrat Figueras / The Voice of Emotion

Used drive : PLEXTOR DVDR PX-860A Adapter: 0 ID: 0

Read mode : Secure
Utilize accurate stream : Yes
Defeat audio cache : Yes
Make use of C2 pointers : No

Read offset correction : 96
Overread into Lead-In and Lead-Out : No
Fill up missing offset samples with silence : Yes
Delete leading and trailing silent blocks : No
Null samples used in CRC calculations : Yes
Used interface : Native Win32 interface for Win NT & 2000
Gap handling : Appended to previous track

Used output format : User Defined Encoder
Selected bitrate : 1024 kBit/s
Quality : High
Add ID3 tag : No
Command line compressor : C:\Program Files\Exact Audio Copy\Flac\flac.exe
Additional command line options : -8 -V -T "ARTIST=%artist%" -T "TITLE=%title%" -T "ALBUM=%albumtitle%" -T "DATE=%year%" -T "TRACKNUMBER=%tracknr%" -T "GENRE=%genre%" -T "PERFORMER=%albuminterpret%" -T "COMPOSER=%composer%" %haslyrics%–tag-from-file=LYRICS="%lyricsfile%"%haslyrics% -T "ALBUMARTIST=%albumartist%" -T "DISCNUMBER=%cdnumber%" -T "TOTALDISCS=%totalcds%" -T "TOTALTRACKS=%numtracks%" -T "COMMENT=EAC Secure Mode, Test & Copy, AccurateRip, FLAC -8" %source% -o %dest%


TOC of the extracted CD

Track | Start | Length | Start sector | End sector
––––––––––––––––––––––––––––-
1 | 0:00.00 | 8:40.06 | 0 | 39005
2 | 8:40.06 | 7:15.62 | 39006 | 71692
3 | 15:55.68 | 6:53.12 | 71693 | 102679
4 | 22:49.05 | 4:37.69 | 102680 | 123523
5 | 27:26.74 | 1:24.53 | 123524 | 129876
6 | 28:51.52 | 6:00.39 | 129877 | 156915
7 | 34:52.16 | 2:06.59 | 156916 | 166424
8 | 36:59.00 | 3:05.56 | 166425 | 180355
9 | 40:04.56 | 2:56.42 | 180356 | 193597
10 | 43:01.23 | 3:08.14 | 193598 | 207711
11 | 46:09.37 | 3:30.27 | 207712 | 223488
12 | 49:39.64 | 3:04.36 | 223489 | 237324
13 | 52:44.25 | 5:58.58 | 237325 | 264232
14 | 58:43.08 | 3:02.30 | 264233 | 277912
15 | 61:45.38 | 6:42.57 | 277913 | 308119
16 | 68:28.20 | 6:01.43 | 308120 | 335237
17 | 74:29.63 | 4:32.45 | 335238 | 355682


Track 1

Filename I:\DL\Montserrat Figueras - The Voice of Emotion (2012) [FLAC]\01 - Romance- Por que llorax blanca nina (Sarajevo).wav

Pre-gap length 0:00:02.00

Peak level 70.8 %
Extraction speed 5.3 X
Track quality 100.0 %
Test CRC EB9E8B7C
Copy CRC EB9E8B7C
Accurately ripped (confidence 1) [32383172] (AR v2)
Copy OK

Track 2

Filename I:\DL\Montserrat Figueras - The Voice of Emotion (2012) [FLAC]\02 - La Sibila Galaica (extrait).wav

Peak level 57.6 %
Extraction speed 6.0 X
Track quality 100.0 %
Test CRC 82D3905A
Copy CRC 82D3905A
Accurately ripped (confidence 1) [02F5A758] (AR v2)
Copy OK

Track 3

Filename I:\DL\Montserrat Figueras - The Voice of Emotion (2012) [FLAC]\03 - Canco- A chantar m'er de so.wav

Peak level 84.9 %
Extraction speed 6.6 X
Track quality 100.0 %
Test CRC CC21E55B
Copy CRC CC21E55B
Accurately ripped (confidence 1) [4E838DB0] (AR v2)
Copy OK

Track 4

Filename I:\DL\Montserrat Figueras - The Voice of Emotion (2012) [FLAC]\04 - Planctus- O arbre sanct, digne de honor (Maria).wav

Peak level 67.9 %
Extraction speed 6.7 X
Track quality 100.0 %
Test CRC 8D1888B3
Copy CRC 8D1888B3
Accurately ripped (confidence 1) [38B9AB2B] (AR v2)
Copy OK

Track 5

Filename I:\DL\Montserrat Figueras - The Voice of Emotion (2012) [FLAC]\05 - Villancico- Nina y vina.wav

Peak level 55.9 %
Extraction speed 5.4 X
Track quality 100.0 %
Test CRC FBBF27B6
Copy CRC FBBF27B6
Accurately ripped (confidence 1) [1541C7A5] (AR v2)
Copy OK

Track 6

Filename I:\DL\Montserrat Figueras - The Voice of Emotion (2012) [FLAC]\06 - Villancico- Con que la lavare.wav

Peak level 93.5 %
Extraction speed 6.8 X
Track quality 99.9 %
Test CRC DFF80701
Copy CRC DFF80701
Accurately ripped (confidence 1) [F1639591] (AR v2)
Copy OK

Track 7

Filename I:\DL\Montserrat Figueras - The Voice of Emotion (2012) [FLAC]\07 - Villancico- Yo me soy la morenica.wav

Peak level 82.7 %
Extraction speed 5.4 X
Track quality 99.9 %
Test CRC 8F62CF3E
Copy CRC 8F62CF3E
Accurately ripped (confidence 1) [208AD0A0] (AR v2)
Copy OK

Track 8

Filename I:\DL\Montserrat Figueras - The Voice of Emotion (2012) [FLAC]\08 - Ne timeas, Maria (a 4), 1572.wav

Peak level 98.7 %
Extraction speed 7.2 X
Track quality 100.0 %
Test CRC 89F49E52
Copy CRC 89F49E52
Accurately ripped (confidence 1) [153E5F3D] (AR v2)
Copy OK

Track 9

Filename I:\DL\Montserrat Figueras - The Voice of Emotion (2012) [FLAC]\09 - Madrigal- Aura Soave.wav

Peak level 51.4 %
Extraction speed 7.2 X
Track quality 100.0 %
Test CRC E30327C2
Copy CRC E30327C2
Accurately ripped (confidence 1) [08E140F1] (AR v2)
Copy OK

Track 10

Filename I:\DL\Montserrat Figueras - The Voice of Emotion (2012) [FLAC]\10 - Canzonetta- Si dolce e il tormento (libro nono).wav

Peak level 79.5 %
Extraction speed 7.4 X
Track quality 100.0 %
Test CRC 6BE73DD9
Copy CRC 6BE73DD9
Accurately ripped (confidence 1) [D83BF1EA] (AR v2)
Copy OK

Track 11

Filename I:\DL\Montserrat Figueras - The Voice of Emotion (2012) [FLAC]\11 - Alme Luci Beate.wav

Peak level 76.4 %
Extraction speed 7.8 X
Track quality 100.0 %
Test CRC 6D5D4CDB
Copy CRC 6D5D4CDB
Accurately ripped (confidence 1) [568D6B8F] (AR v2)
Copy OK

Track 12

Filename I:\DL\Montserrat Figueras - The Voice of Emotion (2012) [FLAC]\12 - Sentirete una canzonetta.wav

Peak level 53.9 %
Extraction speed 7.9 X
Track quality 100.0 %
Test CRC 5A61F0C0
Copy CRC 5A61F0C0
Accurately ripped (confidence 1) [39947FCE] (AR v2)
Copy OK

Track 13

Filename I:\DL\Montserrat Figueras - The Voice of Emotion (2012) [FLAC]\13 - Canarios- No piense Menguilla ya.wav

Peak level 71.9 %
Extraction speed 8.9 X
Track quality 100.0 %
Test CRC 6E434AA0
Copy CRC 6E434AA0
Accurately ripped (confidence 1) [B39F3ACD] (AR v2)
Copy OK

Track 14

Filename I:\DL\Montserrat Figueras - The Voice of Emotion (2012) [FLAC]\14 - Tono Humano- Trompicavalas amor.wav

Peak level 84.4 %
Extraction speed 8.2 X
Track quality 100.0 %
Test CRC DB6D2139
Copy CRC DB6D2139
Accurately ripped (confidence 1) [A9A27AE3] (AR v2)
Copy OK

Track 15

Filename I:\DL\Montserrat Figueras - The Voice of Emotion (2012) [FLAC]\15 - Canco- El Fill del rei.wav

Peak level 50.1 %
Extraction speed 9.2 X
Track quality 100.0 %
Test CRC D35E8BAB
Copy CRC D35E8BAB
Accurately ripped (confidence 1) [95F35D0A] (AR v2)
Copy OK

Track 16

Filename I:\DL\Montserrat Figueras - The Voice of Emotion (2012) [FLAC]\16 - Hei mihi (Missa Pro Defunctis- VII).wav

Peak level 84.6 %
Extraction speed 9.4 X
Track quality 100.0 %
Test CRC 284B6DF3
Copy CRC 284B6DF3
Accurately ripped (confidence 1) [C5A6D43E] (AR v2)
Copy OK

Track 17

Filename I:\DL\Montserrat Figueras - The Voice of Emotion (2012) [FLAC]\17 - Nana- Duermete, nino, duerme 1914.wav

Peak level 50.3 %
Extraction speed 8.4 X
Track quality 99.9 %
Test CRC 77877EEF
Copy CRC 77877EEF
Accurately ripped (confidence 1) [34ADE1FF] (AR v2)
Copy OK


All tracks accurately ripped

No errors occurred

End of status report

–– CUETools DB Plugin V2.1.3

[CTDB TOCID: djdswws8udFRo1Bb0FTBhSvtUaA-] found, Submit result: djdswws8udFRo1Bb0FTBhSvtUaA- has been confirmed
[4d06dd0d] (2/2) Accurately ripped


==== Log checksum 6FE14D4D5C47A4F386B5933693434EC5A627A4DEC2742B75C0F5383EBE3F9D9A ====


Montserrat Figueras & Jordi Savall - La Voix de l’Emotion - The Voice of Emotion (2012) {2CD Set, Alia Vox AVSA9889}

Montserrat Figueras & Jordi Savall - La Voix de l’Emotion - The Voice of Emotion (2012) {2CD Set, Alia Vox AVSA9889}



===