Tags
Language
Tags
July 2024
Su Mo Tu We Th Fr Sa
30 1 2 3 4 5 6
7 8 9 10 11 12 13
14 15 16 17 18 19 20
21 22 23 24 25 26 27
28 29 30 31 1 2 3

V.A. - Chicago Blues: A Living History (2009)

Posted By: gribovar
V.A. - Chicago Blues: A Living History (2009)

V.A. - Chicago Blues: A Living History (2009)
EAC Rip | FLAC (tracks+.cue+log) - 498 MB | MP3 CBR 320 kbps (LAME 3.93) - 176 MB | Covers - 9 MB
Genre: Blues, Chicago Blues | RAR 3% Rec. | Label: Raisin' Music (RM1003)

This historic compilation of classic Chicago blues from six decades brought through contemporary recording terms is a loving, two-CD set of music that is not interpreted or reinvented as it is played faithfully to the core. A fairly set rhythm section featuring guitarist Billy Flynn, bassist Felton Crews, and drummer Kenny "Beedy Eyes" Smith, backs modern-day living legends like Billy Boy Arnold, Lurrie Bell, Billy Branch, and John Primer on tunes penned by both Sonny Boy Williamsons, Big Bill Broonzy, Big Maceo Merriweather, Elmore James, Howlin' Wolf, Muddy Waters, the Hooker Brothers, Buddy Guy, and others. Considerable help is given by harmonicist Matthew Skoller (brother of producer Larry Skoller,) keyboardist Johnny Iguana, vocalist Mike Avery (cousin of Magic Sam), and lead guitarist Carlos Johnson. No stone is left unturned in bringing these musicians together for select tracks that represent the heart of modern Chicago blues without resorting to a pure hits catalog. Of course blues lovers will easily recognize these choices, but not as a compilation of all-time greatest popular songs. On the disc celebrating music from 1940-1955, Big Maceo Merriweather's "Chicago Breakdown," "Feel Like Going Home" by Muddy Waters, the all-time great tune by Elmore James "I Believe," and Little Walter's "Hate to See You Go" all retain that timeless feel of real blues dealing. Iguana is the star, whether playing solo boogie-woogie piano, working with Primer on an Elmore James type dirty blues, in an Otis Spann mode with the hard-edged sound of James via Flynn with Bell vocally shouting it out, or alongside Branch's vintage harmonic sound in straight urban boogie style. "Moanin' at Midnight" is also one of the truly great blues tunes, and Primer and Skoller dig deep into Howlin' Wolf's persona. Side two fetes songs from 1955-1991, including Jimmy Reed's signature steady rolling "Can't Stand to See You Go" with Primer and Skoller again doing the honors, and the familiar to all "Hoodoo Man Blues" of Buddy Guy and Junior Wells featuring Branch in his element, pure and driven. The latter period Muddy Waters number, "One More Mile," is a more contemporary rockin' blues with Iguana on organ backing up Branch. This side also features the lone track written by one of the participants, Arnold's "I Wish You Would" in a choogling beat, as well as the Earl Hooker instrumental "Hooking It," a cool jam cemented by Flynn's wah-wah guitar. The rest of the material is far from filler, but instead intelligent choices that should stir the imagination of blues lovers, and send historians to the archives in a quest to discover how well these covers are done compared to the originals. An essential item for both newbies to the blues and grizzled veterans who think they've heard it all, this collection fully lives up to its title, and comes highly recommended.
CD 1 Tracklist (1940 to 1955):
01. My Little Machine
02. She's Love Crazy
03. Night Watchman Blues
04. Chicago Breakdown
05. Feel Like Going Home
06. I Believe
07. Moanin' at Midnight
08. Three O'clock Blues
09. Memphis Slim USA
10. Hate to See You Go

Total time: 34:48

CD 2 Tracklist (1955 to Present):
01. Sugar Sweet
02. Can't Stand to See You Go
03. I Wish You Would
04. Your Imagination
05. My Love Will Never Die
06. Hoodoo Man Blues
07. Hooking It
08. Out of Bad Luck
09. One More Mile
10. The Healer
11. Damn Right, I've Got the Blues

Total time: 40:10

Exact Audio Copy V1.6 from 23. October 2020

EAC extraction logfile from 28. April 2024, 10:46

Chicago Blues: A Living History / Chicago Blues: A Living History

Used drive : HL-DT-STBD-RE BH10LS30 Adapter: 1 ID: 0

Read mode : Secure
Utilize accurate stream : Yes
Defeat audio cache : Yes
Make use of C2 pointers : No

Read offset correction : 667
Overread into Lead-In and Lead-Out : No
Fill up missing offset samples with silence : Yes
Delete leading and trailing silent blocks : No
Null samples used in CRC calculations : Yes
Used interface : Native Win32 interface for Win NT & 2000
Gap handling : Appended to previous track

Used output format : User Defined Encoder
Selected bitrate : 1024 kBit/s
Quality : High
Add ID3 tag : No
Command line compressor : C:\Program Files (x86)\Exact Audio Copy\Flac\flac.exe
Additional command line options : -8 -V -T "ARTIST=%artist%" -T "TITLE=%title%" -T "ALBUM=%albumtitle%" -T "DATE=%year%" -T "TRACKNUMBER=%tracknr%" -T "GENRE=%genre%" -T "PERFORMER=%albuminterpret%" -T "COMPOSER=%composer%" %haslyrics%–tag-from-file=LYRICS="%lyricsfile%"%haslyrics% -T "ALBUMARTIST=%albumartist%" -T "DISCNUMBER=%cdnumber%" -T "TOTALDISCS=%totalcds%" -T "TOTALTRACKS=%numtracks%" -T "COMMENT=%comment%" %source% -o %dest%


TOC of the extracted CD

Track | Start | Length | Start sector | End sector
––––––––––––––––––––––––––––-
1 | 0:00.00 | 3:19.09 | 0 | 14933
2 | 3:19.09 | 3:07.34 | 14934 | 28992
3 | 6:26.43 | 3:43.45 | 28993 | 45762
4 | 10:10.13 | 3:13.28 | 45763 | 60265
5 | 13:23.41 | 3:04.38 | 60266 | 74103
6 | 16:28.04 | 3:16.16 | 74104 | 88819
7 | 19:44.20 | 3:31.25 | 88820 | 104669
8 | 23:15.45 | 3:19.20 | 104670 | 119614
9 | 26:34.65 | 3:12.68 | 119615 | 134082
10 | 29:47.58 | 5:00.17 | 134083 | 156599


Track 1

Filename D:\Upload Orpheus 100% FLAC\Chicago Blues A Living History (2009)(CD FLAC)\disc 1\01 My Little Machine.wav

Pre-gap length 0:00:02.00

Peak level 100.0 %
Extraction speed 1.0 X
Track quality 100.0 %
Test CRC AB6012D2
Copy CRC AB6012D2
Accurately ripped (confidence 23) [AF57EE6A] (AR v2)
Copy OK

Track 2

Filename D:\Upload Orpheus 100% FLAC\Chicago Blues A Living History (2009)(CD FLAC)\disc 1\02 She's Love Crazy.wav

Peak level 100.0 %
Extraction speed 1.1 X
Track quality 100.0 %
Test CRC 17B35238
Copy CRC 17B35238
Accurately ripped (confidence 21) [254B4836] (AR v2)
Copy OK

Track 3

Filename D:\Upload Orpheus 100% FLAC\Chicago Blues A Living History (2009)(CD FLAC)\disc 1\03 Night Watchman Blues.wav

Peak level 100.0 %
Extraction speed 1.2 X
Track quality 100.0 %
Test CRC 8A5C9526
Copy CRC 8A5C9526
Accurately ripped (confidence 23) [2B291E37] (AR v2)
Copy OK

Track 4

Filename D:\Upload Orpheus 100% FLAC\Chicago Blues A Living History (2009)(CD FLAC)\disc 1\04 Chicago Breakdown.wav

Peak level 100.0 %
Extraction speed 1.3 X
Track quality 100.0 %
Test CRC EAD49FBF
Copy CRC EAD49FBF
Accurately ripped (confidence 23) [273FF73A] (AR v2)
Copy OK

Track 5

Filename D:\Upload Orpheus 100% FLAC\Chicago Blues A Living History (2009)(CD FLAC)\disc 1\05 Feel Like Going Home.wav

Peak level 100.0 %
Extraction speed 1.4 X
Track quality 100.0 %
Test CRC 2C3ECEE8
Copy CRC 2C3ECEE8
Accurately ripped (confidence 23) [40DA5EF7] (AR v2)
Copy OK

Track 6

Filename D:\Upload Orpheus 100% FLAC\Chicago Blues A Living History (2009)(CD FLAC)\disc 1\06 I Believe.wav

Peak level 100.0 %
Extraction speed 1.3 X
Track quality 99.9 %
Test CRC E9D90220
Copy CRC E9D90220
Accurately ripped (confidence 24) [9FD62CAF] (AR v2)
Copy OK

Track 7

Filename D:\Upload Orpheus 100% FLAC\Chicago Blues A Living History (2009)(CD FLAC)\disc 1\07 Moanin' at Midnight.wav

Peak level 100.0 %
Extraction speed 0.8 X
Track quality 99.7 %
Test CRC 72799CD9
Copy CRC 72799CD9
Accurately ripped (confidence 23) [CA45852E] (AR v2)
Copy OK

Track 8

Filename D:\Upload Orpheus 100% FLAC\Chicago Blues A Living History (2009)(CD FLAC)\disc 1\08 Three O'clock Blues.wav

Peak level 100.0 %
Extraction speed 1.6 X
Track quality 100.0 %
Test CRC F58221BE
Copy CRC F58221BE
Accurately ripped (confidence 23) [407B0EF9] (AR v2)
Copy OK

Track 9

Filename D:\Upload Orpheus 100% FLAC\Chicago Blues A Living History (2009)(CD FLAC)\disc 1\09 Memphis Slim USA.wav

Peak level 100.0 %
Extraction speed 1.4 X
Track quality 99.9 %
Test CRC 41442928
Copy CRC 41442928
Accurately ripped (confidence 23) [112A7865] (AR v2)
Copy OK

Track 10

Filename D:\Upload Orpheus 100% FLAC\Chicago Blues A Living History (2009)(CD FLAC)\disc 1\10 Hate to See You Go.wav

Peak level 100.0 %
Extraction speed 1.9 X
Track quality 100.0 %
Test CRC 755C1E52
Copy CRC 755C1E52
Accurately ripped (confidence 23) [92FDC989] (AR v2)
Copy OK


All tracks accurately ripped

No errors occurred

End of status report

–– CUETools DB Plugin V2.1.6

[CTDB TOCID: kGybPi2fFyJesVGB6jtUdg3DZkQ-] found
Submit result: kGybPi2fFyJesVGB6jtUdg3DZkQ- has been confirmed
Track | CTDB Status
1 | (36/36) Accurately ripped
2 | (36/36) Accurately ripped
3 | (36/36) Accurately ripped
4 | (36/36) Accurately ripped
5 | (36/36) Accurately ripped
6 | (35/36) Accurately ripped
7 | (35/36) Accurately ripped
8 | (36/36) Accurately ripped
9 | (36/36) Accurately ripped
10 | (36/36) Accurately ripped


==== Log checksum 29E4992555E13CE9F8BAE0A36C3E25057BADF94592A3DD4A61A45B9C05FCC441 ====

[CUETools log; Date: 21.06.2024 11:35:17; Version: 2.1.4]
[CTDB TOCID: kGybPi2fFyJesVGB6jtUdg3DZkQ-] found.
Track | CTDB Status
1 | (38/38) Accurately ripped
2 | (38/38) Accurately ripped
3 | (38/38) Accurately ripped
4 | (38/38) Accurately ripped
5 | (38/38) Accurately ripped
6 | (37/38) Accurately ripped
7 | (37/38) Accurately ripped
8 | (38/38) Accurately ripped
9 | (38/38) Accurately ripped
10 | (38/38) Accurately ripped
[AccurateRip ID: 000ca1c8-006564b7-9208280a] found.
Track [ CRC | V2 ] Status
01 [3b96a5b2|af57ee6a] (08+23/37) Accurately ripped
02 [b55d1f4f|254b4836] (07+21/34) Accurately ripped
03 [54509cd9|2b291e37] (08+23/37) Accurately ripped
04 [af6a7d6f|273ff73a] (08+23/37) Accurately ripped
05 [73171328|40da5ef7] (09+23/38) Accurately ripped
06 [6dedcb7a|9fd62caf] (09+24/39) Accurately ripped
07 [8f697771|ca45852e] (08+23/37) Accurately ripped
08 [64fdf393|407b0ef9] (09+23/38) Accurately ripped
09 [f001fff7|112a7865] (08+23/37) Accurately ripped
10 [0860726f|92fdc989] (08+23/37) Accurately ripped
Offsetted by 664:
01 [3fbf7c49] (00/37) No match (V2 was not tested)
02 [8984a548] (00/34) No match (V2 was not tested)
03 [d228226a] (00/37) No match (V2 was not tested)
04 [f4ae44ae] (00/37) No match (V2 was not tested)
05 [ec86876d] (00/38) No match (V2 was not tested)
06 [b8690054] (00/39) No match (V2 was not tested)
07 [f3e0bace] (00/37) No match (V2 was not tested)
08 [de5113a2] (00/38) No match (V2 was not tested)
09 [63a193aa] (00/37) No match (V2 was not tested)
10 [e9fceb4e] (00/37) No match (V2 was not tested)

Track Peak [ CRC32 ] [W/O NULL] [ LOG ]
– 100,0 [7D373BA0] [F46AFC26]
01 100,0 [AB6012D2] [7C9CEAF2] CRC32
02 100,0 [17B35238] [C21260B7] CRC32
03 100,0 [8A5C9526] [D675C4BE] CRC32
04 100,0 [EAD49FBF] [FD6B1A7D] CRC32
05 100,0 [2C3ECEE8] [3444B509] CRC32
06 100,0 [E9D90220] [B4B45A58] CRC32
07 100,0 [72799CD9] [E35EE1A7] CRC32
08 100,0 [F58221BE] [CA40C39E] CRC32
09 100,0 [41442928] [D56BEC36] CRC32
10 100,0 [755C1E52] [3E90F542] CRC32

Exact Audio Copy V1.6 from 23. October 2020

EAC extraction logfile from 28. April 2024, 11:40

Chicago Blues: A Living History / Chicago Blues: A Living History

Used drive : HL-DT-STBD-RE BH10LS30 Adapter: 1 ID: 0

Read mode : Secure
Utilize accurate stream : Yes
Defeat audio cache : Yes
Make use of C2 pointers : No

Read offset correction : 667
Overread into Lead-In and Lead-Out : No
Fill up missing offset samples with silence : Yes
Delete leading and trailing silent blocks : No
Null samples used in CRC calculations : Yes
Used interface : Native Win32 interface for Win NT & 2000
Gap handling : Appended to previous track

Used output format : User Defined Encoder
Selected bitrate : 1024 kBit/s
Quality : High
Add ID3 tag : No
Command line compressor : C:\Program Files (x86)\Exact Audio Copy\Flac\flac.exe
Additional command line options : -8 -V -T "ARTIST=%artist%" -T "TITLE=%title%" -T "ALBUM=%albumtitle%" -T "DATE=%year%" -T "TRACKNUMBER=%tracknr%" -T "GENRE=%genre%" -T "PERFORMER=%albuminterpret%" -T "COMPOSER=%composer%" %haslyrics%–tag-from-file=LYRICS="%lyricsfile%"%haslyrics% -T "ALBUMARTIST=%albumartist%" -T "DISCNUMBER=%cdnumber%" -T "TOTALDISCS=%totalcds%" -T "TOTALTRACKS=%numtracks%" -T "COMMENT=%comment%" %source% -o %dest%


TOC of the extracted CD

Track | Start | Length | Start sector | End sector
––––––––––––––––––––––––––––-
1 | 0:00.00 | 3:25.03 | 0 | 15377
2 | 3:25.03 | 3:06.63 | 15378 | 29390
3 | 6:31.66 | 3:00.38 | 29391 | 42928
4 | 9:32.29 | 3:14.32 | 42929 | 57510
5 | 12:46.61 | 3:38.59 | 57511 | 73919
6 | 16:25.45 | 3:38.07 | 73920 | 90276
7 | 20:03.52 | 4:14.49 | 90277 | 109375
8 | 24:18.26 | 3:14.01 | 109376 | 123926
9 | 27:32.27 | 3:07.58 | 123927 | 138009
10 | 30:40.10 | 4:49.54 | 138010 | 159738
11 | 35:29.64 | 4:40.02 | 159739 | 180740


Track 1

Filename D:\Upload Orpheus 100% FLAC\Chicago Blues A Living History (2009)(CD FLAC)\disc 2\01 Sugar Sweet.wav

Pre-gap length 0:00:02.00

Peak level 100.0 %
Extraction speed 1.2 X
Track quality 100.0 %
Test CRC 38A24618
Copy CRC 38A24618
Accurately ripped (confidence 25) [9DB07450] (AR v2)
Copy OK

Track 2

Filename D:\Upload Orpheus 100% FLAC\Chicago Blues A Living History (2009)(CD FLAC)\disc 2\02 Can't Stand to See You Go.wav

Peak level 100.0 %
Extraction speed 1.3 X
Track quality 100.0 %
Test CRC A11DE75B
Copy CRC A11DE75B
Accurately ripped (confidence 25) [1C6CE3C5] (AR v2)
Copy OK

Track 3

Filename D:\Upload Orpheus 100% FLAC\Chicago Blues A Living History (2009)(CD FLAC)\disc 2\03 I Wish You Would.wav

Peak level 100.0 %
Extraction speed 1.4 X
Track quality 100.0 %
Test CRC 7311DB54
Copy CRC 7311DB54
Accurately ripped (confidence 25) [67C48CBD] (AR v2)
Copy OK

Track 4

Filename D:\Upload Orpheus 100% FLAC\Chicago Blues A Living History (2009)(CD FLAC)\disc 2\04 Your Imagination.wav

Peak level 100.0 %
Extraction speed 1.5 X
Track quality 100.0 %
Test CRC 31314149
Copy CRC 31314149
Accurately ripped (confidence 25) [989CAC71] (AR v2)
Copy OK

Track 5

Filename D:\Upload Orpheus 100% FLAC\Chicago Blues A Living History (2009)(CD FLAC)\disc 2\05 My Love Will Never Die.wav

Peak level 100.0 %
Extraction speed 1.4 X
Track quality 99.9 %
Test CRC D2274CA0
Copy CRC D2274CA0
Accurately ripped (confidence 25) [B9D2D058] (AR v2)
Copy OK

Track 6

Filename D:\Upload Orpheus 100% FLAC\Chicago Blues A Living History (2009)(CD FLAC)\disc 2\06 Hoodoo Man Blues.wav

Peak level 100.0 %
Extraction speed 1.5 X
Track quality 99.9 %
Test CRC FA819750
Copy CRC FA819750
Accurately ripped (confidence 25) [B4301A8F] (AR v2)
Copy OK

Track 7

Filename D:\Upload Orpheus 100% FLAC\Chicago Blues A Living History (2009)(CD FLAC)\disc 2\07 Hooking It.wav

Peak level 100.0 %
Extraction speed 1.7 X
Track quality 99.9 %
Test CRC D5C00A45
Copy CRC D5C00A45
Accurately ripped (confidence 25) [02C02BAB] (AR v2)
Copy OK

Track 8

Filename D:\Upload Orpheus 100% FLAC\Chicago Blues A Living History (2009)(CD FLAC)\disc 2\08 Out of Bad Luck.wav

Peak level 100.0 %
Extraction speed 1.9 X
Track quality 100.0 %
Test CRC B9B141DC
Copy CRC B9B141DC
Accurately ripped (confidence 25) [70EAB0D3] (AR v2)
Copy OK

Track 9

Filename D:\Upload Orpheus 100% FLAC\Chicago Blues A Living History (2009)(CD FLAC)\disc 2\09 One More Mile.wav

Peak level 100.0 %
Extraction speed 1.9 X
Track quality 100.0 %
Test CRC 1268E659
Copy CRC 1268E659
Accurately ripped (confidence 24) [51D480B1] (AR v2)
Copy OK

Track 10

Filename D:\Upload Orpheus 100% FLAC\Chicago Blues A Living History (2009)(CD FLAC)\disc 2\10 The Healer.wav

Peak level 100.0 %
Extraction speed 2.2 X
Track quality 100.0 %
Test CRC 5B5A712E
Copy CRC 5B5A712E
Accurately ripped (confidence 23) [98C362EF] (AR v2)
Copy OK

Track 11

Filename D:\Upload Orpheus 100% FLAC\Chicago Blues A Living History (2009)(CD FLAC)\disc 2\11 Damn Right, I've Got the Blues.wav

Peak level 100.0 %
Extraction speed 2.3 X
Track quality 100.0 %
Test CRC 6C159163
Copy CRC 6C159163
Accurately ripped (confidence 24) [698F762B] (AR v2)
Copy OK


All tracks accurately ripped

No errors occurred

End of status report

–– CUETools DB Plugin V2.1.6

[CTDB TOCID: 1XtlVEvBmbjZGSQvVtOx974Xcic-] found
Submit result: 1XtlVEvBmbjZGSQvVtOx974Xcic- has been confirmed
Track | CTDB Status
1 | (36/36) Accurately ripped
2 | (36/36) Accurately ripped
3 | (36/36) Accurately ripped
4 | (36/36) Accurately ripped
5 | (36/36) Accurately ripped
6 | (36/36) Accurately ripped
7 | (36/36) Accurately ripped
8 | (36/36) Accurately ripped
9 | (36/36) Accurately ripped
10 | (36/36) Accurately ripped
11 | (36/36) Accurately ripped


==== Log checksum 0034CBB373A8FE059404E169C5F89301EA98EE1B08A1C133E489B2BCB5ED7F7E ====

[CUETools log; Date: 21.06.2024 11:38:31; Version: 2.1.4]
[CTDB TOCID: 1XtlVEvBmbjZGSQvVtOx974Xcic-] found.
Track | CTDB Status
1 | (38/38) Accurately ripped
2 | (38/38) Accurately ripped
3 | (38/38) Accurately ripped
4 | (38/38) Accurately ripped
5 | (38/38) Accurately ripped
6 | (38/38) Accurately ripped
7 | (38/38) Accurately ripped
8 | (38/38) Accurately ripped
9 | (38/38) Accurately ripped
10 | (38/38) Accurately ripped
11 | (38/38) Accurately ripped
[AccurateRip ID: 000f950f-00889174-9009690b] found.
Track [ CRC | V2 ] Status
01 [b0a04e4f|9db07450] (08+25/39) Accurately ripped
02 [bbb85e07|1c6ce3c5] (08+25/39) Accurately ripped
03 [2a17a905|67c48cbd] (08+25/39) Accurately ripped
04 [2eccc8b9|989cac71] (08+25/39) Accurately ripped
05 [6c332cfc|b9d2d058] (07+25/38) Accurately ripped
06 [053d3233|b4301a8f] (09+25/40) Accurately ripped
07 [08ecc906|02c02bab] (07+25/38) Accurately ripped
08 [97f56c6b|70eab0d3] (08+25/39) Accurately ripped
09 [a61c65e4|51d480b1] (08+24/38) Accurately ripped
10 [264c510f|98c362ef] (08+23/37) Accurately ripped
11 [1c800de0|698f762b] (07+24/37) Accurately ripped
Offsetted by 664:
01 [df3fa860] (00/39) No match (V2 was not tested)
02 [2c79d9d0] (00/39) No match (V2 was not tested)
03 [d3133612] (00/39) No match (V2 was not tested)
04 [ee689a76] (00/39) No match (V2 was not tested)
05 [ff88e397] (00/38) No match (V2 was not tested)
06 [a2cce266] (00/40) No match (V2 was not tested)
07 [d271669f] (00/38) No match (V2 was not tested)
08 [82d31d36] (00/39) No match (V2 was not tested)
09 [f67c0f9e] (00/38) No match (V2 was not tested)
10 [84d2ab20] (00/37) No match (V2 was not tested)
11 [0ea77902] (00/37) No match (V2 was not tested)

Track Peak [ CRC32 ] [W/O NULL] [ LOG ]
– 100,0 [EC9476A7] [09F9F2AE]
01 100,0 [38A24618] [6DF38382] CRC32
02 100,0 [A11DE75B] [E2EC8D25] CRC32
03 100,0 [7311DB54] [DA3F507C] CRC32
04 100,0 [31314149] [13607580] CRC32
05 100,0 [D2274CA0] [BE513385] CRC32
06 100,0 [FA819750] [CE60117E] CRC32
07 100,0 [D5C00A45] [762D33EF] CRC32
08 100,0 [B9B141DC] [B2B0CB4C] CRC32
09 100,0 [1268E659] [E79ADBD9] CRC32
10 100,0 [5B5A712E] [3F06DBE6] CRC32
11 100,0 [6C159163] [020FB398] CRC32

Thanks to the original releaser