Tags
Language
Tags
February 2024
Su Mo Tu We Th Fr Sa
28 29 30 31 1 2 3
4 5 6 7 8 9 10
11 12 13 14 15 16 17
18 19 20 21 22 23 24
25 26 27 28 29 1 2
Attention❗ To save your time, in order to download anything on this site, you must be registered 👉 HERE. If you do not have a registration yet, it is better to do it right away. ✌

( • )( • ) ( ͡⚆ ͜ʖ ͡⚆ ) (‿ˠ‿)
SpicyMags.xyz

Toto - Past To Present 1977-1990 (1998)

Posted By: popsakov
Toto - Past To Present 1977-1990 (1998)

Toto - Past To Present 1977-1990 (1998)
EAC Rip | FLAC (Tracks) + Cue + m3u + Log ~ 427 Mb | MP3 CBR320 ~ 162 Mb
Full Scans | 01:05:12 | RAR 5% Recovery
Soft Rock, Pop Rock | Release Records #RR-98-064-2 | Unofficial Release

Past to Present 1977–1990 is the first compilation album by Toto, released in 1990. It contains nine hit songs from the band's first seven albums, and four new songs recorded with new singer Jean-Michel Byron. According to the band, it was Toto's record label Columbia who proposed the band work with Byron. Ultimately the band was not happy with his onstage antics and was asked to leave the band. Steve Lukather became Toto's lead vocalist in 1991.

Toto's compilation is to be recommended in that it contains all four of the group's Top Ten hit singles – "Hold the Line," "Rosanna," "Africa," and "I Won't Hold You Back." It also contains four more of Toto's 14 pop chart singles – "Georgy Porgy," "99," "I'll Be Over You," and "Pamela." But that means it leaves out six chart entries, including the Top 40 hits "Make Believe," "Stranger in Town," and "Without Your Love." In their place are an album track from the most recent album, The Seventh One, and four newly recorded songs co-written and sung by the group's fourth lead vocalist, Jean-Michel Byron, who is more soulful than his predecessors, but no more memorable. As such, this is not the ideal Toto best-of and earns its "pick" designation over Toto IV only by virtue of its inclusion of the group's first hit, "Hold the Line."

~ William Ruhlmann, All Music

***************

Track List:

01. Love Has the Power [6:44]
02. Africa [4:59]
03. Hold the Line [3:57]
04. Out of Love [5:55]
05. Georgy Porgy [4:09]
06. I’ll Be Over You [3:52]
07. Can You Hear What I’m Saying [5:03]
08. Rosanna [5:35]
09. I Won’t Hold You Back [5:00]
10. Stop Loving You [4:30]
11. 99 [5:14]
12. Pamela [5:12]
13. Animal [5:09]

Exact Audio Copy V1.6 from 23. October 2020

Отчёт EAC об извлечении, выполненном 2. декабря 2023, 17:32

Toto / Past to Present 1977–1990

Дисковод: ASUS DRW-24D5MT Adapter: 1 ID: 0

Режим чтения : Достоверность
Использование точного потока : Да
Отключение кэша аудио : Да
Использование указателей C2 : Нет

Коррекция смещения при чтении : 6
Способность читать области Lead-in и Lead-out : Нет
Заполнение пропущенных сэмплов тишиной : Да
Удаление блоков с тишиной в начале и конце : Нет
При вычислениях CRC использовались нулевые сэмплы : Да
Интерфейс : Встроенный Win32-интерфейс для Win NT/2000
Обработка зазоров : Добавлено к предыдущему треку

Выходной формат : Пользовательский кодировщик
Выбранный битрейт : 128 kBit/s
Качество : Высокий
Добавление ID3-тега : Нет
Утилита сжатия : C:\Program Files (x86)\Exact Audio Copy\Flac\flac.exe
Дополнительные параметры : -8 -V -T "ARTIST=%artist%" -T "TITLE=%title%" -T "ALBUM=%albumtitle%" -T "DATE=%year%" -T "TRACKNUMBER=%tracknr%" -T "GENRE=%genre%" -T "COMMENT=%comment%" -T "BAND=%albuminterpret%" -T "ALBUMARTIST=%albuminterpret%" -T "COMPOSER=%composer%" %haslyrics%–tag-from-file=LYRICS="%lyricsfile%"%haslyrics% -T "DISCNUMBER=%cdnumber%" -T "TOTALDISCS=%totalcds%" -T "TOTALTRACKS=%numtracks%" %hascover%–picture="%coverfile%"%hascover% %source% -o %dest%


TOC извлечённого CD

Трек | Старт | Длительность | Начальный сектор | Конечный сектор
––––––––––––––––––––––––––––––––––-
1 | 0:00.30 | 6:43.12 | 30 | 30266
2 | 6:43.42 | 4:58.25 | 30267 | 52641
3 | 11:41.67 | 3:56.32 | 52642 | 70373
4 | 15:38.24 | 5:54.43 | 70374 | 96966
5 | 21:32.67 | 4:08.21 | 96967 | 115587
6 | 25:41.13 | 3:51.50 | 115588 | 132962
7 | 29:32.63 | 5:02.40 | 132963 | 155652
8 | 34:35.28 | 5:34.29 | 155653 | 180731
9 | 40:09.57 | 4:59.21 | 180732 | 203177
10 | 45:09.03 | 4:29.55 | 203178 | 223407
11 | 49:38.58 | 5:13.45 | 223408 | 246927
12 | 54:52.28 | 5:11.35 | 246928 | 270287
13 | 60:03.63 | 5:08.14 | 270288 | 293401


Трек 1

Имя файла E:\FLAC EAC\01 Love Has the Power.wav

Длина предзазора 0:00:02.30

Пиковый уровень 82.1 %
Скорость извлечения 1.3 X
Качество трека 100.0 %
CRC теста 9ECD894B
CRC копии 9ECD894B
Точное извлечение (достоверность 2) [FC6B1455] (AR v2)
Копирование… OK

Трек 2

Имя файла E:\FLAC EAC\02 Africa.wav

Пиковый уровень 72.3 %
Скорость извлечения 1.4 X
Качество трека 100.0 %
CRC теста A1928D66
CRC копии A1928D66
Точное извлечение (достоверность 2) [4F16AE63] (AR v2)
Копирование… OK

Трек 3

Имя файла E:\FLAC EAC\03 Hold the Line.wav

Пиковый уровень 76.0 %
Скорость извлечения 1.5 X
Качество трека 100.0 %
CRC теста 001A018D
CRC копии 001A018D
Точное извлечение (достоверность 2) [17471DFE] (AR v2)
Копирование… OK

Трек 4

Имя файла E:\FLAC EAC\04 Out of Love.wav

Пиковый уровень 85.6 %
Скорость извлечения 1.1 X
Качество трека 99.8 %
CRC теста D9D4777A
CRC копии D2EB6AD2
Точность не определена (достоверность 2) [75161864], AccurateRip вернул [00A3650D] (AR v2)
Копирование… OK

Трек 5

Имя файла E:\FLAC EAC\05 Georgy Porgy.wav

Пиковый уровень 88.7 %
Скорость извлечения 1.7 X
Качество трека 100.0 %
CRC теста C4B707C1
CRC копии C4B707C1
Точное извлечение (достоверность 2) [82B3D74B] (AR v2)
Копирование… OK

Трек 6

Имя файла E:\FLAC EAC\06 I’ll Be Over You.wav

Пиковый уровень 81.1 %
Скорость извлечения 1.8 X
Качество трека 100.0 %
CRC теста 96D43E7F
CRC копии 96D43E7F
Точное извлечение (достоверность 2) [F33A136E] (AR v2)
Копирование… OK

Трек 7

Имя файла E:\FLAC EAC\07 Can You Hear What I’m Saying.wav

Пиковый уровень 64.0 %
Скорость извлечения 1.9 X
Качество трека 100.0 %
CRC теста 9B0BB73A
CRC копии 9B0BB73A
Точное извлечение (достоверность 2) [062316DA] (AR v2)
Копирование… OK

Трек 8

Имя файла E:\FLAC EAC\08 Rosanna.wav

Пиковый уровень 73.7 %
Скорость извлечения 2.0 X
Качество трека 100.0 %
CRC теста 0108C78B
CRC копии 0108C78B
Точное извлечение (достоверность 2) [BD65C980] (AR v2)
Копирование… OK

Трек 9

Имя файла E:\FLAC EAC\09 I Won’t Hold You Back.wav

Пиковый уровень 74.3 %
Скорость извлечения 2.1 X
Качество трека 100.0 %
CRC теста 3C219176
CRC копии 3C219176
Точное извлечение (достоверность 2) [FB850108] (AR v2)
Копирование… OK

Трек 10

Имя файла E:\FLAC EAC\10 Stop Loving You.wav

Пиковый уровень 98.0 %
Скорость извлечения 2.2 X
Качество трека 100.0 %
CRC теста 62E7B6BE
CRC копии 62E7B6BE
Точное извлечение (достоверность 2) [98BCBFB8] (AR v2)
Копирование… OK

Трек 11

Имя файла E:\FLAC EAC\11 99.wav

Пиковый уровень 73.5 %
Скорость извлечения 2.3 X
Качество трека 100.0 %
CRC теста 1EEA67EB
CRC копии 1EEA67EB
Точное извлечение (достоверность 2) [2F890354] (AR v2)
Копирование… OK

Трек 12

Имя файла E:\FLAC EAC\12 Pamela.wav

Пиковый уровень 100.0 %
Скорость извлечения 2.4 X
Качество трека 100.0 %
CRC теста E8CCE834
CRC копии E8CCE834
Точное извлечение (достоверность 2) [25BD58ED] (AR v2)
Копирование… OK

Трек 13

Имя файла E:\FLAC EAC\13 Animal.wav

Пиковый уровень 84.0 %
Скорость извлечения 2.4 X
Качество трека 100.0 %
CRC теста C0FDEEF3
CRC копии C0FDEEF3
Точное извлечение (достоверность 2) [D9D58F0F] (AR v2)
Копирование… OK


12 треки скопированы точно
1 треки не удалось проверить на точность

Некоторые треки не прошли проверку на точность

Ошибок не произошло

Конец отчёта

–– CUETools DB Plugin V2.1.6

[CTDB TOCID: oyMzbuFGNg7WRmpiFCGfC_geTgE-] found
Submit result: insufficient quality
Track | CTDB Status
1 | (6/6) Accurately ripped
2 | (6/6) Accurately ripped
3 | (6/6) Accurately ripped
4 | (5/6) Differs in 1675 samples @00:41:07-00:41:08,00:41:20-00:41:21,00:41:48-00:41:49,00:41:62-00:41:63,00:42:01,00:42:14-00:42:15,00:42:55-00:42:56,00:43:08-00:43:09,00:43:22-00:43:23,00:43:36,00:43:49-00:43:50,00:43:63-00:43:64,00:44:02-00:44:03,00:44:16-00:44:17,00:44:29-00:44:30,00:44:43-00:44:44,00:44:57-00:44:58,00:44:71-00:44:72,00:45:09-00:45:10
5 | (5/6) Accurately ripped
6 | (5/6) Accurately ripped
7 | (6/6) Accurately ripped
8 | (6/6) Accurately ripped
9 | (6/6) Accurately ripped
10 | (6/6) Accurately ripped
11 | (6/6) Accurately ripped
12 | (6/6) Accurately ripped
13 | (5/6) Accurately ripped
If you are sure that your rip contains errors, you can use CUETools to repair it.


==== Контрольная сумма отчёта CD7CBD82078BA1A60C5C6C58DFA31FE17C879CA6D973B025B953156AB7B584B7 ====

Toto - Past To Present 1977-1990 (1998)


All thanks go to oppaoppa

>>> Toto in my Blog <<<

DOWNLOAD: