Tags
Language
Tags
July 2024
Su Mo Tu We Th Fr Sa
30 1 2 3 4 5 6
7 8 9 10 11 12 13
14 15 16 17 18 19 20
21 22 23 24 25 26 27
28 29 30 31 1 2 3

The Rolling Stones - Charlie Is My Darling Ireland 1965 (2012)

Posted By: Rtax
The Rolling Stones - Charlie Is My Darling Ireland 1965 (2012)

The Rolling Stones - Charlie Is My Darling Ireland 1965 (2012)
EAC Rip | FLAC (tracks, cue, log, scans) - 446 MB | MP3 CBR 320 kbps - 189 MB
1:21:52 | Scans - 427 MB | Rock, Classic Rock | Label: ABKCO Films

The Rolling Stones Charlie is my Darling – Ireland 1965 Super Deluxe Box Set includes both DVD and Blu-ray discs that incorporate the new, official 2012 version of the film as well as the director’s cut and producer’s cut, plus significant unseen additional performance and other footage shot in Dublin and Belfast in September of 1965, bonus content, two audio CDs, one of which is the film’s soundtrack album and the other a compilation of 13 live recordings the band made over the course of their 1965 UK tour. A 10” vinyl record of the live material is also part of the package, as well as a replica poster heralding the September 4, 1965 date they played in Belfast. The Super Deluxe box is housed in an ingeniously designed luxurious “soft touch” package, each featuring one of over 200 Limited Edition numbered and enlarged cells randomly inserted from the film. There is also a stunning 42 page Collector’s Edition hardcover book that includes 14 never before seen, and painstakingly restored exclusive, photographs, including the key art, of the band from the Irish Photo Archive/Lensmen Photo Archive as well as colour photos taken by Marc Sharatt, the Stones’ tour photographer.

Reprints of vintage newspaper and magazine articles from the UK and Irish press that offer accounts of the dates and attendant mayhem are included, as are essays from American rock journalist and Rolling Stone Magazine staffer David Fricke and GRAMMY® and Academy Award® winning Irish singer/songwriter/actor Glen Hansard. A featured recollection from Reverend Donor Macneice, who was recently located living in Thailand and whose attendance at the ’65 Belfast show nearly cost him his job after he was spotted on the local news, is also part of the package.

CD1 - Charlie Is My Darling Soundtrack
01. Play With Fire (2:25)
02. Heart of Stone (2:46)
03. Who Do You Like in the Group? (0:38)
04. The Last Time (live) (3:20)
05. Time Is on My Side (live) (2:55)
06. I’m Alright (live) (2:37)
07. The Next House We’ll Turn the Screaming Down (0:32)
08. Theme for a Rolling Stone (3:12)
09. Nice Tea (0:57)
10. May It’s Because I’m a Londoner (2:13)
11. Play With Fire (2:15)
12. Tell Me (2:20)
13. Heart of Stone (3:04)
14. Are You Going to the Show? (0:22)
15. Everybody Needs Somebody to Love (live) (0:40)
16. Pain in My Heart (live) (2:07)
17. Blue Turns to Grey (2:55)
18. Subconsciously Supernatural (0:11)
19. (I Can’t Get No) Satisfaction (2:55)
20. The Moon in June (0:36)
21. (I Can’t Get No) Satisfaction (live) (3:38)
22. Going Home (11:19)

CD2 - The Rolling Stones Live In England, '65
01. Show Intro (0:21)
02. Everybody Needs Somebody To Love (0:36)
03. Pain In My Heart (2:04)
04. Down The Road Apiece (1:43)
05. Time Is On My Side (2:51)
06. I’M Alright (2:15)
07. Off The Hook (2:27)
08. Charlie’S Intro To Little Red Rooster (0:33)
09. Little Red Rooster (2:36)
10. Route 66 (2:44)
11. I’M Moving On (2:29)
12. The Last Time (3:10)
13. Everybody Needs Somebody To Love (Finale) (4:06)
Exact Audio Copy V1.3 from 2. September 2016

EAC extraction logfile from 3. March 2022, 21:45

The Rolling Stones / Charlie Is My Darling: Ireland 1965

Used drive : HL-DT-STBD-RE BH16NS55 Adapter: 1 ID: 0

Read mode : Secure
Utilize accurate stream : Yes
Defeat audio cache : Yes
Make use of C2 pointers : No

Read offset correction : 6
Overread into Lead-In and Lead-Out : No
Fill up missing offset samples with silence : Yes
Delete leading and trailing silent blocks : No
Null samples used in CRC calculations : Yes
Used interface : Native Win32 interface for Win NT & 2000
Gap handling : Appended to previous track

Used output format : User Defined Encoder
Selected bitrate : 1024 kBit/s
Quality : High
Add ID3 tag : No
Command line compressor : C:\Program Files (x86)\Exact Audio Copy\Flac\flac.exe
Additional command line options : -8 -V -T "ARTIST=%artist%" -T "TITLE=%title%" -T "ALBUM=%albumtitle%" -T "DATE=%year%" -T "TRACKNUMBER=%tracknr%" -T "GENRE=%genre%" -T "PERFORMER=%albuminterpret%" -T "COMPOSER=%composer%" %haslyrics%–tag-from-file=LYRICS="%lyricsfile%"%haslyrics% -T "ALBUMARTIST=%albumartist%" -T "DISCNUMBER=%cdnumber%" -T "TOTALDISCS=%totalcds%" -T "TOTALTRACKS=%numtracks%" -T "COMMENT=%comment%" %source% -o %dest%


TOC of the extracted CD

Track | Start | Length | Start sector | End sector
––––––––––––––––––––––––––––-
1 | 0:00.00 | 2:24.48 | 0 | 10847
2 | 2:24.48 | 2:45.69 | 10848 | 23291
3 | 5:10.42 | 0:38.08 | 23292 | 26149
4 | 5:48.50 | 3:19.61 | 26150 | 41135
5 | 9:08.36 | 2:54.56 | 41136 | 54241
6 | 12:03.17 | 2:36.50 | 54242 | 65991
7 | 14:39.67 | 0:31.50 | 65992 | 68366
8 | 15:11.42 | 3:12.22 | 68367 | 82788
9 | 18:23.64 | 0:56.65 | 82789 | 87053
10 | 19:20.54 | 2:13.23 | 87054 | 97051
11 | 21:34.02 | 2:15.04 | 97052 | 107180
12 | 23:49.06 | 2:19.72 | 107181 | 117677
13 | 26:09.03 | 3:04.06 | 117678 | 131483
14 | 29:13.09 | 0:21.53 | 131484 | 133111
15 | 29:34.62 | 0:39.44 | 133112 | 136080
16 | 30:14.31 | 2:06.51 | 136081 | 145581
17 | 32:21.07 | 2:55.13 | 145582 | 158719
18 | 35:16.20 | 0:11.21 | 158720 | 159565
19 | 35:27.41 | 2:55.14 | 159566 | 172704
20 | 38:22.55 | 0:36.10 | 172705 | 175414
21 | 38:58.65 | 3:38.05 | 175415 | 191769
22 | 42:36.70 | 11:19.09 | 191770 | 242703


Track 1

Filename D:\#cdr\#wav+flac\#add\The Rolling Stones - Charlie Is My Darling Ireland 1965\cd 1\01. The Aranbee Pop Symphony Orchestra - Play With Fire.wav

Pre-gap length 0:00:02.00

Peak level 92.8 %
Extraction speed 4.4 X
Track quality 100.0 %
Test CRC 8134B542
Copy CRC 8134B542
Accurately ripped (confidence 12) [FEEDD410] (AR v2)
Copy OK

Track 2

Filename D:\#cdr\#wav+flac\#add\The Rolling Stones - Charlie Is My Darling Ireland 1965\cd 1\02. The Rolling Stones - Heart of Stone.wav

Pre-gap length 0:00:01.24

Peak level 99.1 %
Extraction speed 4.9 X
Track quality 100.0 %
Test CRC 834820B9
Copy CRC 834820B9
Accurately ripped (confidence 12) [12B66553] (AR v2)
Copy OK

Track 3

Filename D:\#cdr\#wav+flac\#add\The Rolling Stones - Charlie Is My Darling Ireland 1965\cd 1\03. Peter Whitehead and Fans - Who Do You Like in the Group.wav

Pre-gap length 0:00:00.66

Peak level 71.5 %
Extraction speed 3.1 X
Track quality 100.0 %
Test CRC D0A8E709
Copy CRC D0A8E709
Accurately ripped (confidence 12) [DF7E7265] (AR v2)
Copy OK

Track 4

Filename D:\#cdr\#wav+flac\#add\The Rolling Stones - Charlie Is My Darling Ireland 1965\cd 1\04. The Rolling Stones - The Last Time (live).wav

Peak level 98.9 %
Extraction speed 4.3 X
Track quality 99.9 %
Test CRC A67106FE
Copy CRC A67106FE
Accurately ripped (confidence 12) [01A0BB2F] (AR v2)
Copy OK

Track 5

Filename D:\#cdr\#wav+flac\#add\The Rolling Stones - Charlie Is My Darling Ireland 1965\cd 1\05. The Rolling Stones - Time Is on My Side (live).wav

Peak level 99.6 %
Extraction speed 5.5 X
Track quality 100.0 %
Test CRC 567398D4
Copy CRC 567398D4
Accurately ripped (confidence 12) [398721F8] (AR v2)
Copy OK

Track 6

Filename D:\#cdr\#wav+flac\#add\The Rolling Stones - Charlie Is My Darling Ireland 1965\cd 1\06. The Rolling Stones - I’m Alright (live).wav

Peak level 99.6 %
Extraction speed 4.4 X
Track quality 99.9 %
Test CRC 1A10D389
Copy CRC 1A10D389
Accurately ripped (confidence 12) [DFD39381] (AR v2)
Copy OK

Track 7

Filename D:\#cdr\#wav+flac\#add\The Rolling Stones - Charlie Is My Darling Ireland 1965\cd 1\07. Andrew Loog Oldham & Priest - The Next House We’ll Turn the Screaming Down.wav

Peak level 80.0 %
Extraction speed 3.4 X
Track quality 100.0 %
Test CRC 0B8C5F61
Copy CRC 0B8C5F61
Accurately ripped (confidence 12) [1AA483F4] (AR v2)
Copy OK

Track 8

Filename D:\#cdr\#wav+flac\#add\The Rolling Stones - Charlie Is My Darling Ireland 1965\cd 1\08. The Andrew Oldham Orchestra - Theme for a Rolling Stone.wav

Pre-gap length 0:00:01.82

Peak level 99.3 %
Extraction speed 6.2 X
Track quality 100.0 %
Test CRC E74F33BF
Copy CRC E74F33BF
Accurately ripped (confidence 12) [6B1234C7] (AR v2)
Copy OK

Track 9

Filename D:\#cdr\#wav+flac\#add\The Rolling Stones - Charlie Is My Darling Ireland 1965\cd 1\09. The Rolling Stones & Andrew Loog Oldham - Nice Tea.wav

Pre-gap length 0:00:01.26

Peak level 92.6 %
Extraction speed 4.6 X
Track quality 100.0 %
Test CRC 7D1E6AB1
Copy CRC 7D1E6AB1
Accurately ripped (confidence 12) [6F0A573A] (AR v2)
Copy OK

Track 10

Filename D:\#cdr\#wav+flac\#add\The Rolling Stones - Charlie Is My Darling Ireland 1965\cd 1\10. Andrew Loog Oldham - May It’s Because I’m a Londoner.wav

Pre-gap length 0:00:00.73

Peak level 88.9 %
Extraction speed 6.0 X
Track quality 100.0 %
Test CRC 67E144D1
Copy CRC 67E144D1
Accurately ripped (confidence 12) [8C20BE0B] (AR v2)
Copy OK

Track 11

Filename D:\#cdr\#wav+flac\#add\The Rolling Stones - Charlie Is My Darling Ireland 1965\cd 1\11. The Rolling Stones - Play With Fire.wav

Pre-gap length 0:00:02.25

Peak level 98.7 %
Extraction speed 6.1 X
Track quality 100.0 %
Test CRC 0262E550
Copy CRC 0262E550
Accurately ripped (confidence 12) [9FECA4EB] (AR v2)
Copy OK

Track 12

Filename D:\#cdr\#wav+flac\#add\The Rolling Stones - Charlie Is My Darling Ireland 1965\cd 1\12. The Rolling Stones - Tell Me.wav

Pre-gap length 0:00:01.45

Peak level 98.9 %
Extraction speed 6.5 X
Track quality 100.0 %
Test CRC DDFBC891
Copy CRC DDFBC891
Accurately ripped (confidence 12) [8BE3D1DA] (AR v2)
Copy OK

Track 13

Filename D:\#cdr\#wav+flac\#add\The Rolling Stones - Charlie Is My Darling Ireland 1965\cd 1\13. The Andrew Oldham Orchestra - Heart of Stone.wav

Pre-gap length 0:00:01.33

Peak level 98.9 %
Extraction speed 6.8 X
Track quality 100.0 %
Test CRC 616D18F2
Copy CRC 616D18F2
Accurately ripped (confidence 12) [AF34D8F9] (AR v2)
Copy OK

Track 14

Filename D:\#cdr\#wav+flac\#add\The Rolling Stones - Charlie Is My Darling Ireland 1965\cd 1\14. Peter Whitehead - Are You Going to the Show.wav

Pre-gap length 0:00:01.41

Peak level 81.5 %
Extraction speed 3.2 X
Track quality 100.0 %
Test CRC 2850DB5F
Copy CRC 2850DB5F
Accurately ripped (confidence 12) [EF9086D7] (AR v2)
Copy OK

Track 15

Filename D:\#cdr\#wav+flac\#add\The Rolling Stones - Charlie Is My Darling Ireland 1965\cd 1\15. The Rolling Stones - Everybody Needs Somebody to Love (live).wav

Peak level 99.1 %
Extraction speed 4.5 X
Track quality 100.0 %
Test CRC 8F9870CF
Copy CRC 8F9870CF
Accurately ripped (confidence 12) [9DA99518] (AR v2)
Copy OK

Track 16

Filename D:\#cdr\#wav+flac\#add\The Rolling Stones - Charlie Is My Darling Ireland 1965\cd 1\16. The Rolling Stones - Pain in My Heart (live).wav

Peak level 99.0 %
Extraction speed 6.7 X
Track quality 100.0 %
Test CRC 49F0C30D
Copy CRC 49F0C30D
Accurately ripped (confidence 12) [69E4B44D] (AR v2)
Copy OK

Track 17

Filename D:\#cdr\#wav+flac\#add\The Rolling Stones - Charlie Is My Darling Ireland 1965\cd 1\17. The Andrew Oldham Orchestra - Blue Turns to Grey.wav

Pre-gap length 0:00:02.81

Peak level 98.4 %
Extraction speed 7.2 X
Track quality 100.0 %
Test CRC A916CB18
Copy CRC A916CB18
Accurately ripped (confidence 12) [ADBD64AB] (AR v2)
Copy OK

Track 18

Filename D:\#cdr\#wav+flac\#add\The Rolling Stones - Charlie Is My Darling Ireland 1965\cd 1\18. Mick Jagger & Andrew Loog Oldham - Subconsciously Supernatural.wav

Pre-gap length 0:00:01.13

Peak level 66.0 %
Extraction speed 0.9 X
Track quality 99.0 %
Test CRC B1A50F8C
Copy CRC B1A50F8C
Accurately ripped (confidence 12) [92D13E35] (AR v2)
Copy OK

Track 19

Filename D:\#cdr\#wav+flac\#add\The Rolling Stones - Charlie Is My Darling Ireland 1965\cd 1\19. The Andrew Oldham Orchestra - (I Can’t Get No) Satisfaction.wav

Pre-gap length 0:00:01.66

Peak level 98.8 %
Extraction speed 7.4 X
Track quality 100.0 %
Test CRC 97D78BBF
Copy CRC 97D78BBF
Accurately ripped (confidence 12) [5506F6D5] (AR v2)
Copy OK

Track 20

Filename D:\#cdr\#wav+flac\#add\The Rolling Stones - Charlie Is My Darling Ireland 1965\cd 1\20. Mick Jagger - The Moon in June.wav

Peak level 93.7 %
Extraction speed 4.6 X
Track quality 100.0 %
Test CRC AB6445B3
Copy CRC AB6445B3
Accurately ripped (confidence 12) [C98CAD91] (AR v2)
Copy OK

Track 21

Filename D:\#cdr\#wav+flac\#add\The Rolling Stones - Charlie Is My Darling Ireland 1965\cd 1\21. The Rolling Stones - (I Can’t Get No) Satisfaction (live).wav

Pre-gap length 0:00:00.52

Peak level 99.4 %
Extraction speed 8.0 X
Track quality 100.0 %
Test CRC 32F2A10F
Copy CRC 32F2A10F
Accurately ripped (confidence 12) [2BB381A8] (AR v2)
Copy OK

Track 22

Filename D:\#cdr\#wav+flac\#add\The Rolling Stones - Charlie Is My Darling Ireland 1965\cd 1\22. The Rolling Stones - Going Home.wav

Pre-gap length 0:00:00.77

Peak level 100.0 %
Extraction speed 9.3 X
Track quality 100.0 %
Test CRC A0600A82
Copy CRC A0600A82
Accurately ripped (confidence 12) [BAC3E490] (AR v2)
Copy OK


All tracks accurately ripped

No errors occurred

End of status report

–– CUETools DB Plugin V2.1.6

[CTDB TOCID: 4XtgxL8jO.xWTalE5LHrHoFKhiE-] found
Submit result: 4XtgxL8jO.xWTalE5LHrHoFKhiE- has been confirmed
Track | CTDB Status
1 | (9/9) Accurately ripped
2 | (9/9) Accurately ripped
3 | (9/9) Accurately ripped
4 | (9/9) Accurately ripped
5 | (9/9) Accurately ripped
6 | (9/9) Accurately ripped
7 | (9/9) Accurately ripped
8 | (9/9) Accurately ripped
9 | (9/9) Accurately ripped
10 | (9/9) Accurately ripped
11 | (9/9) Accurately ripped
12 | (9/9) Accurately ripped
13 | (9/9) Accurately ripped
14 | (9/9) Accurately ripped
15 | (9/9) Accurately ripped
16 | (9/9) Accurately ripped
17 | (9/9) Accurately ripped
18 | (9/9) Accurately ripped
19 | (9/9) Accurately ripped
20 | (9/9) Accurately ripped
21 | (9/9) Accurately ripped
22 | (9/9) Accurately ripped


==== Log checksum EFD19E07F75C64BE376BB44E99DAEE99818A1810A5196770CB143A79F0F5BE3F ====

––––––––––––––––––––––––––––––

Exact Audio Copy V1.3 from 2. September 2016

EAC extraction logfile from 3. March 2022, 21:45

The Rolling Stones / Charlie Is My Darling: Ireland 1965

Used drive : HL-DT-STBD-RE BH16NS55 Adapter: 1 ID: 0

Read mode : Secure
Utilize accurate stream : Yes
Defeat audio cache : Yes
Make use of C2 pointers : No

Read offset correction : 6
Overread into Lead-In and Lead-Out : No
Fill up missing offset samples with silence : Yes
Delete leading and trailing silent blocks : No
Null samples used in CRC calculations : Yes
Used interface : Native Win32 interface for Win NT & 2000
Gap handling : Appended to previous track

Used output format : User Defined Encoder
Selected bitrate : 1024 kBit/s
Quality : High
Add ID3 tag : No
Command line compressor : C:\Program Files (x86)\Exact Audio Copy\Flac\flac.exe
Additional command line options : -8 -V -T "ARTIST=%artist%" -T "TITLE=%title%" -T "ALBUM=%albumtitle%" -T "DATE=%year%" -T "TRACKNUMBER=%tracknr%" -T "GENRE=%genre%" -T "PERFORMER=%albuminterpret%" -T "COMPOSER=%composer%" %haslyrics%–tag-from-file=LYRICS="%lyricsfile%"%haslyrics% -T "ALBUMARTIST=%albumartist%" -T "DISCNUMBER=%cdnumber%" -T "TOTALDISCS=%totalcds%" -T "TOTALTRACKS=%numtracks%" -T "COMMENT=%comment%" %source% -o %dest%


TOC of the extracted CD

Track | Start | Length | Start sector | End sector
––––––––––––––––––––––––––––-
1 | 0:00.00 | 2:24.48 | 0 | 10847
2 | 2:24.48 | 2:45.69 | 10848 | 23291
3 | 5:10.42 | 0:38.08 | 23292 | 26149
4 | 5:48.50 | 3:19.61 | 26150 | 41135
5 | 9:08.36 | 2:54.56 | 41136 | 54241
6 | 12:03.17 | 2:36.50 | 54242 | 65991
7 | 14:39.67 | 0:31.50 | 65992 | 68366
8 | 15:11.42 | 3:12.22 | 68367 | 82788
9 | 18:23.64 | 0:56.65 | 82789 | 87053
10 | 19:20.54 | 2:13.23 | 87054 | 97051
11 | 21:34.02 | 2:15.04 | 97052 | 107180
12 | 23:49.06 | 2:19.72 | 107181 | 117677
13 | 26:09.03 | 3:04.06 | 117678 | 131483
14 | 29:13.09 | 0:21.53 | 131484 | 133111
15 | 29:34.62 | 0:39.44 | 133112 | 136080
16 | 30:14.31 | 2:06.51 | 136081 | 145581
17 | 32:21.07 | 2:55.13 | 145582 | 158719
18 | 35:16.20 | 0:11.21 | 158720 | 159565
19 | 35:27.41 | 2:55.14 | 159566 | 172704
20 | 38:22.55 | 0:36.10 | 172705 | 175414
21 | 38:58.65 | 3:38.05 | 175415 | 191769
22 | 42:36.70 | 11:19.09 | 191770 | 242703


Track 1

Filename D:\#cdr\#wav+flac\#add\The Rolling Stones - Charlie Is My Darling Ireland 1965\cd 1\01. The Aranbee Pop Symphony Orchestra - Play With Fire.wav

Pre-gap length 0:00:02.00

Peak level 92.8 %
Extraction speed 4.4 X
Track quality 100.0 %
Test CRC 8134B542
Copy CRC 8134B542
Accurately ripped (confidence 12) [FEEDD410] (AR v2)
Copy OK

Track 2

Filename D:\#cdr\#wav+flac\#add\The Rolling Stones - Charlie Is My Darling Ireland 1965\cd 1\02. The Rolling Stones - Heart of Stone.wav

Pre-gap length 0:00:01.24

Peak level 99.1 %
Extraction speed 4.9 X
Track quality 100.0 %
Test CRC 834820B9
Copy CRC 834820B9
Accurately ripped (confidence 12) [12B66553] (AR v2)
Copy OK

Track 3

Filename D:\#cdr\#wav+flac\#add\The Rolling Stones - Charlie Is My Darling Ireland 1965\cd 1\03. Peter Whitehead and Fans - Who Do You Like in the Group.wav

Pre-gap length 0:00:00.66

Peak level 71.5 %
Extraction speed 3.1 X
Track quality 100.0 %
Test CRC D0A8E709
Copy CRC D0A8E709
Accurately ripped (confidence 12) [DF7E7265] (AR v2)
Copy OK

Track 4

Filename D:\#cdr\#wav+flac\#add\The Rolling Stones - Charlie Is My Darling Ireland 1965\cd 1\04. The Rolling Stones - The Last Time (live).wav

Peak level 98.9 %
Extraction speed 4.3 X
Track quality 99.9 %
Test CRC A67106FE
Copy CRC A67106FE
Accurately ripped (confidence 12) [01A0BB2F] (AR v2)
Copy OK

Track 5

Filename D:\#cdr\#wav+flac\#add\The Rolling Stones - Charlie Is My Darling Ireland 1965\cd 1\05. The Rolling Stones - Time Is on My Side (live).wav

Peak level 99.6 %
Extraction speed 5.5 X
Track quality 100.0 %
Test CRC 567398D4
Copy CRC 567398D4
Accurately ripped (confidence 12) [398721F8] (AR v2)
Copy OK

Track 6

Filename D:\#cdr\#wav+flac\#add\The Rolling Stones - Charlie Is My Darling Ireland 1965\cd 1\06. The Rolling Stones - I’m Alright (live).wav

Peak level 99.6 %
Extraction speed 4.4 X
Track quality 99.9 %
Test CRC 1A10D389
Copy CRC 1A10D389
Accurately ripped (confidence 12) [DFD39381] (AR v2)
Copy OK

Track 7

Filename D:\#cdr\#wav+flac\#add\The Rolling Stones - Charlie Is My Darling Ireland 1965\cd 1\07. Andrew Loog Oldham & Priest - The Next House We’ll Turn the Screaming Down.wav

Peak level 80.0 %
Extraction speed 3.4 X
Track quality 100.0 %
Test CRC 0B8C5F61
Copy CRC 0B8C5F61
Accurately ripped (confidence 12) [1AA483F4] (AR v2)
Copy OK

Track 8

Filename D:\#cdr\#wav+flac\#add\The Rolling Stones - Charlie Is My Darling Ireland 1965\cd 1\08. The Andrew Oldham Orchestra - Theme for a Rolling Stone.wav

Pre-gap length 0:00:01.82

Peak level 99.3 %
Extraction speed 6.2 X
Track quality 100.0 %
Test CRC E74F33BF
Copy CRC E74F33BF
Accurately ripped (confidence 12) [6B1234C7] (AR v2)
Copy OK

Track 9

Filename D:\#cdr\#wav+flac\#add\The Rolling Stones - Charlie Is My Darling Ireland 1965\cd 1\09. The Rolling Stones & Andrew Loog Oldham - Nice Tea.wav

Pre-gap length 0:00:01.26

Peak level 92.6 %
Extraction speed 4.6 X
Track quality 100.0 %
Test CRC 7D1E6AB1
Copy CRC 7D1E6AB1
Accurately ripped (confidence 12) [6F0A573A] (AR v2)
Copy OK

Track 10

Filename D:\#cdr\#wav+flac\#add\The Rolling Stones - Charlie Is My Darling Ireland 1965\cd 1\10. Andrew Loog Oldham - May It’s Because I’m a Londoner.wav

Pre-gap length 0:00:00.73

Peak level 88.9 %
Extraction speed 6.0 X
Track quality 100.0 %
Test CRC 67E144D1
Copy CRC 67E144D1
Accurately ripped (confidence 12) [8C20BE0B] (AR v2)
Copy OK

Track 11

Filename D:\#cdr\#wav+flac\#add\The Rolling Stones - Charlie Is My Darling Ireland 1965\cd 1\11. The Rolling Stones - Play With Fire.wav

Pre-gap length 0:00:02.25

Peak level 98.7 %
Extraction speed 6.1 X
Track quality 100.0 %
Test CRC 0262E550
Copy CRC 0262E550
Accurately ripped (confidence 12) [9FECA4EB] (AR v2)
Copy OK

Track 12

Filename D:\#cdr\#wav+flac\#add\The Rolling Stones - Charlie Is My Darling Ireland 1965\cd 1\12. The Rolling Stones - Tell Me.wav

Pre-gap length 0:00:01.45

Peak level 98.9 %
Extraction speed 6.5 X
Track quality 100.0 %
Test CRC DDFBC891
Copy CRC DDFBC891
Accurately ripped (confidence 12) [8BE3D1DA] (AR v2)
Copy OK

Track 13

Filename D:\#cdr\#wav+flac\#add\The Rolling Stones - Charlie Is My Darling Ireland 1965\cd 1\13. The Andrew Oldham Orchestra - Heart of Stone.wav

Pre-gap length 0:00:01.33

Peak level 98.9 %
Extraction speed 6.8 X
Track quality 100.0 %
Test CRC 616D18F2
Copy CRC 616D18F2
Accurately ripped (confidence 12) [AF34D8F9] (AR v2)
Copy OK

Track 14

Filename D:\#cdr\#wav+flac\#add\The Rolling Stones - Charlie Is My Darling Ireland 1965\cd 1\14. Peter Whitehead - Are You Going to the Show.wav

Pre-gap length 0:00:01.41

Peak level 81.5 %
Extraction speed 3.2 X
Track quality 100.0 %
Test CRC 2850DB5F
Copy CRC 2850DB5F
Accurately ripped (confidence 12) [EF9086D7] (AR v2)
Copy OK

Track 15

Filename D:\#cdr\#wav+flac\#add\The Rolling Stones - Charlie Is My Darling Ireland 1965\cd 1\15. The Rolling Stones - Everybody Needs Somebody to Love (live).wav

Peak level 99.1 %
Extraction speed 4.5 X
Track quality 100.0 %
Test CRC 8F9870CF
Copy CRC 8F9870CF
Accurately ripped (confidence 12) [9DA99518] (AR v2)
Copy OK

Track 16

Filename D:\#cdr\#wav+flac\#add\The Rolling Stones - Charlie Is My Darling Ireland 1965\cd 1\16. The Rolling Stones - Pain in My Heart (live).wav

Peak level 99.0 %
Extraction speed 6.7 X
Track quality 100.0 %
Test CRC 49F0C30D
Copy CRC 49F0C30D
Accurately ripped (confidence 12) [69E4B44D] (AR v2)
Copy OK

Track 17

Filename D:\#cdr\#wav+flac\#add\The Rolling Stones - Charlie Is My Darling Ireland 1965\cd 1\17. The Andrew Oldham Orchestra - Blue Turns to Grey.wav

Pre-gap length 0:00:02.81

Peak level 98.4 %
Extraction speed 7.2 X
Track quality 100.0 %
Test CRC A916CB18
Copy CRC A916CB18
Accurately ripped (confidence 12) [ADBD64AB] (AR v2)
Copy OK

Track 18

Filename D:\#cdr\#wav+flac\#add\The Rolling Stones - Charlie Is My Darling Ireland 1965\cd 1\18. Mick Jagger & Andrew Loog Oldham - Subconsciously Supernatural.wav

Pre-gap length 0:00:01.13

Peak level 66.0 %
Extraction speed 0.9 X
Track quality 99.0 %
Test CRC B1A50F8C
Copy CRC B1A50F8C
Accurately ripped (confidence 12) [92D13E35] (AR v2)
Copy OK

Track 19

Filename D:\#cdr\#wav+flac\#add\The Rolling Stones - Charlie Is My Darling Ireland 1965\cd 1\19. The Andrew Oldham Orchestra - (I Can’t Get No) Satisfaction.wav

Pre-gap length 0:00:01.66

Peak level 98.8 %
Extraction speed 7.4 X
Track quality 100.0 %
Test CRC 97D78BBF
Copy CRC 97D78BBF
Accurately ripped (confidence 12) [5506F6D5] (AR v2)
Copy OK

Track 20

Filename D:\#cdr\#wav+flac\#add\The Rolling Stones - Charlie Is My Darling Ireland 1965\cd 1\20. Mick Jagger - The Moon in June.wav

Peak level 93.7 %
Extraction speed 4.6 X
Track quality 100.0 %
Test CRC AB6445B3
Copy CRC AB6445B3
Accurately ripped (confidence 12) [C98CAD91] (AR v2)
Copy OK

Track 21

Filename D:\#cdr\#wav+flac\#add\The Rolling Stones - Charlie Is My Darling Ireland 1965\cd 1\21. The Rolling Stones - (I Can’t Get No) Satisfaction (live).wav

Pre-gap length 0:00:00.52

Peak level 99.4 %
Extraction speed 8.0 X
Track quality 100.0 %
Test CRC 32F2A10F
Copy CRC 32F2A10F
Accurately ripped (confidence 12) [2BB381A8] (AR v2)
Copy OK

Track 22

Filename D:\#cdr\#wav+flac\#add\The Rolling Stones - Charlie Is My Darling Ireland 1965\cd 1\22. The Rolling Stones - Going Home.wav

Pre-gap length 0:00:00.77

Peak level 100.0 %
Extraction speed 9.3 X
Track quality 100.0 %
Test CRC A0600A82
Copy CRC A0600A82
Accurately ripped (confidence 12) [BAC3E490] (AR v2)
Copy OK


All tracks accurately ripped

No errors occurred

End of status report

–– CUETools DB Plugin V2.1.6

[CTDB TOCID: 4XtgxL8jO.xWTalE5LHrHoFKhiE-] found
Submit result: 4XtgxL8jO.xWTalE5LHrHoFKhiE- has been confirmed
Track | CTDB Status
1 | (9/9) Accurately ripped
2 | (9/9) Accurately ripped
3 | (9/9) Accurately ripped
4 | (9/9) Accurately ripped
5 | (9/9) Accurately ripped
6 | (9/9) Accurately ripped
7 | (9/9) Accurately ripped
8 | (9/9) Accurately ripped
9 | (9/9) Accurately ripped
10 | (9/9) Accurately ripped
11 | (9/9) Accurately ripped
12 | (9/9) Accurately ripped
13 | (9/9) Accurately ripped
14 | (9/9) Accurately ripped
15 | (9/9) Accurately ripped
16 | (9/9) Accurately ripped
17 | (9/9) Accurately ripped
18 | (9/9) Accurately ripped
19 | (9/9) Accurately ripped
20 | (9/9) Accurately ripped
21 | (9/9) Accurately ripped
22 | (9/9) Accurately ripped


==== Log checksum EFD19E07F75C64BE376BB44E99DAEE99818A1810A5196770CB143A79F0F5BE3F ====


Exact Audio Copy V1.3 from 2. September 2016

EAC extraction logfile from 3. March 2022, 22:05

The Rolling Stones / Charlie Is My Darling: Ireland 1965

Used drive : HL-DT-STBD-RE BH16NS55 Adapter: 1 ID: 0

Read mode : Secure
Utilize accurate stream : Yes
Defeat audio cache : Yes
Make use of C2 pointers : No

Read offset correction : 6
Overread into Lead-In and Lead-Out : No
Fill up missing offset samples with silence : Yes
Delete leading and trailing silent blocks : No
Null samples used in CRC calculations : Yes
Used interface : Native Win32 interface for Win NT & 2000
Gap handling : Appended to previous track

Used output format : User Defined Encoder
Selected bitrate : 1024 kBit/s
Quality : High
Add ID3 tag : No
Command line compressor : C:\Program Files (x86)\Exact Audio Copy\Flac\flac.exe
Additional command line options : -8 -V -T "ARTIST=%artist%" -T "TITLE=%title%" -T "ALBUM=%albumtitle%" -T "DATE=%year%" -T "TRACKNUMBER=%tracknr%" -T "GENRE=%genre%" -T "PERFORMER=%albuminterpret%" -T "COMPOSER=%composer%" %haslyrics%–tag-from-file=LYRICS="%lyricsfile%"%haslyrics% -T "ALBUMARTIST=%albumartist%" -T "DISCNUMBER=%cdnumber%" -T "TOTALDISCS=%totalcds%" -T "TOTALTRACKS=%numtracks%" -T "COMMENT=%comment%" %source% -o %dest%


TOC of the extracted CD

Track | Start | Length | Start sector | End sector
––––––––––––––––––––––––––––-
1 | 0:00.00 | 0:21.00 | 0 | 1574
2 | 0:21.00 | 0:35.69 | 1575 | 4268
3 | 0:56.69 | 2:03.38 | 4269 | 13531
4 | 3:00.32 | 1:43.11 | 13532 | 21267
5 | 4:43.43 | 2:51.20 | 21268 | 34112
6 | 7:34.63 | 2:15.03 | 34113 | 44240
7 | 9:49.66 | 2:27.04 | 44241 | 55269
8 | 12:16.70 | 0:32.70 | 55270 | 57739
9 | 12:49.65 | 2:35.45 | 57740 | 69409
10 | 15:25.35 | 2:44.24 | 69410 | 81733
11 | 18:09.59 | 2:28.43 | 81734 | 92876
12 | 20:38.27 | 3:09.44 | 92877 | 107095
13 | 23:47.71 | 4:06.00 | 107096 | 125545


Track 1

Filename D:\#cdr\#wav+flac\#add\The Rolling Stones - Charlie Is My Darling Ireland 1965\cd 2\01. The Rolling Stones - Show Intro.wav

Pre-gap length 0:00:02.00

Peak level 96.2 %
Extraction speed 1.9 X
Track quality 100.0 %
Test CRC E552DDE3
Copy CRC E552DDE3
Accurately ripped (confidence 12) [33A1A326] (AR v2)
Copy OK

Track 2

Filename D:\#cdr\#wav+flac\#add\The Rolling Stones - Charlie Is My Darling Ireland 1965\cd 2\02. The Rolling Stones - Everybody Needs Somebody To Love.wav

Peak level 100.0 %
Extraction speed 2.7 X
Track quality 100.0 %
Test CRC CEC69252
Copy CRC CEC69252
Accurately ripped (confidence 12) [5931E184] (AR v2)
Copy OK

Track 3

Filename D:\#cdr\#wav+flac\#add\The Rolling Stones - Charlie Is My Darling Ireland 1965\cd 2\03. The Rolling Stones - Pain In My Heart.wav

Peak level 98.9 %
Extraction speed 3.3 X
Track quality 99.9 %
Test CRC 1141B734
Copy CRC 1141B734
Accurately ripped (confidence 12) [81D8A3E4] (AR v2)
Copy OK

Track 4

Filename D:\#cdr\#wav+flac\#add\The Rolling Stones - Charlie Is My Darling Ireland 1965\cd 2\04. The Rolling Stones - Down The Road Apiece.wav

Peak level 100.0 %
Extraction speed 4.4 X
Track quality 100.0 %
Test CRC D96CCEAC
Copy CRC D96CCEAC
Accurately ripped (confidence 12) [B9A2C187] (AR v2)
Copy OK

Track 5

Filename D:\#cdr\#wav+flac\#add\The Rolling Stones - Charlie Is My Darling Ireland 1965\cd 2\05. The Rolling Stones - Time Is On My Side.wav

Peak level 100.0 %
Extraction speed 5.1 X
Track quality 100.0 %
Test CRC 262F404B
Copy CRC 262F404B
Accurately ripped (confidence 12) [F7D94041] (AR v2)
Copy OK

Track 6

Filename D:\#cdr\#wav+flac\#add\The Rolling Stones - Charlie Is My Darling Ireland 1965\cd 2\06. The Rolling Stones - I’M Alright.wav

Peak level 100.0 %
Extraction speed 5.1 X
Track quality 100.0 %
Test CRC 0975E8E2
Copy CRC 0975E8E2
Accurately ripped (confidence 12) [074DB301] (AR v2)
Copy OK

Track 7

Filename D:\#cdr\#wav+flac\#add\The Rolling Stones - Charlie Is My Darling Ireland 1965\cd 2\07. The Rolling Stones - Off The Hook.wav

Peak level 99.0 %
Extraction speed 4.1 X
Track quality 99.9 %
Test CRC 497ABD44
Copy CRC 497ABD44
Accurately ripped (confidence 12) [320E8F72] (AR v2)
Copy OK

Track 8

Filename D:\#cdr\#wav+flac\#add\The Rolling Stones - Charlie Is My Darling Ireland 1965\cd 2\08. The Rolling Stones - Charlie’S Intro To Little Red Rooster.wav

Peak level 87.0 %
Extraction speed 3.4 X
Track quality 100.0 %
Test CRC 1FEE57AB
Copy CRC 1FEE57AB
Accurately ripped (confidence 12) [5987174C] (AR v2)
Copy OK

Track 9

Filename D:\#cdr\#wav+flac\#add\The Rolling Stones - Charlie Is My Darling Ireland 1965\cd 2\09. The Rolling Stones - Little Red Rooster.wav

Peak level 99.0 %
Extraction speed 5.7 X
Track quality 100.0 %
Test CRC A44DCEF2
Copy CRC A44DCEF2
Accurately ripped (confidence 12) [3C1A86FE] (AR v2)
Copy OK

Track 10

Filename D:\#cdr\#wav+flac\#add\The Rolling Stones - Charlie Is My Darling Ireland 1965\cd 2\10. The Rolling Stones - Route 66.wav

Peak level 99.1 %
Extraction speed 4.6 X
Track quality 99.9 %
Test CRC C3DDDBEC
Copy CRC C3DDDBEC
Accurately ripped (confidence 12) [90BEB200] (AR v2)
Copy OK

Track 11

Filename D:\#cdr\#wav+flac\#add\The Rolling Stones - Charlie Is My Darling Ireland 1965\cd 2\11. The Rolling Stones - I’M Moving On.wav

Peak level 100.0 %
Extraction speed 6.0 X
Track quality 100.0 %
Test CRC 95CEEF41
Copy CRC 95CEEF41
Accurately ripped (confidence 12) [97F663A6] (AR v2)
Copy OK

Track 12

Filename D:\#cdr\#wav+flac\#add\The Rolling Stones - Charlie Is My Darling Ireland 1965\cd 2\12. The Rolling Stones - The Last Time.wav

Peak level 99.1 %
Extraction speed 5.3 X
Track quality 99.9 %
Test CRC 27FA8574
Copy CRC 27FA8574
Accurately ripped (confidence 12) [494156A5] (AR v2)
Copy OK

Track 13

Filename D:\#cdr\#wav+flac\#add\The Rolling Stones - Charlie Is My Darling Ireland 1965\cd 2\13. The Rolling Stones - Everybody Needs Somebody To Love (Finale).wav

Peak level 100.0 %
Extraction speed 5.8 X
Track quality 99.9 %
Test CRC 5FFFD10E
Copy CRC 5FFFD10E
Accurately ripped (confidence 12) [D3F95C05] (AR v2)
Copy OK


All tracks accurately ripped

No errors occurred

End of status report

–– CUETools DB Plugin V2.1.6

[CTDB TOCID: B6W_NKmKqV0xmO.bOqBW7.aUW9U-] found
Submit result: B6W_NKmKqV0xmO.bOqBW7.aUW9U- has been confirmed
Track | CTDB Status
1 | (11/11) Accurately ripped
2 | (11/11) Accurately ripped
3 | (11/11) Accurately ripped
4 | (11/11) Accurately ripped
5 | (11/11) Accurately ripped
6 | (11/11) Accurately ripped
7 | (11/11) Accurately ripped
8 | (11/11) Accurately ripped
9 | (11/11) Accurately ripped
10 | (11/11) Accurately ripped
11 | (11/11) Accurately ripped
12 | (11/11) Accurately ripped
13 | (11/11) Accurately ripped


==== Log checksum 7D57CB51E17AA9F21C8275FA0B99F6EB5387F0F5ADACF2EE8CEC4C668036D2BB ====

––––––––––––––––––––––––––––––

Exact Audio Copy V1.3 from 2. September 2016

EAC extraction logfile from 3. March 2022, 22:05

The Rolling Stones / Charlie Is My Darling: Ireland 1965

Used drive : HL-DT-STBD-RE BH16NS55 Adapter: 1 ID: 0

Read mode : Secure
Utilize accurate stream : Yes
Defeat audio cache : Yes
Make use of C2 pointers : No

Read offset correction : 6
Overread into Lead-In and Lead-Out : No
Fill up missing offset samples with silence : Yes
Delete leading and trailing silent blocks : No
Null samples used in CRC calculations : Yes
Used interface : Native Win32 interface for Win NT & 2000
Gap handling : Appended to previous track

Used output format : User Defined Encoder
Selected bitrate : 1024 kBit/s
Quality : High
Add ID3 tag : No
Command line compressor : C:\Program Files (x86)\Exact Audio Copy\Flac\flac.exe
Additional command line options : -8 -V -T "ARTIST=%artist%" -T "TITLE=%title%" -T "ALBUM=%albumtitle%" -T "DATE=%year%" -T "TRACKNUMBER=%tracknr%" -T "GENRE=%genre%" -T "PERFORMER=%albuminterpret%" -T "COMPOSER=%composer%" %haslyrics%–tag-from-file=LYRICS="%lyricsfile%"%haslyrics% -T "ALBUMARTIST=%albumartist%" -T "DISCNUMBER=%cdnumber%" -T "TOTALDISCS=%totalcds%" -T "TOTALTRACKS=%numtracks%" -T "COMMENT=%comment%" %source% -o %dest%


TOC of the extracted CD

Track | Start | Length | Start sector | End sector
––––––––––––––––––––––––––––-
1 | 0:00.00 | 0:21.00 | 0 | 1574
2 | 0:21.00 | 0:35.69 | 1575 | 4268
3 | 0:56.69 | 2:03.38 | 4269 | 13531
4 | 3:00.32 | 1:43.11 | 13532 | 21267
5 | 4:43.43 | 2:51.20 | 21268 | 34112
6 | 7:34.63 | 2:15.03 | 34113 | 44240
7 | 9:49.66 | 2:27.04 | 44241 | 55269
8 | 12:16.70 | 0:32.70 | 55270 | 57739
9 | 12:49.65 | 2:35.45 | 57740 | 69409
10 | 15:25.35 | 2:44.24 | 69410 | 81733
11 | 18:09.59 | 2:28.43 | 81734 | 92876
12 | 20:38.27 | 3:09.44 | 92877 | 107095
13 | 23:47.71 | 4:06.00 | 107096 | 125545


Track 1

Filename D:\#cdr\#wav+flac\#add\The Rolling Stones - Charlie Is My Darling Ireland 1965\cd 2\01. The Rolling Stones - Show Intro.wav

Pre-gap length 0:00:02.00

Peak level 96.2 %
Extraction speed 1.9 X
Track quality 100.0 %
Test CRC E552DDE3
Copy CRC E552DDE3
Accurately ripped (confidence 12) [33A1A326] (AR v2)
Copy OK

Track 2

Filename D:\#cdr\#wav+flac\#add\The Rolling Stones - Charlie Is My Darling Ireland 1965\cd 2\02. The Rolling Stones - Everybody Needs Somebody To Love.wav

Peak level 100.0 %
Extraction speed 2.7 X
Track quality 100.0 %
Test CRC CEC69252
Copy CRC CEC69252
Accurately ripped (confidence 12) [5931E184] (AR v2)
Copy OK

Track 3

Filename D:\#cdr\#wav+flac\#add\The Rolling Stones - Charlie Is My Darling Ireland 1965\cd 2\03. The Rolling Stones - Pain In My Heart.wav

Peak level 98.9 %
Extraction speed 3.3 X
Track quality 99.9 %
Test CRC 1141B734
Copy CRC 1141B734
Accurately ripped (confidence 12) [81D8A3E4] (AR v2)
Copy OK

Track 4

Filename D:\#cdr\#wav+flac\#add\The Rolling Stones - Charlie Is My Darling Ireland 1965\cd 2\04. The Rolling Stones - Down The Road Apiece.wav

Peak level 100.0 %
Extraction speed 4.4 X
Track quality 100.0 %
Test CRC D96CCEAC
Copy CRC D96CCEAC
Accurately ripped (confidence 12) [B9A2C187] (AR v2)
Copy OK

Track 5

Filename D:\#cdr\#wav+flac\#add\The Rolling Stones - Charlie Is My Darling Ireland 1965\cd 2\05. The Rolling Stones - Time Is On My Side.wav

Peak level 100.0 %
Extraction speed 5.1 X
Track quality 100.0 %
Test CRC 262F404B
Copy CRC 262F404B
Accurately ripped (confidence 12) [F7D94041] (AR v2)
Copy OK

Track 6

Filename D:\#cdr\#wav+flac\#add\The Rolling Stones - Charlie Is My Darling Ireland 1965\cd 2\06. The Rolling Stones - I’M Alright.wav

Peak level 100.0 %
Extraction speed 5.1 X
Track quality 100.0 %
Test CRC 0975E8E2
Copy CRC 0975E8E2
Accurately ripped (confidence 12) [074DB301] (AR v2)
Copy OK

Track 7

Filename D:\#cdr\#wav+flac\#add\The Rolling Stones - Charlie Is My Darling Ireland 1965\cd 2\07. The Rolling Stones - Off The Hook.wav

Peak level 99.0 %
Extraction speed 4.1 X
Track quality 99.9 %
Test CRC 497ABD44
Copy CRC 497ABD44
Accurately ripped (confidence 12) [320E8F72] (AR v2)
Copy OK

Track 8

Filename D:\#cdr\#wav+flac\#add\The Rolling Stones - Charlie Is My Darling Ireland 1965\cd 2\08. The Rolling Stones - Charlie’S Intro To Little Red Rooster.wav

Peak level 87.0 %
Extraction speed 3.4 X
Track quality 100.0 %
Test CRC 1FEE57AB
Copy CRC 1FEE57AB
Accurately ripped (confidence 12) [5987174C] (AR v2)
Copy OK

Track 9

Filename D:\#cdr\#wav+flac\#add\The Rolling Stones - Charlie Is My Darling Ireland 1965\cd 2\09. The Rolling Stones - Little Red Rooster.wav

Peak level 99.0 %
Extraction speed 5.7 X
Track quality 100.0 %
Test CRC A44DCEF2
Copy CRC A44DCEF2
Accurately ripped (confidence 12) [3C1A86FE] (AR v2)
Copy OK

Track 10

Filename D:\#cdr\#wav+flac\#add\The Rolling Stones - Charlie Is My Darling Ireland 1965\cd 2\10. The Rolling Stones - Route 66.wav

Peak level 99.1 %
Extraction speed 4.6 X
Track quality 99.9 %
Test CRC C3DDDBEC
Copy CRC C3DDDBEC
Accurately ripped (confidence 12) [90BEB200] (AR v2)
Copy OK

Track 11

Filename D:\#cdr\#wav+flac\#add\The Rolling Stones - Charlie Is My Darling Ireland 1965\cd 2\11. The Rolling Stones - I’M Moving On.wav

Peak level 100.0 %
Extraction speed 6.0 X
Track quality 100.0 %
Test CRC 95CEEF41
Copy CRC 95CEEF41
Accurately ripped (confidence 12) [97F663A6] (AR v2)
Copy OK

Track 12

Filename D:\#cdr\#wav+flac\#add\The Rolling Stones - Charlie Is My Darling Ireland 1965\cd 2\12. The Rolling Stones - The Last Time.wav

Peak level 99.1 %
Extraction speed 5.3 X
Track quality 99.9 %
Test CRC 27FA8574
Copy CRC 27FA8574
Accurately ripped (confidence 12) [494156A5] (AR v2)
Copy OK

Track 13

Filename D:\#cdr\#wav+flac\#add\The Rolling Stones - Charlie Is My Darling Ireland 1965\cd 2\13. The Rolling Stones - Everybody Needs Somebody To Love (Finale).wav

Peak level 100.0 %
Extraction speed 5.8 X
Track quality 99.9 %
Test CRC 5FFFD10E
Copy CRC 5FFFD10E
Accurately ripped (confidence 12) [D3F95C05] (AR v2)
Copy OK


All tracks accurately ripped

No errors occurred

End of status report

–– CUETools DB Plugin V2.1.6

[CTDB TOCID: B6W_NKmKqV0xmO.bOqBW7.aUW9U-] found
Submit result: B6W_NKmKqV0xmO.bOqBW7.aUW9U- has been confirmed
Track | CTDB Status
1 | (11/11) Accurately ripped
2 | (11/11) Accurately ripped
3 | (11/11) Accurately ripped
4 | (11/11) Accurately ripped
5 | (11/11) Accurately ripped
6 | (11/11) Accurately ripped
7 | (11/11) Accurately ripped
8 | (11/11) Accurately ripped
9 | (11/11) Accurately ripped
10 | (11/11) Accurately ripped
11 | (11/11) Accurately ripped
12 | (11/11) Accurately ripped
13 | (11/11) Accurately ripped


==== Log checksum 7D57CB51E17AA9F21C8275FA0B99F6EB5387F0F5ADACF2EE8CEC4C668036D2BB ====