Subcategories

The Norwegian Radio Orchestra, M. Harth-Bedoya - Jimmy López - Perú Negro, Synesthésie, Lord of the Air, América Salvaje (2015)

Posted By: tirexiss
The Norwegian Radio Orchestra, M. Harth-Bedoya - Jimmy López - Perú Negro, Synesthésie, Lord of the Air, América Salvaje (2015)

The Norwegian Radio Orchestra, Miguel Harth-Bedoya - Jimmy López - Perú Negro, Synesthésie, Lord of the Air, América Salvaje (2015)
EAC | FLAC (image+.cue, log) | Covers + Digital Booklet | 66:59 | 292 MB
Genre: Classical | Label: Harmonia Mundi | Catalog: HMU 907628

Award-winning composer Jimmy López was recently hailed by The Chicago Sun-Times as, ''one of the most interesting young composers working anywhere today.'' On this exciting release from harmonia mundi, Miguel Harth-Bedoya leads the Norwegian Radio Orchestra in América Salvaje, Synesthésie, Perú Negro and Lord of the Air - a 2012 cello concerto featuring Jesús Castro-Balbi. All four orchestral works included here are being commercially released for the first time.

As an (ex)Peruvian, born and raised, imbued through ear and skin in the many national musics of the land (yet always preferring classical) and with particular love and respect for the "locals" Ginastera, Chavez, Piazzolla, etc. I feel proud of Mr López and Harmonia Mundi for releasing this. First of all, the music is very engaging – to my ears it sounds more pan-american than strictly Peruvian. but with lots of color, rhythmical drive and, without doubt, a Peruvian Zeitgeist that everyone can appreciate, especially those of us who still carry Peruvian magic in their souls. The last piece is the earliest (2006), and it shows. Some minimalist (John Adams) influences permeates it somewhat. But it just goes to show how Mr Lopez has gained his voice in the newer pieces. Modern, interesting yet accessible. My kind of music.
The cello concerto (Lord of the Air… inspired by the Andean condor) is a beauty and it should hopefully be welcomed by others virtuosi.
For me, the weirdest thing is that it took a Peruvian composer, cellist and conductor to go to Norway(!) to record this. I wonder what a Dudamel in L.A. or Venezuela would do of this! Also, the acoustic of the hall sounds dry; perhaps it suits the music better?
With so many good reviews here, you might be treating you to something new and exciting.

The Norwegian Radio Orchestra, M. Harth-Bedoya - Jimmy López - Perú Negro, Synesthésie, Lord of the Air, América Salvaje (2015)

Track List:

Jimmy López (b.1978)

[1] Perú Negro

[2]-[6] Synesthésie

[7]-[10] Lord of the Air
Jesús Castro-Balbi, cello

[11] América Salvaje

Performers:
The Norwegian Radio Orchestra
Miguel Harth-Bedoya, Conductor

Exact Audio Copy V1.1 from 23. June 2015

EAC extraction logfile from 9. January 2016, 21:46

Norwegian Radio Orchestra, Miguel Harth-Bedoya / Jimmy Lopez

Used drive : HL-DT-STDVDRAM GU70N Adapter: 1 ID: 0

Read mode : Secure
Utilize accurate stream : Yes
Defeat audio cache : Yes
Make use of C2 pointers : No

Read offset correction : 48
Overread into Lead-In and Lead-Out : No
Fill up missing offset samples with silence : Yes
Delete leading and trailing silent blocks : No
Null samples used in CRC calculations : Yes
Used interface : Native Win32 interface for Win NT & 2000

Used output format : User Defined Encoder
Selected bitrate : 128 kBit/s
Quality : High
Add ID3 tag : No
Command line compressor : C:\Program Files (x86)\Exact Audio Copy\Flac\flac.exe
Additional command line options : -V -8 -T "Date=%year%" -T "Genre=%genre%" %source%


TOC of the extracted CD

Track | Start | Length | Start sector | End sector
––––––––––––––––––––––––––––-
1 | 0:00.00 | 17:08.23 | 0 | 77122
2 | 17:08.23 | 2:23.42 | 77123 | 87889
3 | 19:31.65 | 2:23.49 | 87890 | 98663
4 | 21:55.39 | 2:30.71 | 98664 | 109984
5 | 24:26.35 | 2:24.27 | 109985 | 120811
6 | 26:50.62 | 2:34.65 | 120812 | 132426
7 | 29:25.52 | 3:27.28 | 132427 | 147979
8 | 32:53.05 | 5:17.24 | 147980 | 171778
9 | 38:10.29 | 9:48.01 | 171779 | 215879
10 | 47:58.30 | 5:41.02 | 215880 | 241456
11 | 53:39.32 | 13:17.51 | 241457 | 301282


Range status and errors

Selected range

Filename C:\temp\HMU907628 - Jimmy Lopez - Peru Negro; Synesthesie; Lord of the Air; America Salvaje\Jimmy Lopez.wav

Peak level 97.0 %
Extraction speed 2.2 X
Range quality 100.0 %
Test CRC FC4AF988
Copy CRC FC4AF988
Copy OK

No errors occurred


AccurateRip summary

Track 1 not present in database
Track 2 not present in database
Track 3 not present in database
Track 4 not present in database
Track 5 not present in database
Track 6 not present in database
Track 7 not present in database
Track 8 not present in database
Track 9 not present in database
Track 10 not present in database
Track 11 not present in database

None of the tracks are present in the AccurateRip database

End of status report

==== Log checksum 93ACB89A10CC648482A4AC02DEE3633A86C30506783140551879B8E0500B3746 ====

[CUETools log; Date: 08.01.2017 21:11:31; Version: 2.1.5]
[CTDB TOCID: FJc_yKufXwMQ5kp3easvqctVFsM-] found.
Track | CTDB Status
1 | (3/3) Accurately ripped
2 | (3/3) Accurately ripped
3 | (3/3) Accurately ripped
4 | (3/3) Accurately ripped
5 | (3/3) Accurately ripped
6 | (3/3) Accurately ripped
7 | (3/3) Accurately ripped
8 | (3/3) Accurately ripped
9 | (3/3) Accurately ripped
10 | (3/3) Accurately ripped
11 | (3/3) Accurately ripped
[AccurateRip ID: 001a0540-00d848e1-8f0fb10b] disk not present in database.

Track Peak [ CRC32 ] [W/O NULL] [ LOG ]
– 97,0 [FC4AF988] [FFF194DD] CRC32
01 97,0 [0544AA08] [A0E99EC5]
02 79,3 [1EE0B689] [53B3A88C]
03 75,2 [265D7D78] [90C3796D]
04 49,8 [2D5CC42F] [C543079E]
05 81,3 [8874B9C3] [DF765CCD]
06 95,8 [6B271C7E] [4C1663F1]
07 58,5 [31537F74] [284F0E19]
08 87,6 [2F25100E] [87F0BFF0]
09 87,3 [5D95A4DB] [23F258FB]
10 93,8 [26BFB180] [FE96DD3B]
11 92,6 [6FD8B1BE] [D6DAB36E]

Thanks to the Original ripper A-Z!

Download: