Tags
Language
Tags
July 2024
Su Mo Tu We Th Fr Sa
30 1 2 3 4 5 6
7 8 9 10 11 12 13
14 15 16 17 18 19 20
21 22 23 24 25 26 27
28 29 30 31 1 2 3

The Drifters - Original Album Series (2009)

Posted By: Rtax
The Drifters - Original Album Series (2009)

The Drifters - Original Album Series (2009)
EAC Rip | FLAC (tracks, cue, log) - 831 MB MP3 CBR 320 kbps - 387 MB
2:44:20 | R&B, Soul, Doo Wop, Pop | Label: Atlantic/ Rhino

"The Drifters - Original Album Series" is a well-regarded collection that includes five of the band's classic albums from their peak years. This box set is praised for its sound quality and packaging, offering the original album artwork in a compact form. Fans appreciate the value of having these albums together, capturing the essence of The Drifters' contributions to soul and R&B music. The set provides a comprehensive look at their career, including hits and deep cuts from the 50s and 60s​.

The Drifters are an American doo-wop and R&B/soul vocal group. They were originally formed as a backing group for Clyde McPhatter, formerly the lead tenor of Billy Ward and his Dominoes in 1953.

According to Rolling Stone, the Drifters were the least stable of the great vocal groups, as they were low-paid musicians hired by George Treadwell, who owned the Drifters' name from 1955, after McPhatter left. The Treadwell Drifters line has had 60 musicians, including several splinter groups by former Drifters members (not under Treadwell's management). These groups are usually identified with a possessive credit such as "Bill Pinkney's Original Drifters", "Charlie Thomas' Drifters".

The three golden eras of the Drifters were the early 1950s, the 1960s, and the early 1970s (post-Atlantic period). From these, the first Drifters, formed by Clyde McPhatter, were inducted into the Vocal Group Hall of Fame as "The Drifters". The second Drifters, featuring Ben E. King, were separately inducted into the Vocal Group Hall of Fame as "Ben E. King and the Drifters". In their induction, the Rock and Roll Hall of Fame selected four members from the first Drifters, two from the second Drifters, and one from the post-Atlantic Drifters. There were other lead singers too, but the group was less successful during those times.

According to the Vocal Group Hall of Fame: "Through turmoil and changes, the (original) Drifters managed to set musical trends and give the public 13 chart hits, most of which are legendary recordings today." Matching that feat, subsequent formations of the Drifters recorded 13 Billboard Hot 100 top-30 chart hits. The 1950s and '60s incarnations of the group were also a force on the US R&B charts, notching six number-one R&B hits: "Money Honey" (1953), "Honey Love" (1954), "Adorable" (1955), "There Goes My Baby" (1959), "Save The Last Dance For Me" (1960), and "Under The Boardwalk" (1964). A 1970s revival in Britain, with both old and new material, was not matched in the United States, although they had their biggest successes on the UK singles chart, peaking with the number-two hit "Kissin' in the Back Row of the Movies".

Tracklist
Clyde McPhatter & The Drifters
1-1 Without Love (There Is Nothing)
1-2 Someday You'll Want Me To Want You
1-3 Treasure Of Love
1-4 I'm Not Worthy Of You
1-5 The Bells Of St. Mary's
1-6 White Christmas
1-7 I Make Believe
1-8 Seven Days
1-9 Warm Your Heart
1-10 Money Honey
1-11 What'cha Gonna Do
1-12 Such A Night
1-13 Honey Love
1-14 Thirty Days

Rockin' & Driftin'
2-1 Moonlight Bay
2-2 Ruby Baby
2-3 Drip Drop
2-4 I Gotta Get Myself A Woman
2-5 Fools Fall In Love
2-6 Hypnotized
2-7 Yodee Yakee
2-8 I Know
2-9 Soldier Of Fortune
2-10 Drifting Away From You
2-11 Your Promise To Be Mine
2-12 It Was A Tear
2-13 Adorable
2-14 Steamboat

Save The Last Dance For Me
3-1 Save The Last Dance For Me
3-2 I Count The Tears
3-3 Somebody New Dancin' With You
3-4 Jackpot
3-5 No Sweet Lovin'
3-6 Sweets For My Sweet
3-7 Mexican Divorce
3-8 When My Little Girl Is Smiling
3-9 Some Kind Of Wonderful
3-10 Please Stay
3-11 Nobody But Me
3-12 Room Full Of Tears

Under The Boardwalk
4-1 Under The Boardwalk
4-2 One Way Love
4-3 On Broadway
4-4 Didn't It
4-5 I Feel Good All Over
4-6 Vaya Con Dios
4-7 Up On The Roof
4-8 Rat Race
4-9 In The Land Of Make Believe
4-10 If You Don't Come Back
4-11 Let The Music Play
4-12 I'll Take You Home

I'll Take You Where The Music's Playing
5-1 I'll Take You Where The Music's Playing
5-2 I've Got Sand In My Shoes
5-3 At The Club
5-4 I Don't Want To Go On Without You
5-5 Answer The Phone
5-6 He's Just A Playboy
5-7 Follow Me
5-8 Spanish Lace
5-9 Chains Of Love
5-10 Far From The Maddening Crowd
5-11 The Outside World
5-12 Come On Over To My Place
Exact Audio Copy V1.3 from 2. September 2016

EAC extraction logfile from 10. December 2019, 22:43

The Drifters / Clyde McPhatter & The Drifters

Used drive : TSSTcorpCD/DVDW SH-S182D Adapter: 1 ID: 0

Read mode : Secure
Utilize accurate stream : Yes
Defeat audio cache : Yes
Make use of C2 pointers : No

Read offset correction : 6
Overread into Lead-In and Lead-Out : No
Fill up missing offset samples with silence : Yes
Delete leading and trailing silent blocks : No
Null samples used in CRC calculations : Yes
Used interface : Native Win32 interface for Win NT & 2000
Gap handling : Appended to previous track

Used output format : User Defined Encoder
Selected bitrate : 896 kBit/s
Quality : High
Add ID3 tag : No
Command line compressor : C:\Program Files (x86)\Exact Audio Copy\FLAC\FLAC.EXE
Additional command line options : -6 -V -T "ARTIST=%artist%" -T "TITLE=%title%" -T "ALBUM=%albumtitle%" -T "DATE=%year%" -T "TRACKNUMBER=%tracknr%" -T "GENRE=%genre%" -T "COMMENT=%comment%" -T "BAND=%albuminterpret%" -T "ALBUMARTIST=%albuminterpret%" -T "COMPOSER=%composer%" %haslyrics%–tag-from-file=LYRICS="%lyricsfile%"%haslyrics% -T "DISCNUMBER=%cdnumber%" -T "TOTALDISCS=%totalcds%" -T "TOTALTRACKS=%numtracks%" %hascover%–picture="%coverfile%"%hascover% %source% -o %dest%


TOC of the extracted CD

Track | Start | Length | Start sector | End sector
––––––––––––––––––––––––––––-
1 | 0:00.30 | 2:57.63 | 30 | 13367
2 | 2:58.18 | 2:54.56 | 13368 | 26473
3 | 5:52.74 | 2:10.24 | 26474 | 36247
4 | 8:03.23 | 2:40.38 | 36248 | 48285
5 | 10:43.61 | 2:39.61 | 48286 | 60271
6 | 13:23.47 | 2:38.55 | 60272 | 72176
7 | 16:02.27 | 2:56.36 | 72177 | 85412
8 | 18:58.63 | 2:29.26 | 85413 | 96613
9 | 21:28.14 | 2:45.42 | 96614 | 109030
10 | 24:13.56 | 2:56.46 | 109031 | 122276
11 | 27:10.27 | 2:48.34 | 122277 | 134910
12 | 29:58.61 | 2:30.13 | 134911 | 146173
13 | 32:28.74 | 2:24.40 | 146174 | 157013
14 | 34:53.39 | 2:09.45 | 157014 | 166733


Track 1

Filename F:\Lossless\New Rips\The Drifters - Original Album Series (2009, 8122 79837 3, CD)\CD1 - Clyde McPhatter & The Drifters (1956)\01. Clyde McPhatter & The Drifters - Without Love (There Is Nothing).wav

Pre-gap length 0:00:02.40

Peak level 100.0 %
Extraction speed 2.7 X
Track quality 100.0 %
Test CRC 5FD20A7E
Copy CRC 5FD20A7E
Accurately ripped (confidence 15) [394B37D8] (AR v2)
Copy OK

Track 2

Filename F:\Lossless\New Rips\The Drifters - Original Album Series (2009, 8122 79837 3, CD)\CD1 - Clyde McPhatter & The Drifters (1956)\02. Clyde McPhatter & The Drifters - Someday You'll Want Me To Want You.wav

Peak level 100.0 %
Extraction speed 2.9 X
Track quality 100.0 %
Test CRC 5B267FF9
Copy CRC 5B267FF9
Accurately ripped (confidence 15) [43EEB21E] (AR v2)
Copy OK

Track 3

Filename F:\Lossless\New Rips\The Drifters - Original Album Series (2009, 8122 79837 3, CD)\CD1 - Clyde McPhatter & The Drifters (1956)\03. Clyde McPhatter & The Drifters - Treasure Of Love.wav

Peak level 92.8 %
Extraction speed 2.9 X
Track quality 100.0 %
Test CRC 985D6E1D
Copy CRC 985D6E1D
Accurately ripped (confidence 15) [FFAF3798] (AR v2)
Copy OK

Track 4

Filename F:\Lossless\New Rips\The Drifters - Original Album Series (2009, 8122 79837 3, CD)\CD1 - Clyde McPhatter & The Drifters (1956)\04. Clyde McPhatter & The Drifters - I'm Not Worthy Of You.wav

Peak level 91.8 %
Extraction speed 3.1 X
Track quality 100.0 %
Test CRC 52F5AA98
Copy CRC 52F5AA98
Accurately ripped (confidence 15) [BDDD28CB] (AR v2)
Copy OK

Track 5

Filename F:\Lossless\New Rips\The Drifters - Original Album Series (2009, 8122 79837 3, CD)\CD1 - Clyde McPhatter & The Drifters (1956)\05. Clyde McPhatter & The Drifters - Bells Of St. Mary's.wav

Peak level 86.5 %
Extraction speed 3.2 X
Track quality 100.0 %
Test CRC EFBC49ED
Copy CRC EFBC49ED
Accurately ripped (confidence 15) [98E154CC] (AR v2)
Copy OK

Track 6

Filename F:\Lossless\New Rips\The Drifters - Original Album Series (2009, 8122 79837 3, CD)\CD1 - Clyde McPhatter & The Drifters (1956)\06. Clyde McPhatter & The Drifters - White Chrismas.wav

Peak level 50.8 %
Extraction speed 3.4 X
Track quality 100.0 %
Test CRC 3F08CD8D
Copy CRC 3F08CD8D
Accurately ripped (confidence 15) [B925FFAA] (AR v2)
Copy OK

Track 7

Filename F:\Lossless\New Rips\The Drifters - Original Album Series (2009, 8122 79837 3, CD)\CD1 - Clyde McPhatter & The Drifters (1956)\07. Clyde McPhatter & The Drifters - I Make Believe.wav

Pre-gap length 0:00:00.01

Peak level 70.6 %
Extraction speed 2.5 X
Track quality 100.0 %
Test CRC E033C37D
Copy CRC E033C37D
Accurately ripped (confidence 15) [F3B3EBB2] (AR v2)
Copy OK

Track 8

Filename F:\Lossless\New Rips\The Drifters - Original Album Series (2009, 8122 79837 3, CD)\CD1 - Clyde McPhatter & The Drifters (1956)\08. Clyde McPhatter & The Drifters - Seven Days.wav

Peak level 96.7 %
Extraction speed 3.6 X
Track quality 100.0 %
Test CRC 2A1C1550
Copy CRC 2A1C1550
Accurately ripped (confidence 15) [AE406D8F] (AR v2)
Copy OK

Track 9

Filename F:\Lossless\New Rips\The Drifters - Original Album Series (2009, 8122 79837 3, CD)\CD1 - Clyde McPhatter & The Drifters (1956)\09. Clyde McPhatter & The Drifters - Warm Your Heart.wav

Peak level 100.0 %
Extraction speed 3.8 X
Track quality 100.0 %
Test CRC 746FEA05
Copy CRC 746FEA05
Accurately ripped (confidence 15) [A9A787BC] (AR v2)
Copy OK

Track 10

Filename F:\Lossless\New Rips\The Drifters - Original Album Series (2009, 8122 79837 3, CD)\CD1 - Clyde McPhatter & The Drifters (1956)\10. Clyde McPhatter & The Drifters - Money Honey.wav

Peak level 96.1 %
Extraction speed 3.4 X
Track quality 99.9 %
Test CRC 66595D2B
Copy CRC 66595D2B
Accurately ripped (confidence 15) [76EBFB88] (AR v2)
Copy OK

Track 11

Filename F:\Lossless\New Rips\The Drifters - Original Album Series (2009, 8122 79837 3, CD)\CD1 - Clyde McPhatter & The Drifters (1956)\11. Clyde McPhatter & The Drifters - Whatcha Gonna Do.wav

Peak level 90.7 %
Extraction speed 4.1 X
Track quality 100.0 %
Test CRC B72B6D1C
Copy CRC B72B6D1C
Accurately ripped (confidence 15) [EEA5F4F1] (AR v2)
Copy OK

Track 12

Filename F:\Lossless\New Rips\The Drifters - Original Album Series (2009, 8122 79837 3, CD)\CD1 - Clyde McPhatter & The Drifters (1956)\12. Clyde McPhatter & The Drifters - Such A Night.wav

Peak level 100.0 %
Extraction speed 4.1 X
Track quality 100.0 %
Test CRC C11D5420
Copy CRC C11D5420
Accurately ripped (confidence 15) [B18245CB] (AR v2)
Copy OK

Track 13

Filename F:\Lossless\New Rips\The Drifters - Original Album Series (2009, 8122 79837 3, CD)\CD1 - Clyde McPhatter & The Drifters (1956)\13. Clyde McPhatter & The Drifters - Honey Love.wav

Peak level 80.2 %
Extraction speed 4.1 X
Track quality 100.0 %
Test CRC 6A163322
Copy CRC 6A163322
Accurately ripped (confidence 15) [0F309F43] (AR v2)
Copy OK

Track 14

Filename F:\Lossless\New Rips\The Drifters - Original Album Series (2009, 8122 79837 3, CD)\CD1 - Clyde McPhatter & The Drifters (1956)\14. Clyde McPhatter & The Drifters - Thirty Days.wav

Peak level 97.1 %
Extraction speed 4.1 X
Track quality 100.0 %
Test CRC 84B2C951
Copy CRC 84B2C951
Accurately ripped (confidence 15) [C9FF98B2] (AR v2)
Copy OK


All tracks accurately ripped

No errors occurred

End of status report

–– AcoustID Plugin V1.2.0

Total fingerprints: 14


–– CUETools DB Plugin V2.1.6

[CTDB TOCID: khtJpCY1AjZiJ.tkZi72UAxSv7c-] found
Submit result: khtJpCY1AjZiJ.tkZi72UAxSv7c- has been confirmed
Track | CTDB Status
1 | (18/18) Accurately ripped
2 | (18/18) Accurately ripped
3 | (18/18) Accurately ripped
4 | (18/18) Accurately ripped
5 | (18/18) Accurately ripped
6 | (18/18) Accurately ripped
7 | (18/18) Accurately ripped
8 | (18/18) Accurately ripped
9 | (18/18) Accurately ripped
10 | (18/18) Accurately ripped
11 | (18/18) Accurately ripped
12 | (18/18) Accurately ripped
13 | (18/18) Accurately ripped
14 | (18/18) Accurately ripped


==== Log checksum A7BFB6B6432DE77276FB5000D97CAA75164EA82860E6B9DA91B1B21445410411 ====

Exact Audio Copy V1.3 from 2. September 2016

EAC extraction logfile from 10. December 2019, 23:37

The Drifters / Rockin' & Driftin'

Used drive : ASUS DRW-24D5MT Adapter: 1 ID: 1

Read mode : Secure
Utilize accurate stream : Yes
Defeat audio cache : Yes
Make use of C2 pointers : No

Read offset correction : 6
Overread into Lead-In and Lead-Out : No
Fill up missing offset samples with silence : Yes
Delete leading and trailing silent blocks : No
Null samples used in CRC calculations : Yes
Used interface : Native Win32 interface for Win NT & 2000
Gap handling : Appended to previous track

Used output format : User Defined Encoder
Selected bitrate : 896 kBit/s
Quality : High
Add ID3 tag : No
Command line compressor : C:\Program Files (x86)\Exact Audio Copy\FLAC\FLAC.EXE
Additional command line options : -6 -V -T "ARTIST=%artist%" -T "TITLE=%title%" -T "ALBUM=%albumtitle%" -T "DATE=%year%" -T "TRACKNUMBER=%tracknr%" -T "GENRE=%genre%" -T "COMMENT=%comment%" -T "BAND=%albuminterpret%" -T "ALBUMARTIST=%albuminterpret%" -T "COMPOSER=%composer%" %haslyrics%–tag-from-file=LYRICS="%lyricsfile%"%haslyrics% -T "DISCNUMBER=%cdnumber%" -T "TOTALDISCS=%totalcds%" -T "TOTALTRACKS=%numtracks%" %hascover%–picture="%coverfile%"%hascover% %source% -o %dest%


TOC of the extracted CD

Track | Start | Length | Start sector | End sector
––––––––––––––––––––––––––––-
1 | 0:00.00 | 2:07.46 | 0 | 9570
2 | 2:07.46 | 2:23.31 | 9571 | 20326
3 | 4:31.02 | 2:27.17 | 20327 | 31368
4 | 6:58.19 | 2:14.32 | 31369 | 41450
5 | 9:12.51 | 2:30.60 | 41451 | 52760
6 | 11:43.36 | 2:00.49 | 52761 | 61809
7 | 13:44.10 | 2:24.51 | 61810 | 72660
8 | 16:08.61 | 2:11.26 | 72661 | 82511
9 | 18:20.12 | 2:35.37 | 82512 | 94173
10 | 20:55.49 | 2:07.45 | 94174 | 103743
11 | 23:03.19 | 2:35.45 | 103744 | 115413
12 | 25:38.64 | 2:34.37 | 115414 | 127000
13 | 28:13.26 | 2:41.68 | 127001 | 139143
14 | 30:55.19 | 2:26.35 | 139144 | 150128


Track 1

Filename F:\Lossless\New Rips\The Drifters - Original Album Series (2009, 8122 79837 3, CD)\CD2 - Rockin' & Driftin' (1958)\01. Moonlight Bay.wav

Pre-gap length 0:00:02.00

Peak level 82.6 %
Extraction speed 4.1 X
Track quality 100.0 %
Test CRC B3195F0D
Copy CRC B3195F0D
Accurately ripped (confidence 15) [02DE573F] (AR v2)
Copy OK

Track 2

Filename F:\Lossless\New Rips\The Drifters - Original Album Series (2009, 8122 79837 3, CD)\CD2 - Rockin' & Driftin' (1958)\02. Ruby Baby.wav

Peak level 90.8 %
Extraction speed 3.8 X
Track quality 99.9 %
Test CRC 395B9EC4
Copy CRC 395B9EC4
Accurately ripped (confidence 15) [4CA0E3C7] (AR v2)
Copy OK

Track 3

Filename F:\Lossless\New Rips\The Drifters - Original Album Series (2009, 8122 79837 3, CD)\CD2 - Rockin' & Driftin' (1958)\03. Drip Drop.wav

Peak level 89.4 %
Extraction speed 4.5 X
Track quality 100.0 %
Test CRC 02C240B5
Copy CRC 02C240B5
Accurately ripped (confidence 15) [45B0820D] (AR v2)
Copy OK

Track 4

Filename F:\Lossless\New Rips\The Drifters - Original Album Series (2009, 8122 79837 3, CD)\CD2 - Rockin' & Driftin' (1958)\04. I Gotta Get Myself A Woman.wav

Peak level 85.4 %
Extraction speed 4.0 X
Track quality 99.9 %
Test CRC FAD909BF
Copy CRC FAD909BF
Accurately ripped (confidence 15) [B5206D44] (AR v2)
Copy OK

Track 5

Filename F:\Lossless\New Rips\The Drifters - Original Album Series (2009, 8122 79837 3, CD)\CD2 - Rockin' & Driftin' (1958)\05. Fools Fall In Love.wav

Peak level 63.4 %
Extraction speed 5.1 X
Track quality 100.0 %
Test CRC 22F0E42C
Copy CRC 22F0E42C
Accurately ripped (confidence 15) [FC8D91AD] (AR v2)
Copy OK

Track 6

Filename F:\Lossless\New Rips\The Drifters - Original Album Series (2009, 8122 79837 3, CD)\CD2 - Rockin' & Driftin' (1958)\06. Hypnotized.wav

Peak level 76.8 %
Extraction speed 5.0 X
Track quality 100.0 %
Test CRC 7CA5228E
Copy CRC 7CA5228E
Accurately ripped (confidence 15) [666A172E] (AR v2)
Copy OK

Track 7

Filename F:\Lossless\New Rips\The Drifters - Original Album Series (2009, 8122 79837 3, CD)\CD2 - Rockin' & Driftin' (1958)\07. Yodee Yakee.wav

Peak level 72.3 %
Extraction speed 5.5 X
Track quality 100.0 %
Test CRC FC42A325
Copy CRC FC42A325
Accurately ripped (confidence 15) [1B9C9152] (AR v2)
Copy OK

Track 8

Filename F:\Lossless\New Rips\The Drifters - Original Album Series (2009, 8122 79837 3, CD)\CD2 - Rockin' & Driftin' (1958)\08. I Know.wav

Peak level 70.6 %
Extraction speed 5.6 X
Track quality 100.0 %
Test CRC 85209CFB
Copy CRC 85209CFB
Accurately ripped (confidence 15) [A43EAF6D] (AR v2)
Copy OK

Track 9

Filename F:\Lossless\New Rips\The Drifters - Original Album Series (2009, 8122 79837 3, CD)\CD2 - Rockin' & Driftin' (1958)\09. Soldier Of Fortune.wav

Peak level 81.4 %
Extraction speed 5.9 X
Track quality 100.0 %
Test CRC E18BB6AC
Copy CRC E18BB6AC
Accurately ripped (confidence 15) [8C1062A3] (AR v2)
Copy OK

Track 10

Filename F:\Lossless\New Rips\The Drifters - Original Album Series (2009, 8122 79837 3, CD)\CD2 - Rockin' & Driftin' (1958)\10. Drifting Away From You.wav

Peak level 83.0 %
Extraction speed 5.9 X
Track quality 100.0 %
Test CRC 517F670E
Copy CRC 517F670E
Accurately ripped (confidence 15) [A41CF29F] (AR v2)
Copy OK

Track 11

Filename F:\Lossless\New Rips\The Drifters - Original Album Series (2009, 8122 79837 3, CD)\CD2 - Rockin' & Driftin' (1958)\11. Your Promise To Be Mine.wav

Peak level 100.0 %
Extraction speed 6.2 X
Track quality 100.0 %
Test CRC CA862216
Copy CRC CA862216
Accurately ripped (confidence 15) [D0F55065] (AR v2)
Copy OK

Track 12

Filename F:\Lossless\New Rips\The Drifters - Original Album Series (2009, 8122 79837 3, CD)\CD2 - Rockin' & Driftin' (1958)\12. It Was A Tear.wav

Peak level 100.0 %
Extraction speed 5.7 X
Track quality 100.0 %
Test CRC A3BA7D7E
Copy CRC A3BA7D7E
Accurately ripped (confidence 15) [47D3785F] (AR v2)
Copy OK

Track 13

Filename F:\Lossless\New Rips\The Drifters - Original Album Series (2009, 8122 79837 3, CD)\CD2 - Rockin' & Driftin' (1958)\13. Adorable.wav

Peak level 100.0 %
Extraction speed 6.4 X
Track quality 100.0 %
Test CRC 08DD7C8E
Copy CRC 08DD7C8E
Accurately ripped (confidence 15) [36B78A72] (AR v2)
Copy OK

Track 14

Filename F:\Lossless\New Rips\The Drifters - Original Album Series (2009, 8122 79837 3, CD)\CD2 - Rockin' & Driftin' (1958)\14. Steamboat.wav

Peak level 78.3 %
Extraction speed 6.5 X
Track quality 100.0 %
Test CRC EF63F156
Copy CRC EF63F156
Accurately ripped (confidence 15) [E397C2F3] (AR v2)
Copy OK


All tracks accurately ripped

No errors occurred

End of status report

–– AcoustID Plugin V1.2.0

Total fingerprints: 14


–– CUETools DB Plugin V2.1.6

[CTDB TOCID: syietzyHo1QYPclmIyAMHTw2tdo-] found
Submit result: syietzyHo1QYPclmIyAMHTw2tdo- has been confirmed
Track | CTDB Status
1 | (21/23) Accurately ripped
2 | (21/23) Accurately ripped
3 | (21/23) Accurately ripped
4 | (21/23) Accurately ripped
5 | (21/23) Accurately ripped
6 | (21/23) Accurately ripped
7 | (21/23) Accurately ripped
8 | (21/23) Accurately ripped
9 | (21/23) Accurately ripped
10 | (21/23) Accurately ripped
11 | (21/23) Accurately ripped
12 | (21/23) Accurately ripped
13 | (21/23) Accurately ripped
14 | (21/23) Accurately ripped


==== Log checksum DD2FC49E1CA79DB497E5ACACC26DAAA9C927444EAB715B65D69074C7882E3C78 ====


Exact Audio Copy V1.3 from 2. September 2016

EAC extraction logfile from 10. December 2019, 23:45

The Drifters / Save the Last Dance for Me

Used drive : TSSTcorpCD/DVDW SH-S182D Adapter: 1 ID: 0

Read mode : Secure
Utilize accurate stream : Yes
Defeat audio cache : Yes
Make use of C2 pointers : No

Read offset correction : 6
Overread into Lead-In and Lead-Out : No
Fill up missing offset samples with silence : Yes
Delete leading and trailing silent blocks : No
Null samples used in CRC calculations : Yes
Used interface : Native Win32 interface for Win NT & 2000
Gap handling : Appended to previous track

Used output format : User Defined Encoder
Selected bitrate : 896 kBit/s
Quality : High
Add ID3 tag : No
Command line compressor : C:\Program Files (x86)\Exact Audio Copy\FLAC\FLAC.EXE
Additional command line options : -6 -V -T "ARTIST=%artist%" -T "TITLE=%title%" -T "ALBUM=%albumtitle%" -T "DATE=%year%" -T "TRACKNUMBER=%tracknr%" -T "GENRE=%genre%" -T "COMMENT=%comment%" -T "BAND=%albuminterpret%" -T "ALBUMARTIST=%albuminterpret%" -T "COMPOSER=%composer%" %haslyrics%–tag-from-file=LYRICS="%lyricsfile%"%haslyrics% -T "DISCNUMBER=%cdnumber%" -T "TOTALDISCS=%totalcds%" -T "TOTALTRACKS=%numtracks%" %hascover%–picture="%coverfile%"%hascover% %source% -o %dest%


TOC of the extracted CD

Track | Start | Length | Start sector | End sector
––––––––––––––––––––––––––––-
1 | 0:00.00 | 2:29.11 | 0 | 11185
2 | 2:29.11 | 2:14.53 | 11186 | 21288
3 | 4:43.64 | 2:22.24 | 21289 | 31962
4 | 7:06.13 | 2:47.21 | 31963 | 44508
5 | 9:53.34 | 2:44.36 | 44509 | 56844
6 | 12:37.70 | 2:30.54 | 56845 | 68148
7 | 15:08.49 | 2:37.08 | 68149 | 79931
8 | 17:45.57 | 2:32.27 | 79932 | 91358
9 | 20:18.09 | 2:19.27 | 91359 | 101810
10 | 22:37.36 | 2:15.49 | 101811 | 111984
11 | 24:53.10 | 2:33.53 | 111985 | 123512
12 | 27:26.63 | 2:44.17 | 123513 | 135829


Track 1

Filename F:\Lossless\New Rips\The Drifters - Original Album Series (2009, 8122 79837 3, CD)\CD3 - Save The Last Dance For Me (1962)\01. Save the Last Dance for Me.wav

Pre-gap length 0:00:02.00

Peak level 100.0 %
Extraction speed 2.1 X
Track quality 99.9 %
Test CRC 64A0B51C
Copy CRC 64A0B51C
Accurately ripped (confidence 16) [E0D4668F] (AR v2)
Copy OK

Track 2

Filename F:\Lossless\New Rips\The Drifters - Original Album Series (2009, 8122 79837 3, CD)\CD3 - Save The Last Dance For Me (1962)\02. I Count the Tears.wav

Pre-gap length 0:00:02.00

Peak level 100.0 %
Extraction speed 2.7 X
Track quality 100.0 %
Test CRC F411CAD8
Copy CRC F411CAD8
Accurately ripped (confidence 16) [613CC95C] (AR v2)
Copy OK

Track 3

Filename F:\Lossless\New Rips\The Drifters - Original Album Series (2009, 8122 79837 3, CD)\CD3 - Save The Last Dance For Me (1962)\03. Somebody New Dancing With You.wav

Pre-gap length 0:00:02.01

Peak level 100.0 %
Extraction speed 2.8 X
Track quality 100.0 %
Test CRC 6808961C
Copy CRC 6808961C
Accurately ripped (confidence 15) [AE7C5FD9] (AR v2)
Copy OK

Track 4

Filename F:\Lossless\New Rips\The Drifters - Original Album Series (2009, 8122 79837 3, CD)\CD3 - Save The Last Dance For Me (1962)\04. Jackpot.wav

Pre-gap length 0:00:02.01

Peak level 100.0 %
Extraction speed 2.6 X
Track quality 99.9 %
Test CRC 86EBAA7A
Copy CRC 86EBAA7A
Accurately ripped (confidence 15) [936E15BA] (AR v2)
Copy OK

Track 5

Filename F:\Lossless\New Rips\The Drifters - Original Album Series (2009, 8122 79837 3, CD)\CD3 - Save The Last Dance For Me (1962)\05. No Sweet Lovin'.wav

Pre-gap length 0:00:02.01

Peak level 100.0 %
Extraction speed 2.7 X
Track quality 99.9 %
Test CRC 8C702D43
Copy CRC 8C702D43
Accurately ripped (confidence 15) [81633E3D] (AR v2)
Copy OK

Track 6

Filename F:\Lossless\New Rips\The Drifters - Original Album Series (2009, 8122 79837 3, CD)\CD3 - Save The Last Dance For Me (1962)\06. Sweets for My Sweet.wav

Pre-gap length 0:00:02.01

Peak level 100.0 %
Extraction speed 2.7 X
Track quality 99.9 %
Test CRC 4B594FA1
Copy CRC 4B594FA1
Accurately ripped (confidence 16) [FFE29BF4] (AR v2)
Copy OK

Track 7

Filename F:\Lossless\New Rips\The Drifters - Original Album Series (2009, 8122 79837 3, CD)\CD3 - Save The Last Dance For Me (1962)\07. Mexican Divorce.wav

Pre-gap length 0:00:01.98

Peak level 100.0 %
Extraction speed 3.4 X
Track quality 100.0 %
Test CRC 5C13643F
Copy CRC 5C13643F
Accurately ripped (confidence 15) [1A613F6A] (AR v2)
Copy OK

Track 8

Filename F:\Lossless\New Rips\The Drifters - Original Album Series (2009, 8122 79837 3, CD)\CD3 - Save The Last Dance For Me (1962)\08. When My Little Girl Is Smiling.wav

Pre-gap length 0:00:02.01

Peak level 98.3 %
Extraction speed 2.9 X
Track quality 99.9 %
Test CRC 1B99566B
Copy CRC 1B99566B
Accurately ripped (confidence 16) [6E6001E8] (AR v2)
Copy OK

Track 9

Filename F:\Lossless\New Rips\The Drifters - Original Album Series (2009, 8122 79837 3, CD)\CD3 - Save The Last Dance For Me (1962)\09. Some Kind of Wonderful.wav

Pre-gap length 0:00:02.01

Peak level 99.8 %
Extraction speed 3.4 X
Track quality 100.0 %
Test CRC C6B6ABB8
Copy CRC C6B6ABB8
Accurately ripped (confidence 15) [7FC0D2C0] (AR v2)
Copy OK

Track 10

Filename F:\Lossless\New Rips\The Drifters - Original Album Series (2009, 8122 79837 3, CD)\CD3 - Save The Last Dance For Me (1962)\10. Please Stay.wav

Pre-gap length 0:00:02.00

Peak level 100.0 %
Extraction speed 3.6 X
Track quality 100.0 %
Test CRC B5680B9A
Copy CRC B5680B9A
Accurately ripped (confidence 15) [0C8B72ED] (AR v2)
Copy OK

Track 11

Filename F:\Lossless\New Rips\The Drifters - Original Album Series (2009, 8122 79837 3, CD)\CD3 - Save The Last Dance For Me (1962)\11. Nobody but Me.wav

Pre-gap length 0:00:02.00

Peak level 100.0 %
Extraction speed 3.1 X
Track quality 99.9 %
Test CRC 9251DB9B
Copy CRC 9251DB9B
Accurately ripped (confidence 16) [8CD4DC48] (AR v2)
Copy OK

Track 12

Filename F:\Lossless\New Rips\The Drifters - Original Album Series (2009, 8122 79837 3, CD)\CD3 - Save The Last Dance For Me (1962)\12. Room Full of Tears.wav

Pre-gap length 0:00:02.00

Peak level 100.0 %
Extraction speed 4.0 X
Track quality 100.0 %
Test CRC 10179B2C
Copy CRC 10179B2C
Accurately ripped (confidence 16) [B084E65C] (AR v2)
Copy OK


All tracks accurately ripped

No errors occurred

End of status report

–– AcoustID Plugin V1.2.0

Total fingerprints: 12


–– CUETools DB Plugin V2.1.6

[CTDB TOCID: 6X25tnFL.Kape.m0y34_uZt5L3E-] found
Submit result: 6X25tnFL.Kape.m0y34_uZt5L3E- has been confirmed
Track | CTDB Status
1 | (19/19) Accurately ripped
2 | (19/19) Accurately ripped
3 | (19/19) Accurately ripped
4 | (19/19) Accurately ripped
5 | (19/19) Accurately ripped
6 | (19/19) Accurately ripped
7 | (19/19) Accurately ripped
8 | (19/19) Accurately ripped
9 | (19/19) Accurately ripped
10 | (19/19) Accurately ripped
11 | (19/19) Accurately ripped
12 | (19/19) Accurately ripped


==== Log checksum 882505694E53C713259D9BFC4044AF97D8136266CC2497034C783FE959EF3B60 ====


Exact Audio Copy V1.3 from 2. September 2016

EAC extraction logfile from 10. December 2019, 23:59

The Drifters / Under the Boardwalk

Used drive : ASUS DRW-24D5MT Adapter: 1 ID: 1

Read mode : Secure
Utilize accurate stream : Yes
Defeat audio cache : Yes
Make use of C2 pointers : No

Read offset correction : 6
Overread into Lead-In and Lead-Out : No
Fill up missing offset samples with silence : Yes
Delete leading and trailing silent blocks : No
Null samples used in CRC calculations : Yes
Used interface : Native Win32 interface for Win NT & 2000
Gap handling : Appended to previous track

Used output format : User Defined Encoder
Selected bitrate : 896 kBit/s
Quality : High
Add ID3 tag : No
Command line compressor : C:\Program Files (x86)\Exact Audio Copy\FLAC\FLAC.EXE
Additional command line options : -6 -V -T "ARTIST=%artist%" -T "TITLE=%title%" -T "ALBUM=%albumtitle%" -T "DATE=%year%" -T "TRACKNUMBER=%tracknr%" -T "GENRE=%genre%" -T "COMMENT=%comment%" -T "BAND=%albuminterpret%" -T "ALBUMARTIST=%albuminterpret%" -T "COMPOSER=%composer%" %haslyrics%–tag-from-file=LYRICS="%lyricsfile%"%haslyrics% -T "DISCNUMBER=%cdnumber%" -T "TOTALDISCS=%totalcds%" -T "TOTALTRACKS=%numtracks%" %hascover%–picture="%coverfile%"%hascover% %source% -o %dest%


TOC of the extracted CD

Track | Start | Length | Start sector | End sector
––––––––––––––––––––––––––––-
1 | 0:00.00 | 2:41.72 | 0 | 12146
2 | 2:41.72 | 2:32.09 | 12147 | 23555
3 | 5:14.06 | 3:01.16 | 23556 | 37146
4 | 8:15.22 | 1:54.24 | 37147 | 45720
5 | 10:09.46 | 2:07.13 | 45721 | 55258
6 | 12:16.59 | 3:18.06 | 55259 | 70114
7 | 15:34.65 | 2:37.13 | 70115 | 81902
8 | 18:12.03 | 2:12.35 | 81903 | 91837
9 | 20:24.38 | 2:31.59 | 91838 | 103221
10 | 22:56.22 | 2:37.06 | 103222 | 115002
11 | 25:33.28 | 2:37.69 | 115003 | 126846
12 | 28:11.22 | 2:36.70 | 126847 | 138616


Track 1

Filename F:\Lossless\New Rips\The Drifters - Original Album Series (2009, 8122 79837 3, CD)\CD4 - Under The Boardwalk (1964)\01. Under the Boardwalk.wav

Pre-gap length 0:00:02.00

Peak level 89.2 %
Extraction speed 4.4 X
Track quality 100.0 %
Test CRC 23D0AE3B
Copy CRC 23D0AE3B
Accurately ripped (confidence 14) [71D55BA8] (AR v2)
Copy OK

Track 2

Filename F:\Lossless\New Rips\The Drifters - Original Album Series (2009, 8122 79837 3, CD)\CD4 - Under The Boardwalk (1964)\02. One Way Love.wav

Peak level 89.3 %
Extraction speed 4.3 X
Track quality 100.0 %
Test CRC 48E5BF25
Copy CRC 48E5BF25
Accurately ripped (confidence 14) [D7CFB293] (AR v2)
Copy OK

Track 3

Filename F:\Lossless\New Rips\The Drifters - Original Album Series (2009, 8122 79837 3, CD)\CD4 - Under The Boardwalk (1964)\03. On Broadway.wav

Peak level 89.5 %
Extraction speed 5.0 X
Track quality 100.0 %
Test CRC A628AE1B
Copy CRC A628AE1B
Accurately ripped (confidence 14) [4AE93E23] (AR v2)
Copy OK

Track 4

Filename F:\Lossless\New Rips\The Drifters - Original Album Series (2009, 8122 79837 3, CD)\CD4 - Under The Boardwalk (1964)\04. Didn't It.wav

Peak level 88.4 %
Extraction speed 4.6 X
Track quality 100.0 %
Test CRC 50466B46
Copy CRC 50466B46
Accurately ripped (confidence 14) [79EA82E8] (AR v2)
Copy OK

Track 5

Filename F:\Lossless\New Rips\The Drifters - Original Album Series (2009, 8122 79837 3, CD)\CD4 - Under The Boardwalk (1964)\05. I Feel Good All Over.wav

Peak level 70.1 %
Extraction speed 4.9 X
Track quality 100.0 %
Test CRC 6075D47D
Copy CRC 6075D47D
Accurately ripped (confidence 14) [11629717] (AR v2)
Copy OK

Track 6

Filename F:\Lossless\New Rips\The Drifters - Original Album Series (2009, 8122 79837 3, CD)\CD4 - Under The Boardwalk (1964)\06. Vaya Con Dios (May God Be With You).wav

Peak level 89.2 %
Extraction speed 5.1 X
Track quality 100.0 %
Test CRC F2C1D092
Copy CRC F2C1D092
Accurately ripped (confidence 15) [78E082D0] (AR v2)
Copy OK

Track 7

Filename F:\Lossless\New Rips\The Drifters - Original Album Series (2009, 8122 79837 3, CD)\CD4 - Under The Boardwalk (1964)\07. Up on the Roof.wav

Peak level 73.2 %
Extraction speed 5.7 X
Track quality 100.0 %
Test CRC 73E2AFB7
Copy CRC 73E2AFB7
Accurately ripped (confidence 14) [AC8AA72A] (AR v2)
Copy OK

Track 8

Filename F:\Lossless\New Rips\The Drifters - Original Album Series (2009, 8122 79837 3, CD)\CD4 - Under The Boardwalk (1964)\08. Rat Race.wav

Peak level 90.8 %
Extraction speed 4.8 X
Track quality 99.9 %
Test CRC 700A89D4
Copy CRC 700A89D4
Accurately ripped (confidence 15) [A173954A] (AR v2)
Copy OK

Track 9

Filename F:\Lossless\New Rips\The Drifters - Original Album Series (2009, 8122 79837 3, CD)\CD4 - Under The Boardwalk (1964)\09. In the Land of Make Believe.wav

Peak level 89.3 %
Extraction speed 5.6 X
Track quality 100.0 %
Test CRC 2057626B
Copy CRC 2057626B
Accurately ripped (confidence 15) [C7DFF123] (AR v2)
Copy OK

Track 10

Filename F:\Lossless\New Rips\The Drifters - Original Album Series (2009, 8122 79837 3, CD)\CD4 - Under The Boardwalk (1964)\10. If You Don't Come Back.wav

Peak level 90.0 %
Extraction speed 6.2 X
Track quality 100.0 %
Test CRC 13018B2B
Copy CRC 13018B2B
Accurately ripped (confidence 14) [396311D0] (AR v2)
Copy OK

Track 11

Filename F:\Lossless\New Rips\The Drifters - Original Album Series (2009, 8122 79837 3, CD)\CD4 - Under The Boardwalk (1964)\11. Let the Music Play.wav

Peak level 79.5 %
Extraction speed 6.5 X
Track quality 100.0 %
Test CRC 5840AEF9
Copy CRC 5840AEF9
Accurately ripped (confidence 14) [A215E127] (AR v2)
Copy OK

Track 12

Filename F:\Lossless\New Rips\The Drifters - Original Album Series (2009, 8122 79837 3, CD)\CD4 - Under The Boardwalk (1964)\12. I'll Take You Home.wav

Peak level 89.4 %
Extraction speed 6.5 X
Track quality 100.0 %
Test CRC 7816344C
Copy CRC 7816344C
Accurately ripped (confidence 14) [460397F7] (AR v2)
Copy OK


All tracks accurately ripped

No errors occurred

End of status report

–– AcoustID Plugin V1.2.0

Total fingerprints: 12


–– CUETools DB Plugin V2.1.6

[CTDB TOCID: D7OYrwmp5YWMBslwZwCGguAEzH4-] found
Submit result: D7OYrwmp5YWMBslwZwCGguAEzH4- has been confirmed
Track | CTDB Status
1 | (20/20) Accurately ripped
2 | (20/20) Accurately ripped
3 | (20/20) Accurately ripped
4 | (20/20) Accurately ripped
5 | (20/20) Accurately ripped
6 | (20/20) Accurately ripped
7 | (20/20) Accurately ripped
8 | (20/20) Accurately ripped
9 | (20/20) Accurately ripped
10 | (20/20) Accurately ripped
11 | (20/20) Accurately ripped
12 | (20/20) Accurately ripped


==== Log checksum 10666DDB7D481DC771327119C9606313E2B82D8E2415320CDCDBC43F68C0B944 ====


Exact Audio Copy V1.3 from 2. September 2016

EAC extraction logfile from 11. December 2019, 0:14

The Drifters / I'll Take You Where the Music's Playing

Used drive : TSSTcorpCD/DVDW SH-S182D Adapter: 1 ID: 0

Read mode : Secure
Utilize accurate stream : Yes
Defeat audio cache : Yes
Make use of C2 pointers : No

Read offset correction : 6
Overread into Lead-In and Lead-Out : No
Fill up missing offset samples with silence : Yes
Delete leading and trailing silent blocks : No
Null samples used in CRC calculations : Yes
Used interface : Native Win32 interface for Win NT & 2000
Gap handling : Appended to previous track

Used output format : User Defined Encoder
Selected bitrate : 896 kBit/s
Quality : High
Add ID3 tag : No
Command line compressor : C:\Program Files (x86)\Exact Audio Copy\FLAC\FLAC.EXE
Additional command line options : -6 -V -T "ARTIST=%artist%" -T "TITLE=%title%" -T "ALBUM=%albumtitle%" -T "DATE=%year%" -T "TRACKNUMBER=%tracknr%" -T "GENRE=%genre%" -T "COMMENT=%comment%" -T "BAND=%albuminterpret%" -T "ALBUMARTIST=%albuminterpret%" -T "COMPOSER=%composer%" %haslyrics%–tag-from-file=LYRICS="%lyricsfile%"%haslyrics% -T "DISCNUMBER=%cdnumber%" -T "TOTALDISCS=%totalcds%" -T "TOTALTRACKS=%numtracks%" %hascover%–picture="%coverfile%"%hascover% %source% -o %dest%


TOC of the extracted CD

Track | Start | Length | Start sector | End sector
––––––––––––––––––––––––––––-
1 | 0:00.00 | 2:39.45 | 0 | 11969
2 | 2:39.45 | 2:50.22 | 11970 | 24741
3 | 5:29.67 | 2:57.49 | 24742 | 38065
4 | 8:27.41 | 2:48.73 | 38066 | 50738
5 | 11:16.39 | 2:54.62 | 50739 | 63850
6 | 14:11.26 | 2:57.38 | 63851 | 77163
7 | 17:08.64 | 2:33.49 | 77164 | 88687
8 | 19:42.38 | 2:30.03 | 88688 | 99940
9 | 22:12.41 | 2:47.33 | 99941 | 112498
10 | 24:59.74 | 2:55.33 | 112499 | 125656
11 | 27:55.32 | 2:34.16 | 125657 | 137222
12 | 30:29.48 | 2:27.58 | 137223 | 148305


Track 1

Filename F:\Lossless\New Rips\The Drifters - Original Album Series (2009, 8122 79837 3, CD)\CD5 - I'll Take You Where The Music's Playing (1966)\01. I'll Take You Where the Music's Playing.wav

Pre-gap length 0:00:02.00

Peak level 99.9 %
Extraction speed 2.7 X
Track quality 100.0 %
Test CRC BD89F45E
Copy CRC BD89F45E
Accurately ripped (confidence 17) [9FAC0A79] (AR v2)
Copy OK

Track 2

Filename F:\Lossless\New Rips\The Drifters - Original Album Series (2009, 8122 79837 3, CD)\CD5 - I'll Take You Where The Music's Playing (1966)\02. I've Got Sand in My Shoes.wav

Peak level 99.9 %
Extraction speed 2.3 X
Track quality 99.9 %
Test CRC 07942FB2
Copy CRC 07942FB2
Accurately ripped (confidence 16) [550EB1AB] (AR v2)
Copy OK

Track 3

Filename F:\Lossless\New Rips\The Drifters - Original Album Series (2009, 8122 79837 3, CD)\CD5 - I'll Take You Where The Music's Playing (1966)\03. At the Club.wav

Peak level 99.9 %
Extraction speed 3.0 X
Track quality 100.0 %
Test CRC BED6C90C
Copy CRC BED6C90C
Accurately ripped (confidence 16) [EDF2426C] (AR v2)
Copy OK

Track 4

Filename F:\Lossless\New Rips\The Drifters - Original Album Series (2009, 8122 79837 3, CD)\CD5 - I'll Take You Where The Music's Playing (1966)\04. I Don't Want to Go on Without You.wav

Peak level 99.9 %
Extraction speed 2.6 X
Track quality 99.9 %
Test CRC 1690D82E
Copy CRC 1690D82E
Accurately ripped (confidence 16) [0B30FEDD] (AR v2)
Copy OK

Track 5

Filename F:\Lossless\New Rips\The Drifters - Original Album Series (2009, 8122 79837 3, CD)\CD5 - I'll Take You Where The Music's Playing (1966)\05. Answer the Phone.wav

Peak level 99.9 %
Extraction speed 2.8 X
Track quality 99.9 %
Test CRC 48493F03
Copy CRC 48493F03
Accurately ripped (confidence 16) [E7C1BD6A] (AR v2)
Copy OK

Track 6

Filename F:\Lossless\New Rips\The Drifters - Original Album Series (2009, 8122 79837 3, CD)\CD5 - I'll Take You Where The Music's Playing (1966)\06. He's Just a Playboy.wav

Peak level 99.9 %
Extraction speed 3.5 X
Track quality 100.0 %
Test CRC 85D3439F
Copy CRC 85D3439F
Accurately ripped (confidence 16) [D175D032] (AR v2)
Copy OK

Track 7

Filename F:\Lossless\New Rips\The Drifters - Original Album Series (2009, 8122 79837 3, CD)\CD5 - I'll Take You Where The Music's Playing (1966)\07. Follow Me.wav

Pre-gap length 0:00:02.98

Peak level 99.9 %
Extraction speed 3.5 X
Track quality 100.0 %
Test CRC 15DF0F19
Copy CRC 15DF0F19
Accurately ripped (confidence 16) [2F7D4F21] (AR v2)
Copy OK

Track 8

Filename F:\Lossless\New Rips\The Drifters - Original Album Series (2009, 8122 79837 3, CD)\CD5 - I'll Take You Where The Music's Playing (1966)\08. Spanish Lace.wav

Peak level 99.9 %
Extraction speed 2.5 X
Track quality 99.8 %
Test CRC D4DE43BD
Copy CRC D4DE43BD
Accurately ripped (confidence 16) [304420A7] (AR v2)
Copy OK

Track 9

Filename F:\Lossless\New Rips\The Drifters - Original Album Series (2009, 8122 79837 3, CD)\CD5 - I'll Take You Where The Music's Playing (1966)\09. Chains of Love.wav

Peak level 99.9 %
Extraction speed 3.8 X
Track quality 100.0 %
Test CRC FC222B9D
Copy CRC FC222B9D
Accurately ripped (confidence 16) [D1C533CB] (AR v2)
Copy OK

Track 10

Filename F:\Lossless\New Rips\The Drifters - Original Album Series (2009, 8122 79837 3, CD)\CD5 - I'll Take You Where The Music's Playing (1966)\10. Far From the Maddening Crowd.wav

Peak level 99.9 %
Extraction speed 3.9 X
Track quality 100.0 %
Test CRC 72FCA438
Copy CRC 72FCA438
Accurately ripped (confidence 15) [7C49AA11] (AR v2)
Copy OK

Track 11

Filename F:\Lossless\New Rips\The Drifters - Original Album Series (2009, 8122 79837 3, CD)\CD5 - I'll Take You Where The Music's Playing (1966)\11. The Outside World.wav

Peak level 99.5 %
Extraction speed 4.0 X
Track quality 100.0 %
Test CRC 3C52AAF6
Copy CRC 3C52AAF6
Accurately ripped (confidence 16) [7E52B794] (AR v2)
Copy OK

Track 12

Filename F:\Lossless\New Rips\The Drifters - Original Album Series (2009, 8122 79837 3, CD)\CD5 - I'll Take You Where The Music's Playing (1966)\12. Come on Over to My Place.wav

Peak level 99.9 %
Extraction speed 4.0 X
Track quality 100.0 %
Test CRC A6ABBC37
Copy CRC A6ABBC37
Accurately ripped (confidence 16) [F9B61068] (AR v2)
Copy OK


All tracks accurately ripped

No errors occurred

End of status report

–– AcoustID Plugin V1.2.0

Total fingerprints: 12


–– CUETools DB Plugin V2.1.6

[CTDB TOCID: V6oDnQokh.VdTR_rjg0qD1OYVj8-] found
Submit result: V6oDnQokh.VdTR_rjg0qD1OYVj8- has been confirmed
Track | CTDB Status
1 | (23/23) Accurately ripped
2 | (23/23) Accurately ripped
3 | (23/23) Accurately ripped
4 | (23/23) Accurately ripped
5 | (23/23) Accurately ripped
6 | (23/23) Accurately ripped
7 | (23/23) Accurately ripped
8 | (23/23) Accurately ripped
9 | (23/23) Accurately ripped
10 | (22/23) Accurately ripped
11 | (23/23) Accurately ripped
12 | (23/23) Accurately ripped


==== Log checksum 5A7273FB858DFDA7BCF25D2B6DA6894320F96BBC2234377D3A7C7EA92432F8A3 ====